VERSION	0.00.00	1.03.00
FES_MODE	0
BPM_DEF	174.000	174.000	174.000	174.000
MET_DEF	4	4
RESOLUTION	384
CLK_DEF	384
COMPATIBLE_CODE	MA2

BPM	0	0	174.000
MET	0	0	4	4

TAP	3	0	0
TAP	5	0	0
TAP	7	0	7
BRK	9	0	7
TAP	11	0	0
TAP	12	0	0
TAP	13	0	1
TAP	14	0	1
TAP	15	0	2
TAP	16	0	2
TAP	17	0	3
XTP	18	0	3
XTP	18	0	4
TAP	19	0	4
TAP	20	0	4
TAP	21	0	5
TAP	22	0	5
TAP	23	0	6
TAP	24	0	6
TAP	25	0	7
XTP	26	0	0
XTP	26	0	7
TAP	27	0	0
TAP	28	0	0
STR	29	0	0
SI_	29	0	0	96	288	3
TAP	31	0	7
TAP	32	0	7
STR	33	0	7
SI_	33	0	7	96	288	4
TAP	35	0	0
TAP	35	192	0
TAP	36	0	0
TAP	37	0	7
TAP	37	192	7
TAP	38	0	7
TAP	39	0	6
TAP	39	192	6
TAP	40	0	6
TAP	41	0	5
TAP	41	192	5
BRK	42	0	5
TAP	43	0	4
TAP	43	192	4
TAP	44	0	4
TAP	45	0	3
TAP	45	192	3
TAP	46	0	3
TAP	47	0	2
TAP	47	192	2
TAP	48	0	2
TAP	49	0	1
TAP	49	192	1
BRK	50	0	1
HLD	51	0	0	384
TAP	53	0	0
TAP	53	192	0
XTP	54	0	0
HLD	55	0	7	384
TAP	57	0	7
TAP	57	192	7
XTP	58	0	7
STR	59	0	0
SI_	59	0	0	96	288	3
STR	61	0	7
SI_	61	0	7	96	288	4
TTP	63	0	3	B	0	L1
TTP	64	0	4	B	0	L1
TTP	65	0	2	B	0	L1
TTP	66	0	5	B	0	L1
TTP	67	0	3	B	0	L1
TTP	67	0	4	B	0	L1
TTP	68	0	2	B	0	L1
TTP	68	0	5	B	0	L1
THO	69	0	0	336	C	1	L1
TAP	71	0	0
TAP	71	96	0
TAP	71	192	0
TAP	72	0	0
TAP	72	96	0
TAP	72	192	0
TAP	73	0	1
TAP	73	96	1
TAP	73	192	1
HLD	74	0	1	192
TAP	75	0	2
TAP	75	96	2
TAP	75	192	2
TAP	76	0	2
TAP	76	96	2
TAP	76	192	2
TAP	77	0	3
TAP	77	96	3
TAP	77	192	3
XTP	78	0	3
XTP	78	0	4
BRK	78	192	3
BRK	78	192	4
TAP	79	0	4
TAP	79	96	4
TAP	79	192	4
TAP	80	0	4
TAP	80	96	4
TAP	80	192	4
TAP	81	0	5
TAP	81	96	5
TAP	81	192	5
HLD	82	0	5	192
TAP	83	0	6
TAP	83	96	6
TAP	83	192	6
TAP	84	0	6
TAP	84	96	6
TAP	84	192	6
XHO	85	0	0	336
XHO	85	0	7	336
BRK	86	192	0
BRK	86	192	7
TAP	87	0	0
TAP	87	192	0
TAP	88	0	1
TAP	88	192	1
TAP	89	0	0
TAP	89	96	0
TAP	89	192	0
XTP	90	0	0
BRK	90	192	0
TAP	91	0	7
TAP	91	192	7
TAP	92	0	6
TAP	92	192	6
TAP	93	0	7
TAP	93	96	7
TAP	93	192	7
XTP	94	0	7
BRK	94	192	7
XTP	95	0	0
XTP	95	96	0
XTP	95	192	0
XTP	96	0	1
XTP	96	96	1
XTP	96	192	1
XTP	97	0	2
XTP	97	96	2
XTP	97	192	2
XHO	98	0	3	192
XHO	98	0	4	192
TAP	99	0	4
TAP	99	96	4
TAP	99	192	4
TAP	100	0	5
TAP	100	96	5
TAP	100	192	5
TAP	101	0	6
TAP	101	96	6
TAP	101	192	6
TAP	102	0	0
TAP	102	0	7
TAP	102	96	0
TAP	102	96	7
TAP	102	192	0
TAP	102	192	7
BRK	103	0	1
BRK	103	0	6

T_REC_TAP	109
T_REC_BRK	11
T_REC_XTP	19
T_REC_HLD	4
T_REC_XHO	4
T_REC_STR	4
T_REC_BST	0
T_REC_XST	0
T_REC_TTP	8
T_REC_THO	1
T_REC_SLD	4
T_REC_ALL	164
T_NUM_TAP	140
T_NUM_BRK	11
T_NUM_HLD	9
T_NUM_SLD	4
T_NUM_ALL	164
T_JUDGE_TAP	151
T_JUDGE_HLD	53
T_JUDGE_SLD	4
T_JUDGE_ALL	208
TTM_EACHPAIRS	11
TTM_SCR_TAP	70000
TTM_SCR_BRK	28600
TTM_SCR_HLD	9000
TTM_SCR_SLD	6000
TTM_SCR_ALL	113600
TTM_SCR_S	109150
TTM_SCR_SS	112500
TTM_RAT_ACV	10097

