VERSION	0.00.00	1.03.00
FES_MODE	0
BPM_DEF	210.000	210.000	210.000	210.000
MET_DEF	4	4
RESOLUTION	384
CLK_DEF	384
COMPATIBLE_CODE	MA2

BPM	0	0	210.000
MET	0	0	4	4

HLD	2	0	2	96
TAP	2	96	3
TAP	2	192	2
TAP	2	192	4
HLD	2	336	5	96
TAP	3	48	4
TAP	3	96	5
TAP	3	192	3
TAP	3	192	6
HLD	4	0	5	96
TAP	4	96	4
TAP	4	192	3
TAP	4	192	5
HLD	4	336	2	96
TAP	5	48	3
TAP	5	96	2
TAP	5	192	1
TAP	5	192	4
HLD	6	0	3	96
TAP	6	96	4
TAP	6	192	3
TAP	6	192	5
HLD	6	336	6	96
TAP	7	48	4
TAP	7	96	5
TAP	7	192	3
TAP	7	192	6
HLD	8	0	4	96
TAP	8	96	3
TAP	8	192	2
TAP	8	192	4
HLD	8	336	1	96
TAP	9	48	3
STR	9	96	2
SCL	9	96	2	96	120	5
TTP	9	192	0	C	1	M1
HLD	10	0	6	96
TAP	10	96	4
HLD	10	144	5	96
TAP	10	240	3
HLD	10	288	4	96
TAP	11	0	2
HLD	11	48	3	96
TAP	11	144	1
STR	11	192	2
SV_	11	192	2	96	96	3
HLD	12	0	1	96
TAP	12	96	3
HLD	12	144	2	96
TAP	12	240	4
HLD	12	288	3	96
TAP	13	0	5
HLD	13	48	4	96
TAP	13	144	6
STR	13	192	5
SV_	13	192	5	96	96	4
HLD	14	0	7	96
TAP	14	96	5
HLD	14	144	6	96
TAP	14	240	4
HLD	14	288	5	96
TAP	15	0	3
HLD	15	48	4	96
TAP	15	144	2
STR	15	192	3
SV_	15	192	3	96	96	4
HLD	16	0	0	96
TAP	16	96	2
HLD	16	144	1	96
TAP	16	240	3
HLD	16	288	2	96
TAP	17	0	4
HLD	17	48	3	96
TAP	17	144	5
TAP	17	192	4
TAP	17	240	4
TAP	17	288	3
TAP	17	336	3
HLD	18	0	2	96
TAP	18	96	4
TAP	18	144	2
TAP	18	192	3
TAP	18	288	2
TAP	18	288	4
TAP	18	336	2
TAP	19	48	1
TAP	19	96	2
TAP	19	96	4
TAP	19	144	3
TAP	19	288	4
TAP	19	336	2
HLD	20	0	2	96
TAP	20	96	4
HLD	20	144	2	96
TAP	20	240	3
TAP	20	288	2
TAP	20	288	4
TAP	20	336	1
TAP	21	48	1
TAP	21	96	2
TAP	21	96	4
STR	21	144	2
SI_	21	144	2	96	48	4
XTP	21	288	5
HLD	22	0	5	96
TAP	22	96	3
TAP	22	144	5
TAP	22	192	4
TAP	22	288	3
TAP	22	288	5
TAP	22	336	5
TAP	23	48	6
TAP	23	96	3
TAP	23	96	5
TAP	23	144	4
TAP	23	288	3
TAP	23	336	5
HLD	24	0	5	96
TAP	24	96	3
HLD	24	144	5	96
TAP	24	240	4
TAP	24	288	3
TAP	24	288	5
TAP	24	336	6
TAP	25	0	4
TAP	25	48	5
TAP	25	96	3
TAP	25	144	4
STR	25	192	2
SI_	25	192	2	96	48	4
XTP	25	288	6
TAP	26	0	5
TAP	26	48	4
TAP	26	96	5
TAP	26	144	3
TAP	26	192	3
TAP	26	192	5
TAP	26	288	2
TAP	26	288	5
TAP	26	336	2
TAP	27	0	5
TAP	27	48	3
TAP	27	96	5
TAP	27	144	4
STR	27	192	6
SCL	27	192	6	96	48	3
XTP	27	288	6
TAP	27	336	2
TAP	28	0	2
TAP	28	96	4
TAP	28	96	6
TAP	28	144	4
TAP	28	192	6
TAP	28	240	3
TAP	28	288	6
TAP	28	336	2
TAP	29	0	6
TAP	29	48	1
TAP	29	96	0
TAP	29	96	6
TAP	29	144	0
STR	29	192	7
SCL	29	192	7	96	48	4
XTP	29	288	1
XTP	29	288	7
TAP	30	0	2
TAP	30	48	3
TAP	30	96	2
TAP	30	96	3
TAP	30	192	2
TAP	30	192	4
TAP	30	288	2
TAP	30	288	5
TAP	30	336	5
TAP	31	0	2
TAP	31	48	4
TAP	31	96	2
TAP	31	144	3
STR	31	192	1
SCR	31	192	1	96	48	4
XTP	31	288	1
TAP	31	336	5
TAP	32	0	5
TAP	32	96	1
TAP	32	144	7
TAP	32	192	1
TAP	32	192	6
TAP	32	240	5
TAP	32	288	1
TAP	32	336	3
TAP	33	0	1
TAP	33	48	5
TAP	33	96	1
TAP	33	144	7
STR	33	192	0
SI_	33	192	0	96	48	4
XTP	33	288	0
STR	33	288	7
SCL	33	288	7	96	480	2
HLD	34	0	2	96
HLD	34	144	1	96
HLD	34	288	0	96
HLD	35	48	7	96
TAP	35	192	1
TAP	35	192	5
TAP	35	288	0
STR	35	288	7
SCL	35	288	7	96	480	2
HLD	36	0	2	96
HLD	36	144	1	96
HLD	36	288	0	96
HLD	37	48	7	96
TAP	37	192	1
TAP	37	192	5
STR	37	288	0
SCR	37	288	0	96	480	5
TAP	37	288	7
HLD	38	0	5	96
HLD	38	144	6	96
HLD	38	288	7	96
HLD	39	48	0	96
TAP	39	192	2
TAP	39	192	6
STR	39	288	0
SCR	39	288	0	96	480	5
TAP	39	288	7
HLD	40	0	5	96
HLD	40	144	6	96
HLD	40	288	7	96
HLD	41	48	0	96
TAP	41	192	2
TAP	41	192	6
TAP	41	288	0
TAP	41	288	7
TTP	42	0	0	C	0	M1
TTP	42	0	4	E	0	M1
TTP	42	144	0	C	0	M1
TTP	42	144	6	E	0	M1
TTP	42	288	0	C	0	M1
TTP	42	288	2	E	0	M1
TTP	43	48	0	C	0	M1
TTP	43	48	0	E	0	M1
TTP	43	192	0	C	0	M1
BST	44	0	1
SCR	44	0	1	96	48	4
BRK	44	0	5
XHO	44	96	7	96
TAP	44	192	5
TAP	44	240	6
TAP	44	288	3
TAP	44	288	5
TAP	44	336	2
TAP	45	0	1
STR	45	0	7
SXR	45	0	7	96	120	7
TAP	45	96	0
HLD	45	144	0	144
XST	45	288	7
SI_	45	288	7	96	48	3
STR	46	0	1
SI_	46	0	1	96	48	7
TAP	46	48	1
STR	46	96	5
SI_	46	96	5	96	48	1
TAP	46	144	5
STR	46	192	3
SI_	46	192	3	96	48	5
TAP	46	240	3
STR	46	288	7
SI_	46	288	7	96	48	3
TAP	46	336	7
STR	47	0	2
SCL	47	0	2	96	96	5
TAP	47	96	4
TAP	47	144	4
TAP	47	288	0
STR	47	288	6
SI_	47	288	6	96	48	2
BST	48	0	2
SI_	48	0	2	96	48	6
BRK	48	96	6
TAP	48	192	5
TAP	48	192	7
TAP	48	240	0
TAP	48	288	1
TAP	48	288	3
TAP	48	336	4
STR	49	0	3
SXR	49	0	3	96	120	3
TAP	49	0	5
TAP	49	96	7
HLD	49	144	7	144
XST	49	288	4
SI_	49	288	4	96	48	0
STR	50	0	6
SI_	50	0	6	96	48	4
TAP	50	48	6
STR	50	96	2
SI_	50	96	2	96	48	0
TAP	50	144	2
STR	50	192	6
SI_	50	192	6	96	48	2
XTP	50	288	1
XTP	50	288	6
TAP	51	0	0
TAP	51	0	7
TAP	51	48	1
TAP	51	48	6
TAP	51	96	2
TAP	51	96	5
TAP	51	144	3
STR	51	144	4
SF_	51	144	4	96	48	0
STR	52	0	0
SCR	52	0	0	96	96	4
STR	52	96	4
SCR	52	96	4	96	96	0
STR	52	192	0
SCR	52	192	0	96	96	4
STR	52	288	4
SCR	52	288	4	96	96	0
STR	53	0	0
SCR	53	0	0	96	96	4
STR	53	96	4
SCR	53	96	4	96	96	0
STR	53	192	0
SCR	53	192	0	96	96	4
STR	53	288	4
SCR	53	288	4	96	240	4
TTP	54	0	0	C	1	M1
TAP	55	0	4
STR	55	0	6
SI_	55	0	6	96	48	2
TAP	55	96	0
HLD	55	144	0	240
TAP	55	192	7
TAP	55	240	7
TAP	55	288	7
TAP	55	336	7
STR	56	0	7
SCL	56	0	7	96	96	3
STR	56	96	3
SCL	56	96	3	96	96	7
STR	56	192	7
SCL	56	192	7	96	96	3
STR	56	288	3
SCL	56	288	3	96	96	7
STR	57	0	7
SCL	57	0	7	96	96	3
STR	57	96	3
SCL	57	96	3	96	96	7
STR	57	192	7
SCL	57	192	7	96	96	3
STR	57	288	3
SCL	57	288	3	96	240	3
TTP	58	0	0	C	1	M1
TAP	59	0	1
TAP	59	0	3
TAP	59	48	2
TAP	59	96	4
TAP	59	96	6
STR	59	144	5
SI_	59	144	5	96	48	2
TTP	59	288	0	E	0	M1
HLD	60	0	1	96
TAP	60	96	3
HLD	60	144	2	96
TAP	60	240	4
STR	60	288	3
SI_	60	288	3	96	48	1
STR	61	0	5
SI_	61	0	5	96	48	3
TAP	61	96	0
TAP	61	192	2
TAP	61	240	2
TAP	61	288	4
TAP	61	336	3
HLD	62	0	6	96
TAP	62	96	4
HLD	62	144	5	96
TAP	62	240	3
STR	62	288	4
SI_	62	288	4	96	48	6
STR	63	0	2
SI_	63	0	2	96	48	4
TAP	63	96	7
TAP	63	192	5
TAP	63	240	5
TAP	63	288	3
TAP	63	336	4
HLD	64	0	0	96
TAP	64	96	3
HLD	64	144	2	96
TAP	64	240	5
STR	64	288	4
SI_	64	288	4	96	48	2
STR	65	0	6
SI_	65	0	6	96	48	2
TAP	65	96	0
TAP	65	192	1
TAP	65	240	1
TAP	65	288	3
TAP	65	336	2
HLD	66	0	7	96
TAP	66	96	4
HLD	66	144	5	96
TAP	66	240	2
STR	66	288	3
SI_	66	288	3	96	48	5
STR	67	0	1
SI_	67	0	1	96	48	5
TAP	67	96	7
TAP	67	192	6
TAP	67	240	6
TAP	67	288	4
TAP	67	336	5
HLD	68	0	1	384
HLD	69	0	2	384
HLD	70	0	3	384
HLD	71	0	4	192
HLD	71	192	5	192
HLD	72	0	6	384
HLD	73	0	4	384
HLD	74	0	3	384
STR	75	0	1
SUR	75	0	1	96	288	4
TTP	75	192	0	C	0	M1
TAP	76	0	5
TAP	76	96	5
TTP	76	192	4	B	0	M1
HLD	76	336	3	96
TAP	77	48	4
TAP	77	96	3
TTP	77	192	4	E	0	M1
TAP	78	0	2
TAP	78	96	2
TTP	78	192	3	B	0	M1
HLD	78	336	4	96
TAP	79	48	3
TAP	79	96	4
TTP	79	192	4	E	0	M1
TAP	80	0	5
TAP	80	96	5
TTP	80	192	5	E	0	M1
HLD	80	336	2	96
TAP	81	48	3
TAP	81	96	2
TTP	81	192	3	E	0	M1
TAP	82	0	5
TAP	82	96	4
TAP	82	192	3
STR	82	288	2
SCL	82	288	2	96	192	5
THO	83	0	0	192	C	0	M1
BRK	84	0	2
BST	84	0	6
SCL	84	0	6	96	48	3
XHO	84	96	0	96
TAP	84	192	2
TAP	84	240	1
TAP	84	288	2
TAP	84	288	4
TAP	84	336	5
STR	85	0	0
SXL	85	0	0	96	120	0
TAP	85	0	6
TAP	85	96	7
HLD	85	144	7	144
XST	85	288	0
SI_	85	288	0	96	48	4
STR	86	0	6
SI_	86	0	6	96	48	0
TAP	86	48	6
STR	86	96	2
SI_	86	96	2	96	48	6
TAP	86	144	2
STR	86	192	4
SI_	86	192	4	96	48	2
TAP	86	240	4
STR	86	288	0
SI_	86	288	0	96	48	4
TAP	86	336	0
STR	87	0	6
SSL	87	0	6	96	96	2
TAP	87	96	1
TAP	87	144	1
XST	87	288	1
SCL	87	288	1	96	48	6
BST	88	0	6
SCR	88	0	6	96	48	1
BRK	88	96	1
TAP	88	192	0
TAP	88	192	7
TAP	88	240	6
TAP	88	288	3
TAP	88	288	5
TAP	88	336	2
TAP	89	0	1
STR	89	0	4
SXL	89	0	4	96	120	4
TAP	89	96	0
HLD	89	144	0	144
XST	89	288	3
SI_	89	288	3	96	48	7
XST	90	0	1
SI_	90	0	1	96	48	3
TAP	90	48	1
XST	90	96	5
SI_	90	96	5	96	48	7
TAP	90	144	5
XST	90	192	1
SI_	90	192	1	96	48	5
TAP	90	240	1
XST	90	288	7
SI_	90	288	7	96	48	3
XTP	90	336	7
XST	91	0	2
SXL	91	0	2	96	240	5
XTP	91	96	6
XHO	91	144	6	144
TTP	91	288	0	C	1	M1
XST	92	0	7
SCL	92	0	7	96	96	3
XST	92	96	3
SCL	92	96	3	96	96	7
XST	92	192	7
SCL	92	192	7	96	96	3
XST	92	288	3
SCL	92	288	3	96	96	7
XST	93	0	7
SCL	93	0	7	96	96	3
XST	93	96	3
SCL	93	96	3	96	96	7
XST	93	192	7
SCL	93	192	7	96	96	3
XST	93	288	3
SCL	93	288	3	96	240	3
TTP	94	0	0	C	1	M1
STR	95	0	1
SI_	95	0	1	96	48	5
TAP	95	0	3
TAP	95	96	7
HLD	95	144	7	240
XTP	95	192	0
XTP	95	240	0
XTP	95	288	0
XTP	95	336	0
XST	96	0	0
SCR	96	0	0	96	96	4
XST	96	96	4
SCR	96	96	4	96	96	0
XST	96	192	0
SCR	96	192	0	96	96	4
XST	96	288	4
SCR	96	288	4	96	96	0
XST	97	0	0
SCR	97	0	0	96	96	4
XST	97	96	4
SCR	97	96	4	96	96	0
XST	97	192	0
SCR	97	192	0	96	96	4
XST	97	288	4
SCR	97	288	4	96	240	4
TTP	98	0	0	C	1	M1
TAP	99	0	3
TAP	99	0	4
TAP	99	96	1
TAP	99	96	6
TAP	99	144	1
TAP	99	144	6
XTP	99	192	0
XST	99	192	7
SCL	99	192	7	96	48	3
STR	99	288	3
SCL	99	288	3	96	96	7
BST	100	0	7
SCL	100	0	7	96	192	7
TTP	100	96	0	C	1	M1
BST	100	192	7
SCL	100	192	7	96	192	7
TTP	100	288	0	C	1	M1
BST	101	0	7
SCL	101	0	7	96	192	7
TTP	101	96	0	C	1	M1
BRK	101	192	7
TTP	101	288	0	C	1	M1
XTP	102	0	1
XTP	102	0	6
TAP	102	96	0
TAP	102	96	7
TAP	102	144	1
TAP	102	144	6
STR	102	192	1
SI_	102	192	1	96	48	5
TAP	102	192	6
TAP	102	288	7
STR	103	0	6
SI_	103	0	6	96	48	2
TAP	103	96	0
TAP	103	144	0
XTP	103	192	1
XTP	103	192	5
XTP	103	240	1
XTP	103	240	5
XTP	103	288	1
XTP	103	288	5
XTP	103	336	1
XTP	103	336	5
BST	104	0	0
SCR	104	0	0	96	96	4
XST	104	96	4
SCR	104	96	4	96	96	0
BST	104	192	0
SCR	104	192	0	96	192	0
TTP	104	288	0	C	1	M1
BST	105	0	0
SCR	105	0	0	96	192	0
TTP	105	96	0	C	1	M1
BRK	105	192	0
TTP	105	288	0	C	1	M1
XTP	106	0	1
XTP	106	0	6
XTP	106	96	0
XTP	106	96	7
TAP	106	144	1
TAP	106	144	6
STR	106	192	1
SI_	106	192	1	96	48	4
STR	106	192	6
SI_	106	192	6	96	48	3
XTP	106	288	1
XTP	106	288	6
XTP	107	0	2
XTP	107	0	5
TAP	107	96	0
TAP	107	96	7
BRK	107	144	0
BRK	107	144	7
TAP	108	96	2
TAP	108	192	3
TAP	108	288	4
TAP	108	336	4
TAP	109	48	5
TAP	109	96	5
TAP	109	144	4
TAP	109	336	6
TAP	110	0	6
TAP	110	96	5
TAP	110	144	5
TAP	110	240	4
TAP	110	336	3
TAP	111	48	6
TAP	111	96	4
TAP	111	144	4
TAP	112	48	5
TAP	112	96	5
TAP	112	192	4
TAP	112	288	3
TAP	112	336	3
TAP	113	48	2
TAP	113	96	2
TAP	113	144	3
TAP	113	336	1
TAP	114	0	1
TAP	114	96	2
TAP	114	144	2
TAP	114	240	3
TAP	114	336	4
TAP	115	0	4
STR	115	48	1
SI_	115	48	1	96	48	5
TAP	115	96	3
TAP	115	144	3

T_REC_TAP	314
T_REC_BRK	8
T_REC_XTP	34
T_REC_HLD	71
T_REC_XHO	3
T_REC_STR	68
T_REC_BST	10
T_REC_XST	28
T_REC_TTP	30
T_REC_THO	1
T_REC_SLD	106
T_REC_ALL	673
T_NUM_TAP	474
T_NUM_BRK	18
T_NUM_HLD	75
T_NUM_SLD	106
T_NUM_ALL	673
T_JUDGE_TAP	492
T_JUDGE_HLD	203
T_JUDGE_SLD	106
T_JUDGE_ALL	801
TTM_EACHPAIRS	74
TTM_SCR_TAP	237000
TTM_SCR_BRK	46800
TTM_SCR_HLD	75000
TTM_SCR_SLD	159000
TTM_SCR_ALL	517800
TTM_SCR_S	500550
TTM_SCR_SS	516000
TTM_RAT_ACV	10034

