VERSION	0.00.00	1.03.00
FES_MODE	0
BPM_DEF	210.000	210.000	210.000	210.000
MET_DEF	4	4
RESOLUTION	384
CLK_DEF	384
COMPATIBLE_CODE	MA2

BPM	0	0	210.000
MET	0	0	4	4

HLD	2	0	2	720
TAP	2	192	3
TAP	3	96	4
TAP	3	192	4
HLD	4	0	5	720
TAP	4	192	4
TAP	5	96	3
TAP	5	192	3
HLD	6	0	2	720
TAP	6	192	3
TAP	7	96	5
TAP	7	192	5
HLD	8	0	6	384
TAP	8	192	7
STR	9	0	0
SSL	9	0	0	96	192	4
XHO	10	0	5	192
TAP	10	144	4
TAP	10	192	4
TAP	10	288	4
TAP	10	288	5
TAP	11	0	3
TAP	11	96	3
TAP	11	192	2
TAP	11	192	4
HLD	12	0	2	192
TAP	12	0	4
TAP	12	144	3
TAP	12	192	3
TAP	12	288	2
TAP	12	288	3
TAP	13	0	4
TAP	13	96	5
TAP	13	192	3
TAP	13	192	6
HLD	14	0	4	144
HLD	14	0	5	144
TAP	14	192	4
TAP	14	192	5
TAP	14	288	3
TAP	14	288	4
TAP	15	0	3
TAP	15	96	3
TAP	15	192	2
TAP	15	192	4
HLD	16	0	2	144
HLD	16	0	3	144
TAP	16	192	2
TAP	16	192	3
TAP	16	288	3
TAP	16	288	4
TAP	17	0	2
TAP	17	0	5
TAP	17	96	2
TAP	17	96	5
TAP	17	192	3
TAP	17	192	4
TTP	18	0	3	E	0	M1
TTP	18	96	2	E	0	M1
TTP	18	192	1	E	0	M1
TTP	18	288	0	C	0	M1
TTP	19	0	5	E	0	M1
TTP	19	96	6	E	0	M1
TTP	19	192	7	B	0	M1
TTP	19	192	7	E	0	M1
TTP	20	0	0	B	0	M1
TTP	20	96	0	C	0	M1
TTP	20	192	4	E	0	M1
TTP	20	192	5	E	0	M1
TTP	21	0	7	B	0	M1
TTP	21	96	0	C	0	M1
TTP	21	192	3	E	0	M1
TTP	21	192	4	E	0	M1
TTP	22	0	5	E	0	M1
TTP	22	96	6	E	0	M1
TTP	22	192	7	E	0	M1
TTP	22	288	0	C	0	M1
TTP	23	0	3	E	0	M1
TTP	23	96	2	E	0	M1
TTP	23	192	0	B	0	M1
TTP	23	192	1	E	0	M1
TAP	24	0	7
TAP	24	96	7
TAP	24	192	0
TAP	24	288	0
HLD	25	0	0	96
HLD	25	0	7	96
XTP	25	192	1
XTP	25	192	6
TAP	26	0	1
TAP	26	96	2
TAP	26	192	3
TAP	26	192	4
TAP	26	288	3
TAP	26	288	4
TAP	27	0	2
TAP	27	96	1
TAP	27	96	3
TAP	27	192	0
TAP	27	288	0
TAP	27	288	4
TAP	28	0	1
TAP	28	96	1
TAP	28	192	2
TAP	28	192	3
STR	28	288	1
SV_	28	288	1	96	144	4
TAP	28	288	4
XTP	29	288	3
XTP	29	288	5
TAP	30	0	6
TAP	30	96	5
TAP	30	192	3
TAP	30	192	4
TAP	30	288	3
TAP	30	288	4
TAP	31	0	5
TAP	31	96	4
TAP	31	96	6
TAP	31	192	7
TAP	31	288	3
TAP	31	288	7
TAP	32	0	6
TAP	32	96	4
TAP	32	96	5
TAP	32	192	3
STR	32	288	2
SI_	32	288	2	96	144	6
STR	32	288	4
SI_	32	288	4	96	144	0
XTP	33	288	7
HLD	34	0	6	144
HLD	34	0	7	144
TAP	34	192	6
TAP	34	192	7
TAP	34	288	5
HLD	35	0	4	96
HLD	35	0	6	96
HLD	35	192	2	96
HLD	35	192	3	96
HLD	36	0	0	144
HLD	36	0	1	144
TAP	36	192	0
TAP	36	192	1
TAP	36	288	2
HLD	37	0	1	96
HLD	37	0	3	96
TAP	37	192	2
TAP	37	192	4
HLD	38	0	3	144
HLD	38	0	6	144
TAP	38	192	3
TAP	38	192	6
TAP	38	288	7
TAP	39	0	4
TAP	39	0	6
TAP	39	96	4
TAP	39	96	5
TAP	39	192	2
TAP	39	192	3
TAP	39	288	1
TAP	39	288	3
STR	40	0	0
SCR	40	0	0	96	288	5
STR	41	0	7
SCL	41	0	7	96	288	2
THO	42	0	0	576	C	0	M1
BRK	44	0	0
BRK	44	0	7
BRK	44	96	1
BRK	44	96	6
HLD	44	192	2	96
TAP	44	288	3
TAP	44	336	3
TAP	45	0	2
TAP	45	96	1
TAP	45	96	4
TAP	45	144	1
TAP	45	144	4
TAP	45	240	2
TAP	45	240	3
TAP	45	288	2
TAP	45	288	3
HLD	46	0	5	96
HLD	46	96	4	96
HLD	46	192	6	96
HLD	46	288	7	96
TAP	47	0	6
TAP	47	96	6
TAP	47	96	7
TAP	47	144	6
TAP	47	144	7
XTP	47	288	3
XTP	47	288	4
BRK	48	0	3
BRK	48	0	4
BRK	48	96	2
BRK	48	96	5
HLD	48	192	6	96
TAP	48	288	7
TAP	48	336	7
TAP	49	0	6
TAP	49	96	0
TAP	49	96	5
TAP	49	144	0
TAP	49	144	5
TAP	49	240	6
TAP	49	240	7
TAP	49	288	6
TAP	49	288	7
HLD	50	0	1	96
HLD	50	96	0	96
HLD	50	192	2	96
HLD	50	288	3	96
TAP	51	0	2
TAP	51	96	1
TAP	51	96	4
TAP	51	144	1
TAP	51	144	4
XTP	51	288	0
XTP	51	288	7
HLD	52	0	7	96
HLD	52	96	6	96
HLD	52	192	5	96
HLD	52	288	4	96
HLD	53	0	3	96
HLD	53	96	2	96
HLD	53	192	1	96
TAP	53	288	0
TAP	54	0	2
TAP	54	0	7
TAP	54	96	1
TAP	54	144	1
TAP	54	192	0
TAP	54	288	0
TAP	54	288	1
TAP	55	0	0
TAP	55	0	7
TAP	55	96	1
TAP	55	96	6
TAP	55	144	1
TAP	55	144	6
BRK	55	288	2
BRK	55	288	5
HLD	56	0	3	96
HLD	56	96	2	96
HLD	56	192	1	96
HLD	56	288	0	96
HLD	57	0	7	96
HLD	57	96	6	96
HLD	57	192	5	96
TAP	57	288	4
TAP	58	0	3
TAP	58	0	6
TAP	58	96	5
TAP	58	144	5
TAP	58	192	4
TAP	58	288	3
TAP	58	288	4
TAP	59	0	2
TAP	59	0	3
XTP	59	96	1
XTP	59	96	4
XHO	59	144	1	144
XTP	59	144	4
BRK	59	288	0
STR	60	0	7
SI_	60	0	7	96	96	4
STR	60	192	0
SI_	60	192	0	96	96	3
TTP	61	0	4	E	0	M1
TTP	61	96	0	C	0	M1
TTP	61	192	1	E	0	M1
TTP	61	192	2	E	0	M1
STR	62	0	7
SI_	62	0	7	96	96	4
STR	62	192	0
SI_	62	192	0	96	96	3
TTP	63	0	4	E	0	M1
TTP	63	96	0	C	0	M1
TTP	63	192	6	E	0	M1
TTP	63	192	7	E	0	M1
STR	64	0	1
SI_	64	0	1	96	96	4
STR	64	192	5
SI_	64	192	5	96	96	0
TTP	65	0	1	E	0	M1
TTP	65	96	0	C	0	M1
TTP	65	192	5	E	0	M1
TTP	65	192	6	E	0	M1
STR	66	0	6
SI_	66	0	6	96	96	3
STR	66	192	2
SI_	66	192	2	96	96	7
TAP	67	0	6
TAP	67	96	6
XTP	67	192	6
XTP	67	192	7
HLD	68	0	5	768
TAP	69	0	4
TAP	69	192	4
HLD	70	0	2	768
TAP	71	0	3
TAP	71	192	3
HLD	72	0	6	768
TAP	73	0	5
TAP	73	192	5
HLD	74	0	3	576
THO	75	0	0	192	C	0	M1
TAP	76	0	1
TAP	76	96	1
TAP	76	192	0
HLD	76	192	1	384
TTP	77	0	1	E	0	M1
TTP	77	96	2	E	0	M1
TTP	77	192	3	E	0	M1
TAP	78	0	4
TAP	78	96	4
TAP	78	192	3
HLD	78	192	4	384
TTP	79	0	4	E	0	M1
TTP	79	96	5	E	0	M1
TTP	79	192	6	E	0	M1
TAP	80	0	6
TAP	80	96	6
HLD	80	192	6	384
TAP	80	192	7
TTP	81	0	7	E	0	M1
TTP	81	96	6	E	0	M1
TTP	81	192	5	E	0	M1
TTP	82	0	3	E	0	M1
TTP	82	96	1	B	0	M1
TTP	82	96	2	E	0	M1
TTP	82	192	5	E	0	M1
TTP	82	288	6	B	0	M1
TTP	82	288	6	E	0	M1
THO	83	0	0	192	C	0	M1
BRK	84	0	0
BRK	84	0	7
BRK	84	96	1
BRK	84	96	6
TAP	84	192	2
TAP	84	240	2
TAP	84	288	3
TAP	85	0	1
TAP	85	0	4
TAP	85	96	5
TAP	85	144	5
TAP	85	192	4
TAP	85	288	3
TAP	85	288	6
HLD	86	0	2	96
HLD	86	96	3	96
HLD	86	192	1	96
HLD	86	288	0	96
TAP	87	0	7
TAP	87	96	6
TAP	87	96	7
TAP	87	144	6
TAP	87	144	7
XTP	87	288	4
XTP	87	288	5
BRK	88	0	3
BRK	88	0	4
BRK	88	96	2
BRK	88	96	5
TAP	88	192	6
TAP	88	240	6
TAP	88	288	7
TAP	89	0	0
TAP	89	0	5
TAP	89	96	1
TAP	89	144	1
TAP	89	192	0
TAP	89	288	2
TAP	89	288	7
HLD	90	0	6	96
HLD	90	96	4	96
HLD	90	192	2	96
HLD	90	288	1	96
TAP	91	0	3
XTP	91	96	0
XTP	91	96	4
BRK	91	144	0
BRK	91	144	4
XTP	91	288	2
XTP	91	288	3
BRK	92	0	2
BRK	92	0	3
XTP	92	96	1
XTP	92	96	4
BRK	92	192	4
BRK	92	192	5
XTP	92	288	3
XTP	92	288	6
BRK	93	0	2
BRK	93	0	3
XTP	93	96	1
XTP	93	96	4
TAP	93	192	3
TAP	93	192	4
TAP	93	288	3
TAP	93	288	4
TAP	94	0	5
TAP	94	48	5
TAP	94	96	4
TAP	94	192	3
TAP	94	192	6
TAP	94	288	2
TAP	94	336	2
TAP	95	0	3
TAP	95	96	1
TAP	95	96	4
TAP	95	144	1
TAP	95	144	4
XTP	95	288	0
XTP	95	288	1
BRK	96	0	0
BRK	96	0	1
XTP	96	96	2
XTP	96	96	7
BRK	96	192	6
BRK	96	192	7
XTP	96	288	0
XTP	96	288	5
BRK	97	0	0
BRK	97	0	1
XTP	97	96	2
XTP	97	96	7
TAP	97	192	0
TAP	97	192	7
TAP	97	288	0
TAP	97	288	7
TAP	98	0	6
TAP	98	48	6
TAP	98	96	7
TAP	98	192	0
TAP	98	192	5
TAP	98	288	1
TAP	98	336	1
TAP	99	0	0
TAP	99	96	2
TAP	99	96	7
TAP	99	144	2
TAP	99	144	7
XTP	99	288	2
XTP	99	288	3
BRK	100	0	2
BRK	100	0	3
XTP	100	96	0
XTP	100	96	7
BRK	100	192	4
BRK	100	192	5
XTP	100	288	0
XTP	100	288	7
BRK	101	0	2
BRK	101	0	3
XTP	101	96	0
XTP	101	96	7
BRK	101	192	1
BRK	101	192	6
BRK	101	288	1
BRK	101	288	6
TAP	102	0	2
TAP	102	48	2
TAP	102	96	3
TAP	102	192	1
TAP	102	192	4
TAP	102	288	0
TAP	102	336	0
TAP	103	0	7
TAP	103	96	1
TAP	103	96	6
TAP	103	144	1
TAP	103	144	6
XTP	103	288	4
XTP	103	288	5
BRK	104	0	4
BRK	104	0	5
XTP	104	96	0
XTP	104	96	1
BRK	104	192	2
BRK	104	192	3
XTP	104	288	6
XTP	104	288	7
BRK	105	0	4
BRK	105	0	5
XTP	105	96	0
XTP	105	96	1
BRK	105	192	2
BRK	105	192	3
BRK	105	288	6
BRK	105	288	7
TAP	106	0	1
TAP	106	48	1
TAP	106	96	0
TAP	106	192	2
TAP	106	192	7
HLD	106	288	1	96
STR	106	288	6
SLR	106	288	6	96	240	4
HLD	108	0	2	768
HLD	108	144	3	432
HLD	110	0	4	576
HLD	110	144	3	624
HLD	112	0	5	576
HLD	112	144	4	768
THO	114	0	0	576	C	0	M1

T_REC_TAP	249
T_REC_BRK	53
T_REC_XTP	50
T_REC_HLD	69
T_REC_XHO	2
T_REC_STR	15
T_REC_BST	0
T_REC_XST	0
T_REC_TTP	51
T_REC_THO	4
T_REC_SLD	15
T_REC_ALL	508
T_NUM_TAP	365
T_NUM_BRK	53
T_NUM_HLD	75
T_NUM_SLD	15
T_NUM_ALL	508
T_JUDGE_TAP	418
T_JUDGE_HLD	370
T_JUDGE_SLD	15
T_JUDGE_ALL	803
TTM_EACHPAIRS	137
TTM_SCR_TAP	182500
TTM_SCR_BRK	137800
TTM_SCR_HLD	75000
TTM_SCR_SLD	22500
TTM_SCR_ALL	417800
TTM_SCR_S	400150
TTM_SCR_SS	412500
TTM_RAT_ACV	10128

