VERSION	0.00.00	1.03.00
FES_MODE	0
BPM_DEF	210.000	210.000	210.000	210.000
MET_DEF	4	4
RESOLUTION	384
CLK_DEF	384
COMPATIBLE_CODE	MA2

BPM	0	0	210.000
MET	0	0	4	4

THO	2	0	0	2688	C	0	L1
STR	10	0	6
SI_	10	0	6	96	192	3
TAP	11	0	2
TAP	11	96	2
TAP	11	192	2
TAP	11	192	3
STR	12	0	1
SI_	12	0	1	96	192	4
TAP	13	0	5
TAP	13	96	5
TAP	13	192	4
TAP	13	192	5
STR	14	0	6
SI_	14	0	6	96	192	3
TAP	15	0	2
TAP	15	96	2
TAP	15	192	2
TAP	15	192	3
STR	16	0	1
SI_	16	0	1	96	192	4
TAP	17	0	5
TAP	17	96	5
BRK	17	192	3
BRK	17	192	4
HLD	18	0	5	192
TAP	18	192	4
HLD	19	0	2	192
TAP	19	192	3
HLD	20	0	5	192
TAP	20	192	4
HLD	21	0	2	96
HLD	21	0	3	96
TAP	21	192	2
TAP	21	192	3
HLD	22	0	1	192
TAP	22	192	0
HLD	23	0	6	192
TAP	23	192	7
HLD	24	0	1	192
TAP	24	192	0
HLD	25	0	6	96
HLD	25	0	7	96
TAP	25	192	6
TAP	25	192	7
TAP	26	0	5
TAP	26	96	5
TAP	26	192	4
TAP	27	0	2
TAP	27	96	2
TAP	27	192	3
TAP	28	0	5
TAP	28	96	5
TAP	28	192	4
TAP	29	0	3
TAP	29	96	3
TAP	29	192	2
TAP	29	192	4
TAP	30	0	1
TAP	30	96	1
TAP	30	192	0
TAP	31	0	6
TAP	31	96	6
TAP	31	192	7
TAP	32	0	1
TAP	32	96	1
TAP	32	192	0
TAP	33	0	7
TAP	33	96	0
TAP	33	192	1
TAP	33	192	6
STR	34	0	1
SUR	34	0	1	96	192	5
STR	35	0	6
SUL	35	0	6	96	192	2
STR	36	0	1
SCR	36	0	1	96	192	4
TAP	37	0	5
TAP	37	192	4
TAP	37	192	5
STR	38	0	3
SCL	38	0	3	96	192	0
STR	39	0	7
SCL	39	0	7	96	192	4
STR	40	0	3
SCL	40	0	3	96	192	0
TAP	41	0	7
TAP	41	192	0
TAP	41	192	7
TTP	42	0	0	C	0	L1
BRK	44	0	6
TAP	44	96	6
TAP	44	192	6
TAP	44	192	7
TAP	44	288	6
TAP	44	288	7
TAP	45	0	1
TAP	45	96	1
TAP	45	192	0
TAP	45	192	1
TAP	45	288	0
TAP	45	288	1
TAP	46	0	2
TAP	46	96	2
TAP	46	192	3
TAP	46	288	3
TAP	47	0	4
TAP	47	96	4
TAP	47	192	3
TAP	47	192	5
BRK	48	0	2
TAP	48	96	2
TAP	48	192	2
TAP	48	192	3
TAP	48	288	2
TAP	48	288	3
TAP	49	0	5
TAP	49	96	5
TAP	49	192	4
TAP	49	192	5
TAP	49	288	4
TAP	49	288	5
TAP	50	0	6
TAP	50	96	6
TAP	50	192	7
TAP	50	288	7
TAP	51	0	0
TAP	51	96	0
TAP	51	192	1
TAP	51	192	7
HLD	52	0	2	192
HLD	52	192	3	192
HLD	53	0	4	192
TAP	53	192	5
TAP	54	0	6
TAP	54	96	6
TAP	54	192	6
TAP	54	192	7
TAP	55	0	5
TAP	55	96	5
TAP	55	192	4
TAP	55	192	5
HLD	56	0	5	192
HLD	56	192	4	192
HLD	57	0	3	192
TAP	57	192	2
TAP	58	0	1
TAP	58	96	1
TAP	58	192	0
TAP	58	192	1
TAP	59	0	2
TAP	59	96	2
TAP	59	192	3
TAP	59	192	4
STR	60	0	5
SCR	60	0	5	96	192	0
TAP	61	0	1
TAP	61	96	1
TAP	61	192	0
TAP	61	192	1
STR	62	0	2
SCL	62	0	2	96	192	7
TAP	63	0	6
TAP	63	96	6
TAP	63	192	6
TAP	63	192	7
STR	64	0	6
SCL	64	0	6	96	192	3
TAP	65	0	2
TAP	65	96	2
TAP	65	192	2
TAP	65	192	3
STR	66	0	1
SCR	66	0	1	96	192	4
TAP	67	0	5
TTP	68	0	4	B	0	L1
TTP	69	0	5	B	0	L1
TTP	70	0	6	B	0	L1
TTP	71	0	7	B	0	L1
TTP	72	0	0	B	0	L1
TTP	73	0	1	B	0	L1
TTP	74	0	2	B	0	L1
TTP	75	0	3	B	0	L1
XHO	76	0	5	192
TAP	76	192	4
HLD	77	0	2	192
TAP	77	192	3
HLD	78	0	5	192
TAP	78	192	4
HLD	79	0	2	96
HLD	79	0	3	96
TAP	79	192	2
TAP	79	192	3
TAP	80	0	1
TAP	80	96	1
TAP	80	192	0
TAP	80	192	1
TAP	81	0	6
TAP	81	96	6
TAP	81	192	6
TAP	81	192	7
TAP	82	0	1
TAP	82	96	0
TAP	82	192	7
TAP	82	288	6
HLD	83	0	0	192
HLD	83	0	7	192
BRK	84	0	1
TAP	84	96	0
TAP	84	96	1
TAP	84	192	1
TAP	84	288	0
TAP	84	288	1
TAP	85	0	6
TAP	85	96	6
TAP	85	96	7
TAP	85	192	6
TAP	85	288	6
TAP	85	288	7
TAP	86	0	5
TAP	86	96	5
TAP	86	192	4
TAP	86	288	4
TAP	87	0	3
TAP	87	96	3
TAP	87	192	2
TAP	87	192	4
BRK	88	0	5
TAP	88	96	4
TAP	88	96	5
TAP	88	192	5
TAP	88	288	4
TAP	88	288	5
TAP	89	0	2
TAP	89	96	2
TAP	89	96	3
TAP	89	192	2
TAP	89	288	2
TAP	89	288	3
TAP	90	0	1
TAP	90	96	1
TAP	90	192	0
TAP	90	288	0
TAP	91	0	7
TAP	91	96	7
TAP	91	192	0
TAP	91	192	6
HLD	92	0	1	192
HLD	92	192	0	192
HLD	93	0	7	192
TAP	93	192	6
TAP	94	0	5
TAP	94	96	5
TAP	94	192	4
TAP	94	288	4
TAP	95	0	4
TAP	95	0	5
TAP	95	96	4
TAP	95	96	5
TAP	95	192	4
TAP	95	192	5
HLD	96	0	6	192
HLD	96	192	7	192
HLD	97	0	0	192
TAP	97	192	1
TAP	98	0	2
TAP	98	96	2
TAP	98	192	3
TAP	98	288	3
TAP	99	0	2
TAP	99	0	3
TAP	99	96	2
TAP	99	96	3
BRK	99	192	1
BRK	99	192	4
HLD	100	0	5	192
HLD	100	192	4	192
HLD	101	0	3	192
TAP	101	192	2
TAP	102	0	1
TAP	102	96	1
TAP	102	192	0
TAP	102	288	0
TAP	103	0	0
TAP	103	0	1
TAP	103	96	0
TAP	103	96	1
TAP	103	192	0
TAP	103	192	1
HLD	104	0	2	192
HLD	104	192	3	192
HLD	105	0	4	192
TAP	105	192	5
TAP	106	0	6
TAP	106	96	6
TAP	106	192	7
TAP	106	288	7
TAP	107	0	0
TAP	107	0	7
TAP	107	96	1
TAP	107	96	6
TAP	107	192	2
TAP	107	192	5
STR	108	0	6
SSR	108	0	6	96	384	2
STR	110	0	1
SSL	110	0	1	96	384	5
STR	112	0	6
SUL	112	0	6	96	480	3
STR	114	0	2
SUR	114	0	2	96	480	5

T_REC_TAP	222
T_REC_BRK	8
T_REC_XTP	0
T_REC_HLD	34
T_REC_XHO	1
T_REC_STR	18
T_REC_BST	0
T_REC_XST	0
T_REC_TTP	9
T_REC_THO	1
T_REC_SLD	18
T_REC_ALL	311
T_NUM_TAP	249
T_NUM_BRK	8
T_NUM_HLD	36
T_NUM_SLD	18
T_NUM_ALL	311
T_JUDGE_TAP	257
T_JUDGE_HLD	184
T_JUDGE_SLD	18
T_JUDGE_ALL	459
TTM_EACHPAIRS	56
TTM_SCR_TAP	124500
TTM_SCR_BRK	20800
TTM_SCR_HLD	36000
TTM_SCR_SLD	27000
TTM_SCR_ALL	208300
TTM_SCR_S	201300
TTM_SCR_SS	207500
TTM_RAT_ACV	10038

