VERSION	0.00.00	1.03.00
FES_MODE	0
BPM_DEF	210.000	210.000	210.000	210.000
MET_DEF	4	4
RESOLUTION	384
CLK_DEF	384
COMPATIBLE_CODE	MA2

BPM	0	0	210.000
MET	0	0	4	4

TAP	10	0	0
TAP	12	0	0
TAP	14	0	7
TAP	16	0	7
TAP	18	0	0
TAP	19	0	0
TAP	20	0	1
TAP	21	0	1
TAP	22	0	2
TAP	23	0	2
TAP	24	0	3
TAP	25	0	3
TAP	25	0	4
TAP	26	0	4
TAP	27	0	4
TAP	28	0	5
TAP	29	0	5
TAP	30	0	6
TAP	31	0	6
TAP	32	0	7
TAP	33	0	0
TAP	33	0	7
STR	34	0	7
SI_	34	0	7	96	480	4
TAP	37	0	0
STR	38	0	0
SI_	38	0	0	96	480	3
TAP	41	0	7
HLD	42	0	7	384
BRK	44	0	7
TAP	44	192	7
TAP	45	0	7
TAP	46	0	6
TAP	46	192	6
TAP	47	0	6
TAP	48	0	5
TAP	48	192	5
TAP	49	0	5
TAP	50	0	4
TAP	50	192	4
TAP	51	0	3
TAP	51	0	4
TAP	52	0	3
TAP	52	192	3
TAP	53	0	3
TAP	54	0	2
TAP	54	192	2
TAP	55	0	2
TAP	56	0	1
TAP	56	192	1
TAP	57	0	1
TAP	58	0	0
TAP	58	192	0
TAP	59	0	0
TAP	59	0	7
TTP	60	0	0	B	0	L1
TTP	61	0	1	B	0	L1
TTP	62	0	2	B	0	L1
TTP	63	0	3	B	0	L1
TTP	64	0	4	B	0	L1
TTP	65	0	5	B	0	L1
TTP	66	0	6	B	0	L1
TTP	67	0	0	C	0	L1
XHO	68	0	0	768
HLD	72	0	7	768
HLD	76	0	0	384
HLD	76	0	1	384
HLD	78	0	2	384
HLD	78	0	3	384
HLD	80	0	4	384
HLD	80	0	5	384
HLD	82	0	6	384
HLD	82	0	7	384
BRK	84	0	7
TAP	84	192	7
TAP	85	0	6
TAP	85	192	6
TAP	86	0	5
TAP	86	192	5
TAP	87	0	3
TAP	87	0	4
BRK	88	0	3
TAP	88	192	3
TAP	89	0	2
TAP	89	192	2
TAP	90	0	1
TAP	90	192	1
TAP	91	0	0
TAP	91	0	7
TAP	92	0	0
TAP	92	192	0
TAP	93	0	1
TAP	93	192	1
TAP	94	0	2
TAP	94	192	2
TAP	95	0	2
TAP	95	0	3
TAP	96	0	4
TAP	96	192	4
TAP	97	0	5
TAP	97	192	5
TAP	98	0	6
TAP	98	192	6
TAP	99	0	6
TAP	99	0	7
TAP	100	0	7
TAP	100	192	7
TAP	101	0	6
TAP	101	192	6
TAP	102	0	5
TAP	102	192	5
TAP	103	0	3
TAP	103	0	4
TAP	103	192	3
TAP	103	192	4
TAP	104	0	3
TAP	104	192	3
TAP	105	0	2
TAP	105	192	2
TAP	106	0	1
TAP	106	192	1
XTP	107	0	0
XTP	107	0	7
TTP	108	0	0	B	0	L1
TTP	108	0	7	B	0	L1
TTP	110	0	1	B	0	L1
TTP	110	0	6	B	0	L1
TTP	112	0	2	B	0	L1
TTP	112	0	5	B	0	L1
THO	114	0	0	576	C	0	L1

T_REC_TAP	95
T_REC_BRK	3
T_REC_XTP	2
T_REC_HLD	10
T_REC_XHO	1
T_REC_STR	2
T_REC_BST	0
T_REC_XST	0
T_REC_TTP	14
T_REC_THO	1
T_REC_SLD	2
T_REC_ALL	130
T_NUM_TAP	113
T_NUM_BRK	3
T_NUM_HLD	12
T_NUM_SLD	2
T_NUM_ALL	130
T_JUDGE_TAP	116
T_JUDGE_HLD	116
T_JUDGE_SLD	2
T_JUDGE_ALL	234
TTM_EACHPAIRS	15
TTM_SCR_TAP	56500
TTM_SCR_BRK	7800
TTM_SCR_HLD	12000
TTM_SCR_SLD	3000
TTM_SCR_ALL	79300
TTM_SCR_S	76650
TTM_SCR_SS	79000
TTM_RAT_ACV	10037

