VERSION	0.00.00	1.03.00
FES_MODE	0
BPM_DEF	160.000	160.000	160.000	160.000
MET_DEF	4	4
RESOLUTION	384
CLK_DEF	384
COMPATIBLE_CODE	MA2

BPM	0	0	160.000
MET	0	0	4	4

TAP	1	192	4
TAP	1	288	4
TTP	2	0	0	B	0	M1
TTP	2	0	1	B	0	M1
TTP	2	0	2	B	0	M1
TTP	2	0	3	B	0	M1
TTP	2	192	1	E	0	M1
TTP	2	192	7	E	0	M1
TTP	2	288	3	E	0	M1
TTP	2	288	5	E	0	M1
TTP	3	0	6	E	0	M1
TTP	3	72	0	C	0	M1
TTP	3	144	2	E	0	M1
TTP	4	0	4	B	0	M1
TTP	4	0	5	B	0	M1
TTP	4	0	6	B	0	M1
TTP	4	0	7	B	0	M1
TTP	4	192	1	E	0	M1
TTP	4	264	2	E	0	M1
TTP	4	336	3	E	0	M1
TTP	5	0	7	E	0	M1
TTP	5	72	6	E	0	M1
TTP	5	144	3	B	0	M1
TTP	5	144	4	B	0	M1
TTP	5	288	0	C	0	M1
TTP	6	0	0	B	0	M1
TTP	6	0	1	B	0	M1
TTP	6	0	2	B	0	M1
TTP	6	0	3	B	0	M1
TTP	6	0	4	B	0	M1
TTP	6	0	5	B	0	M1
TAP	6	144	6
TAP	6	144	7
TAP	6	240	5
TAP	6	288	5
TAP	6	336	3
TAP	7	0	3
TAP	7	48	4
HLD	7	96	2	96
HLD	7	96	5	96
STR	7	288	0
SCR	7	288	0	96	288	4
STR	7	288	4
SCR	7	288	4	96	576	4
TAP	9	192	0
BRK	9	288	2
BRK	9	288	6
STR	10	0	5
SI_	10	0	5	96	48	3
TAP	10	96	2
HLD	10	144	2	96
TAP	10	240	3
TAP	10	288	1
TAP	10	288	4
STR	11	0	1
SI_	11	0	1	96	48	5
TAP	11	96	6
HLD	11	144	6	96
TAP	11	240	7
TAP	11	288	0
TAP	11	288	5
TAP	12	0	1
TAP	12	48	2
TAP	12	96	3
TAP	12	96	5
TAP	12	144	6
HLD	12	192	6	72
HLD	12	264	7	72
STR	12	336	0
SI_	12	336	0	96	48	4
XTP	13	144	2
XTP	13	144	6
TAP	13	240	0
TAP	13	240	1
TAP	13	288	0
TAP	13	288	1
STR	14	0	2
SI_	14	0	2	96	48	7
TAP	14	96	6
HLD	14	144	6	96
TAP	14	240	7
TAP	14	288	0
TAP	14	288	5
STR	15	0	4
SI_	15	0	4	96	48	0
TAP	15	96	1
HLD	15	144	1	96
TAP	15	240	0
TAP	15	288	2
TAP	15	288	7
TAP	16	0	4
TAP	16	0	5
TAP	16	48	3
XST	16	48	6
SI_	16	48	6	96	48	3
TAP	16	144	3
XST	16	192	2
SI_	16	192	2	96	48	7
TAP	16	288	7
XST	16	336	6
SI_	16	336	6	96	48	2
TAP	17	48	2
XHO	17	96	1	96
TAP	17	192	0
TAP	17	288	2
TAP	17	288	7
TAP	18	0	3
HLD	18	0	4	384
TTP	18	192	4	E	0	M1
THO	19	0	0	192	C	0	M1
TAP	19	288	7
TAP	19	336	7
HLD	20	0	0	144
HLD	20	144	2	144
HLD	20	288	3	288
HLD	21	0	5	288
TAP	21	288	4
TAP	21	336	5
TAP	22	0	3
HLD	22	0	6	144
HLD	22	144	4	144
HLD	22	288	3	480
TTP	23	0	3	E	0	M1
TTP	23	96	2	E	0	M1
TTP	23	192	1	E	0	M1
TTP	23	288	0	E	0	M1
THO	24	0	0	288	C	0	M1
STR	25	0	0
SI_	25	0	0	96	48	3
STR	25	0	1
SI_	25	0	1	96	48	3
STR	25	96	0
SI_	25	96	0	96	48	5
SI_	25	96	0	96	48	6
XTP	25	288	1
XTP	25	288	4
BRK	26	0	2
BRK	26	0	6
TAP	26	48	5
TAP	26	96	3
TAP	26	144	2
TAP	26	192	1
TAP	26	192	5
TAP	26	240	1
TAP	26	288	4
TAP	26	336	2
TAP	27	0	2
TAP	27	0	6
TAP	27	48	6
TAP	27	96	4
TAP	27	144	3
TAP	27	192	2
TAP	27	192	4
STR	27	240	1
SI_	27	240	1	96	48	5
TAP	27	240	5
TAP	27	336	1
TAP	27	336	6
TAP	28	0	6
TAP	28	48	7
TAP	28	96	0
TAP	28	144	1
TAP	28	144	3
TAP	28	192	0
TAP	28	240	7
TAP	28	288	4
XHO	28	288	6	288
TTP	29	0	5	E	0	M1
TTP	29	96	0	E	0	M1
TTP	29	192	2	B	0	M1
TTP	29	192	3	E	0	M1
TAP	29	288	7
TAP	29	336	7
STR	30	0	0
SI_	30	0	0	96	48	4
TAP	30	96	5
TAP	30	144	5
XST	30	192	4
SI_	30	192	4	96	48	0
TAP	30	288	7
HLD	30	336	7	96
TAP	31	48	0
TAP	31	96	1
TAP	31	144	2
TAP	31	192	3
XST	31	192	6
SI_	31	192	6	96	48	3
STR	31	288	2
SCL	31	288	2	96	240	4
TTP	32	0	0	C	0	M1
TTP	33	0	0	E	0	M1
TTP	33	0	1	E	0	M1
TTP	33	0	7	E	0	M1
TTP	33	96	3	E	0	M1
TTP	33	96	4	E	0	M1
TTP	33	96	5	E	0	M1
TTP	33	192	0	C	1	M1
TTP	33	192	2	E	0	M1
TTP	33	192	6	E	0	M1
HLD	34	0	2	96
TAP	34	0	6
TAP	34	96	4
HLD	34	144	2	96
TAP	34	240	3
TAP	34	288	1
TAP	34	336	2
HLD	34	336	3	192
TTP	35	48	2	B	0	M1
TTP	35	144	0	B	0	M1
TTP	35	144	1	E	0	M1
TAP	35	240	4
TAP	35	288	2
TAP	35	288	4
TAP	36	0	1
HLD	36	0	5	96
TAP	36	96	3
HLD	36	144	5	96
TAP	36	240	4
TAP	36	288	6
HLD	36	336	4	192
TAP	36	336	5
TTP	37	48	5	B	0	M1
TTP	37	144	7	E	0	M1
TTP	37	144	7	B	0	M1
TAP	37	240	3
TAP	37	288	3
TAP	37	288	5
HLD	38	0	2	144
TAP	38	48	3
TAP	38	96	4
HLD	38	144	5	144
TAP	38	192	4
TAP	38	240	3
TAP	38	288	2
STR	38	336	2
SI_	38	336	2	96	48	0
STR	38	336	5
SI_	38	336	5	96	48	3
XTP	39	144	2
XTP	39	144	6
TAP	39	240	1
TAP	39	288	0
TAP	39	336	7
HLD	40	0	6	72
HLD	40	72	5	72
TAP	40	144	4
HLD	40	192	2	72
HLD	40	264	1	72
STR	40	336	0
SCR	40	336	0	96	240	7
XTP	41	0	0
XTP	41	0	7
TTP	42	0	0	B	0	M1
TTP	42	0	0	E	0	M1
TTP	42	0	0	C	1	M1
TTP	42	0	3	B	0	M1
TTP	42	0	4	E	0	M1
TTP	42	0	4	B	0	M1
TTP	42	0	7	B	0	M1
STR	42	192	7
SI_	42	192	7	96	48	3
BRK	42	288	0
BRK	42	288	7
XTP	43	0	2
XST	43	0	3
SCR	43	0	3	96	48	6
HLD	43	96	1	96
STR	43	192	0
SI_	43	192	0	96	48	3
SI_	43	192	0	96	48	5
HLD	44	0	2	72
TAP	44	72	3
TAP	44	96	2
TAP	44	144	1
TAP	44	144	3
STR	44	192	0
SUR	44	192	0	96	48	4
STR	44	192	4
SUR	44	192	4	96	48	0
TAP	44	288	0
TAP	44	288	4
XTP	45	0	1
XTP	45	0	6
TAP	45	72	5
TAP	45	96	4
TAP	45	144	2
TAP	45	144	3
TAP	45	192	1
TAP	45	192	4
XST	45	288	0
SXR	45	288	0	96	192	5
XST	45	288	1
SUR	45	288	1	96	192	4
XTP	46	288	3
XTP	46	288	6
TAP	47	0	6
TAP	47	48	6
TAP	47	96	0
TAP	47	96	5
TAP	47	144	5
TAP	47	168	4
TAP	47	216	4
TAP	47	240	3
TAP	47	288	2
TAP	47	288	3
TAP	47	336	1
TAP	48	0	5
TAP	48	48	5
TAP	48	96	3
TAP	48	96	6
TAP	48	144	6
TAP	48	168	7
TAP	48	216	7
TAP	48	240	0
STR	48	288	0
SCL	48	288	0	96	192	1
TAP	48	288	1
TAP	48	336	2
HLD	49	0	3	192
XTP	49	288	0
XTP	49	288	7
XTP	49	336	0
XTP	49	336	7
TTP	50	48	3	E	0	M1
TTP	50	48	3	B	0	M1
TTP	50	96	7	E	0	M1
TTP	50	96	7	B	0	M1
TTP	50	144	1	E	0	M1
TTP	50	144	1	B	0	M1
TTP	50	192	5	E	0	M1
TTP	50	192	5	B	0	M1
TTP	50	240	0	C	1	M1
XST	51	0	0
SCL	51	0	0	96	48	5
XTP	51	0	1
HLD	51	96	2	96
STR	51	192	4
SI_	51	192	4	96	48	0
HLD	51	288	1	96
HLD	52	0	3	72
TAP	52	72	2
TAP	52	96	3
TAP	52	144	3
TAP	52	144	4
STR	52	192	4
SI_	52	192	4	96	48	1
STR	52	192	6
SI_	52	192	6	96	48	3
XTP	52	288	4
XTP	52	288	6
STR	53	0	0
SI_	53	0	0	96	48	5
STR	53	0	7
SI_	53	0	7	96	48	3
XTP	53	96	0
XTP	53	96	7
TAP	53	192	1
TAP	53	192	4
TAP	53	264	5
TAP	53	288	4
TAP	53	336	3
TAP	53	336	6
XST	54	0	3
SI_	54	0	3	96	48	7
XST	54	0	6
SI_	54	0	6	96	48	3
XTP	54	96	3
XTP	54	96	6
XST	54	192	1
SI_	54	192	1	96	48	4
XST	54	192	4
SI_	54	192	4	96	48	0
XTP	54	288	1
XTP	54	288	4
BRK	55	0	2
BRK	55	0	6
TAP	55	96	1
TAP	55	96	4
STR	55	144	1
SCR	55	144	1	96	48	4
TAP	55	144	4
TAP	55	240	7
TAP	55	288	6
TAP	55	336	5
STR	56	0	0
SF_	56	0	0	96	96	4
TAP	56	0	4
STR	56	288	2
SXR	56	288	2	96	288	6
STR	56	288	6
SXR	56	288	6	96	288	2
XTP	58	0	0
TAP	58	24	7
TAP	58	48	1
TAP	58	72	6
XTP	58	96	2
TAP	58	120	5
TAP	58	144	3
TAP	58	168	4
XTP	58	192	3
XTP	58	204	2
XTP	58	216	1
XTP	58	228	0
XTP	58	240	7
XTP	58	252	6
XTP	58	264	5
XTP	58	276	4
TTP	58	288	4	E	0	M1
TTP	58	300	3	E	0	M1
TTP	58	312	2	E	0	M1
TTP	58	324	1	E	0	M1
TTP	58	336	0	E	0	M1
TTP	58	348	7	E	0	M1
TTP	58	360	6	E	0	M1
TTP	58	372	5	E	0	M1
TTP	59	0	0	C	1	M1
TTP	60	0	6	E	0	M1
TTP	60	72	0	C	0	M1
TTP	60	144	2	E	0	M1
TTP	61	0	3	B	0	M1
TTP	61	0	4	B	0	M1
TTP	61	192	7	E	0	M1
TTP	61	264	0	E	0	M1
TTP	61	336	1	E	0	M1
TTP	62	0	2	E	0	M1
TTP	62	72	0	C	0	M1
TTP	62	144	6	E	0	M1
HLD	62	288	2	384
HLD	63	0	4	480
HLD	64	0	3	288
TTP	65	0	5	E	0	M1
TTP	65	16	4	E	0	M1
TTP	65	32	3	E	0	M1

T_REC_TAP	166
T_REC_BRK	8
T_REC_XTP	36
T_REC_HLD	38
T_REC_XHO	2
T_REC_STR	30
T_REC_BST	0
T_REC_XST	13
T_REC_TTP	93
T_REC_THO	2
T_REC_SLD	45
T_REC_ALL	433
T_NUM_TAP	338
T_NUM_BRK	8
T_NUM_HLD	42
T_NUM_SLD	45
T_NUM_ALL	433
T_JUDGE_TAP	346
T_JUDGE_HLD	146
T_JUDGE_SLD	45
T_JUDGE_ALL	537
TTM_EACHPAIRS	70
TTM_SCR_TAP	169000
TTM_SCR_BRK	20800
TTM_SCR_HLD	42000
TTM_SCR_SLD	67500
TTM_SCR_ALL	299300
TTM_SCR_S	289550
TTM_SCR_SS	298500
TTM_RAT_ACV	10026

