VERSION	0.00.00	1.03.00
FES_MODE	0
BPM_DEF	160.000	160.000	160.000	160.000
MET_DEF	4	4
RESOLUTION	384
CLK_DEF	384
COMPATIBLE_CODE	MA2

BPM	0	0	160.000
MET	0	0	4	4

HLD	2	0	3	192
HLD	2	192	2	192
STR	3	0	1
SUR	3	0	1	96	192	5
HLD	4	0	4	192
HLD	4	192	5	192
STR	5	0	6
SUL	5	0	6	96	192	2
STR	6	0	1
SCR	6	0	1	96	192	4
STR	7	0	6
SCL	7	0	6	96	192	3
STR	8	0	2
SXR	8	0	2	96	432	4
STR	9	192	6
SI_	9	192	6	96	48	3
BRK	10	0	1
TAP	10	96	2
TAP	10	192	3
TAP	10	288	1
TAP	10	288	4
TAP	11	0	5
TAP	11	96	4
TAP	11	192	5
TAP	11	288	3
TAP	11	288	6
TAP	12	0	1
TAP	12	48	1
TAP	12	96	3
TAP	12	192	6
TAP	12	240	6
TAP	12	288	4
STR	13	0	3
SCL	13	0	3	96	48	0
STR	13	192	7
SCL	13	192	7	96	48	4
TAP	14	0	2
TAP	14	96	1
TAP	14	96	3
TAP	14	192	6
TAP	14	240	6
TAP	14	288	7
TAP	15	0	5
TAP	15	96	4
TAP	15	96	6
TAP	15	192	1
TAP	15	240	1
TAP	15	288	0
TAP	16	0	2
TAP	16	48	2
TAP	16	144	1
TAP	16	144	3
TAP	16	192	1
TAP	16	192	3
TAP	16	288	5
TAP	16	336	5
TAP	17	48	4
TAP	17	48	6
TAP	17	96	4
TAP	17	96	6
TAP	17	192	2
TAP	17	192	5
BRK	17	288	0
BRK	17	288	7
HLD	18	0	6	192
HLD	18	192	5	192
HLD	19	0	4	192
TTP	19	192	4	E	0	M1
HLD	20	0	1	192
HLD	20	192	2	192
HLD	21	0	3	192
TTP	21	192	4	E	0	M1
HLD	22	0	5	192
TTP	22	192	4	B	0	M1
HLD	23	0	2	192
TTP	23	192	3	B	0	M1
STR	24	0	4
SUL	24	0	4	96	240	3
TAP	25	0	2
TAP	25	96	3
TAP	25	192	4
TAP	25	288	5
TAP	26	0	4
HLD	26	0	6	96
TAP	26	96	7
HLD	26	192	1	96
TAP	26	192	3
TAP	26	288	0
TAP	27	0	4
HLD	27	0	5	96
TAP	27	96	7
HLD	27	192	2	96
TAP	27	192	3
TAP	27	288	0
HLD	28	0	4	96
TAP	28	96	3
TAP	28	192	2
TAP	28	192	5
TAP	28	288	1
TAP	28	288	6
TTP	29	0	0	B	0	M1
TTP	29	0	7	B	0	M1
TTP	29	96	2	E	0	M1
TTP	29	96	6	E	0	M1
TTP	29	192	3	B	0	M1
TTP	29	192	4	B	0	M1
TAP	30	0	6
TAP	30	96	4
TAP	30	192	2
STR	30	192	6
SI_	30	192	6	96	48	3
TAP	31	0	1
TAP	31	96	3
STR	31	192	1
SI_	31	192	1	96	48	4
TAP	31	192	5
TAP	32	0	6
TAP	32	96	5
TAP	32	96	7
TAP	32	192	1
TAP	32	288	0
TAP	32	288	2
TAP	33	0	4
TAP	33	0	6
TAP	33	96	1
STR	33	96	3
SI_	33	96	3	96	48	7
BRK	33	288	0
HLD	34	0	1	96
TAP	34	96	3
HLD	34	144	3	144
TAP	34	288	2
TAP	34	336	2
TAP	35	48	1
TAP	35	48	3
TAP	35	144	2
TAP	35	144	4
TAP	35	240	3
TAP	35	240	5
TAP	35	336	6
HLD	36	0	6	96
TAP	36	96	4
HLD	36	144	4	144
TAP	36	288	5
TAP	36	336	5
TAP	37	48	4
TAP	37	48	6
TAP	37	144	3
TAP	37	144	5
TAP	37	240	2
TAP	37	240	4
TAP	37	336	1
HLD	38	0	1	96
TAP	38	96	3
HLD	38	144	3	144
TAP	38	288	2
TAP	38	336	2
TAP	39	48	1
TAP	39	48	3
TAP	39	144	4
TAP	39	144	6
TAP	39	240	0
TAP	39	240	1
TAP	39	336	6
TAP	39	336	7
XST	40	0	6
SCL	40	0	6	96	48	3
XTP	40	0	7
XTP	40	192	0
XST	40	192	1
SCR	40	192	1	96	48	4
THO	41	0	0	384	C	1	M1
BRK	42	192	6
BRK	42	192	7
BRK	42	288	0
BST	42	288	1
SCL	42	288	1	96	120	4
TAP	43	192	6
TAP	43	192	7
TAP	43	288	4
TAP	43	288	5
XHO	44	0	3	72
XHO	44	72	2	72
XHO	44	144	1	144
STR	44	288	6
SCR	44	288	6	96	120	3
XHO	45	192	1	72
XHO	45	264	2	72
XTP	45	336	3
XHO	46	0	6	72
XHO	46	72	5	72
XHO	46	144	4	144
TAP	46	288	3
XTP	47	0	1
XTP	47	0	6
TAP	47	96	0
TAP	47	96	2
TAP	47	144	0
TAP	47	144	2
TAP	47	240	5
TAP	47	240	7
TAP	47	288	5
TAP	47	288	7
TAP	48	0	3
TAP	48	48	4
TAP	48	96	3
TAP	48	192	4
TAP	48	192	6
STR	48	288	1
SXR	48	288	1	96	240	6
TAP	48	288	3
XTP	49	336	3
XTP	49	336	4
XTP	50	48	0
XTP	50	96	7
XTP	50	144	0
BRK	50	192	1
BRK	50	192	6
BRK	50	240	1
BRK	50	240	6
TAP	51	0	0
TAP	51	0	7
TAP	51	96	2
TAP	51	144	2
TAP	51	192	3
TAP	51	240	3
TAP	51	288	1
TAP	51	288	4
XHO	52	0	4	72
XHO	52	72	5	72
XHO	52	144	6	144
STR	52	288	1
SCL	52	288	1	96	120	4
XHO	53	192	6	72
XHO	53	264	5	72
XTP	53	336	4
XHO	54	0	1	72
XHO	54	72	2	72
XHO	54	144	3	144
TAP	54	288	4
XTP	55	0	1
XTP	55	0	6
TAP	55	96	5
TAP	55	96	7
TAP	55	144	5
TAP	55	144	7
TAP	55	240	0
TAP	55	240	2
TAP	55	288	0
TAP	55	288	2
TAP	56	0	4
TAP	56	48	3
TAP	56	96	4
TAP	56	192	1
TAP	56	192	3
STR	56	288	4
SCR	56	288	4	96	288	3
TAP	56	288	6
XTP	58	0	4
XTP	58	48	5
XTP	58	96	6
XTP	58	144	7
XTP	58	192	0
XTP	58	240	1
XTP	58	288	2
XTP	58	336	3
XHO	59	0	4	192
HLD	59	192	5	192
STR	60	0	6
SCR	60	0	6	96	192	2
HLD	61	0	3	192
HLD	61	192	2	192
STR	62	0	1
SCL	62	0	1	96	192	5
HLD	63	0	4	384
TTP	63	192	6	E	0	M1
HLD	64	0	3	384
TTP	64	192	2	E	0	M1
STR	65	0	5
SCL	65	0	5	96	288	2

T_REC_TAP	146
T_REC_BRK	11
T_REC_XTP	21
T_REC_HLD	28
T_REC_XHO	17
T_REC_STR	19
T_REC_BST	1
T_REC_XST	2
T_REC_TTP	12
T_REC_THO	1
T_REC_SLD	22
T_REC_ALL	280
T_NUM_TAP	200
T_NUM_BRK	12
T_NUM_HLD	46
T_NUM_SLD	22
T_NUM_ALL	280
T_JUDGE_TAP	212
T_JUDGE_HLD	149
T_JUDGE_SLD	22
T_JUDGE_ALL	383
TTM_EACHPAIRS	57
TTM_SCR_TAP	100000
TTM_SCR_BRK	31200
TTM_SCR_HLD	46000
TTM_SCR_SLD	33000
TTM_SCR_ALL	210200
TTM_SCR_S	202750
TTM_SCR_SS	209000
TTM_RAT_ACV	10057

