VERSION	0.00.00	1.03.00
FES_MODE	0
BPM_DEF	160.000	160.000	160.000	160.000
MET_DEF	4	4
RESOLUTION	384
CLK_DEF	384
COMPATIBLE_CODE	MA2

BPM	0	0	160.000
MET	0	0	4	4

TTP	2	0	5	B	0	L1
TTP	2	192	3	B	0	L1
TTP	3	0	1	B	0	L1
TTP	4	0	2	B	0	L1
TTP	4	192	4	B	0	L1
TTP	5	0	6	B	0	L1
TTP	6	0	4	B	0	L1
TTP	6	192	3	B	0	L1
TTP	7	0	5	B	0	L1
TTP	7	192	2	B	0	L1
THO	8	0	0	384	C	1	L1
TAP	10	0	1
TAP	10	96	1
TAP	10	192	0
TAP	10	192	1
TAP	11	0	6
TAP	11	96	6
TAP	11	192	6
TAP	11	192	7
TAP	12	0	5
TAP	12	96	5
TAP	12	192	4
TAP	12	288	4
TAP	13	0	3
TAP	13	96	3
TAP	13	192	3
TAP	13	192	4
TAP	14	0	2
TAP	14	96	2
TAP	14	192	2
TAP	14	192	3
TAP	15	0	5
TAP	15	96	5
TAP	15	192	4
TAP	15	192	5
TAP	16	0	6
TAP	16	96	6
TAP	16	192	7
TAP	16	288	7
TAP	17	0	0
TAP	17	96	0
TAP	17	96	7
BRK	17	192	1
BRK	17	192	6
HLD	18	0	5	384
HLD	19	0	4	384
HLD	20	0	3	384
TAP	21	0	2
TAP	21	192	2
TAP	21	192	3
HLD	22	0	2	384
HLD	23	0	3	384
HLD	24	0	4	384
TAP	25	0	5
TAP	25	192	4
TAP	25	192	5
HLD	26	0	5	192
TAP	26	192	4
TAP	26	288	4
HLD	27	0	3	192
TAP	27	192	4
TAP	27	288	5
TAP	28	0	6
TAP	28	96	5
TAP	28	192	4
TAP	28	288	3
TAP	29	0	2
TAP	29	96	1
TAP	29	192	2
TAP	29	192	3
HLD	30	0	2	192
TAP	30	192	3
TAP	30	288	3
HLD	31	0	4	192
TAP	31	192	3
TAP	31	288	3
TAP	32	0	2
TAP	32	96	2
TAP	32	192	1
TAP	32	288	1
TAP	33	0	0
TAP	33	96	7
XTP	33	192	1
XTP	33	192	6
STR	34	0	0
SI_	34	0	0	96	144	3
STR	35	0	4
SI_	35	0	4	96	144	7
STR	36	0	0
SCR	36	0	0	96	144	3
TAP	37	0	4
TAP	37	96	4
XTP	37	192	4
STR	38	0	5
SI_	38	0	5	96	144	0
STR	39	0	1
SI_	39	0	1	96	144	4
STR	40	0	5
SCR	40	0	5	96	144	0
TAP	41	0	1
TAP	41	96	1
TAP	41	192	0
TAP	41	288	0
TAP	42	0	0
TAP	42	0	7
TAP	42	96	0
TAP	42	96	7
BRK	42	192	1
BRK	42	192	6
TAP	43	0	1
TAP	43	96	1
TAP	43	192	0
TAP	43	192	1
TAP	43	288	0
TAP	43	288	1
TAP	44	0	6
TAP	44	96	6
TAP	44	96	7
XTP	44	192	0
XTP	44	192	5
HLD	45	0	5	96
TAP	45	96	4
TAP	45	192	3
TAP	45	288	2
TAP	46	0	2
STR	46	0	3
SI_	46	0	3	96	144	7
TAP	47	0	1
TAP	47	96	0
TAP	47	96	1
TAP	47	192	2
TAP	47	288	2
TAP	47	288	3
TAP	48	0	4
TAP	48	96	5
TAP	48	192	4
TAP	48	192	6
TAP	49	0	5
TAP	49	96	4
TAP	49	192	3
TAP	49	288	2
TAP	50	0	1
TAP	50	96	0
TAP	50	96	1
BRK	50	192	2
BRK	50	192	7
TAP	51	0	6
TAP	51	96	6
TAP	51	192	6
TAP	51	192	7
TAP	51	288	6
TAP	51	288	7
TAP	52	0	1
TAP	52	96	0
TAP	52	96	1
XTP	52	192	2
XTP	52	192	7
HLD	53	0	2	96
TAP	53	96	3
TAP	53	192	4
TAP	53	288	5
STR	54	0	4
SI_	54	0	4	96	144	0
TAP	54	0	5
TAP	55	0	6
TAP	55	96	6
TAP	55	96	7
TAP	55	192	5
TAP	55	288	4
TAP	55	288	5
TAP	56	0	3
TAP	56	96	2
TAP	56	192	1
TAP	56	192	3
TAP	57	0	2
TAP	57	96	3
TAP	57	192	4
TAP	57	288	5
TAP	58	0	6
TAP	58	96	6
TAP	58	96	7
BRK	58	192	0
BRK	58	192	5
STR	59	0	1
SXL	59	0	1	96	528	5
STR	61	0	6
SXR	61	0	6	96	528	2
STR	63	0	1
SCR	63	0	1	96	480	6
STR	65	0	7
SCL	65	0	7	96	1056	0

T_REC_TAP	129
T_REC_BRK	8
T_REC_XTP	7
T_REC_HLD	12
T_REC_XHO	0
T_REC_STR	12
T_REC_BST	0
T_REC_XST	0
T_REC_TTP	10
T_REC_THO	1
T_REC_SLD	12
T_REC_ALL	191
T_NUM_TAP	158
T_NUM_BRK	8
T_NUM_HLD	13
T_NUM_SLD	12
T_NUM_ALL	191
T_JUDGE_TAP	166
T_JUDGE_HLD	76
T_JUDGE_SLD	12
T_JUDGE_ALL	254
TTM_EACHPAIRS	34
TTM_SCR_TAP	79000
TTM_SCR_BRK	20800
TTM_SCR_HLD	13000
TTM_SCR_SLD	18000
TTM_SCR_ALL	130800
TTM_SCR_S	126100
TTM_SCR_SS	130000
TTM_RAT_ACV	10061

