VERSION	0.00.00	1.04.00
FES_MODE	0
BPM_DEF	138.000	138.000	138.000	138.000
MET_DEF	4	4
RESOLUTION	384
CLK_DEF	384
COMPATIBLE_CODE	MA2

BPM	0	0	138.000
MET	0	0	4	4
MET	10	0	4	5
MET	11	96	4	4

NMSTR	1	288	2
NMSCR	1	288	2	96	96	5
NMSTR	2	96	6
NMSUL	2	96	6	96	96	2
NMSTR	2	288	1
NMSXR	2	288	1	96	192	4
NMSTR	3	288	5
NMSCL	3	288	5	96	96	2
NMSTR	4	96	1
NMSUR	4	96	1	96	96	5
NMSTR	4	288	6
NMSXL	4	288	6	96	192	3
NMHLD	5	288	2	384
NMSTR	6	0	3
NMSCL	6	0	3	96	96	0
NMHLD	6	288	5	384
NMSTR	7	0	4
NMSCR	7	0	4	96	96	7
NMTAP	7	288	1
NMHLD	8	0	1	192
NMHLD	8	192	3	192
NMSTR	9	0	4
NMSUL	9	0	4	96	288	3
CNSCL	10	0	3	0	288	4
NMSTR	11	96	4
NMSCL	11	96	4	96	96	0
NMTAP	11	96	6
NMTAP	11	192	5
NMSTR	11	288	3
NMSCR	11	288	3	96	96	7
NMTAP	12	0	2
NMSTR	12	96	4
NMSCL	12	96	4	96	96	0
NMTAP	12	192	5
NMTAP	12	288	3
NMTAP	13	0	2
NMTAP	13	0	4
NMTAP	13	96	1
NMSTR	13	96	3
NMSCR	13	96	3	96	96	7
NMTAP	13	192	2
NMSTR	13	288	4
NMSCL	13	288	4	96	96	0
NMTAP	14	0	5
NMSTR	14	96	3
NMSCR	14	96	3	96	96	7
NMTAP	14	192	2
NMTAP	14	288	4
NMTAP	15	0	3
NMTAP	15	0	5
NMHLD	15	96	2	96
NMHLD	15	192	0	96
NMHLD	15	288	7	96
NMHLD	16	0	5	96
NMSTR	16	96	4
NMSLL	16	96	4	96	96	0
NMSTR	16	288	3
NMSLR	16	288	3	96	96	7
NMSTR	17	96	4
NMSCL	17	96	4	96	192	5
NMSTR	18	0	4
NMSI_	18	0	4	96	48	2
NMHLD	18	96	2	288
CNSI_	18	144	2	0	48	5
CNSI_	18	192	5	0	48	1
CNSI_	18	240	1	0	48	6
CNSI_	18	288	6	0	96	0
EXTAP	19	96	0
EXTAP	19	96	1
NMTAP	19	240	7
NMHLD	19	288	7	72
NMHLD	19	360	5	72
NMTAP	20	48	4
NMTAP	20	96	3
NMTAP	20	240	0
NMHLD	20	288	0	72
NMHLD	20	360	2	72
NMTAP	21	48	3
NMSTR	21	96	4
NMSCR	21	96	4	96	96	7
NMSTR	21	288	3
NMSCL	21	288	3	96	96	0
BRTAP	22	96	7
NMTAP	22	288	2
NMSTR	23	0	3
NMSCL	23	0	3	96	96	0
NMSCR	23	0	3	96	96	6
NMHLD	23	288	7	72
NMHLD	23	360	5	72
NMTAP	24	48	4
NMTAP	24	96	3
NMTAP	24	192	2
NMTAP	24	192	3
NMHLD	24	288	0	72
NMHLD	24	360	2	72
NMTAP	25	48	3
NMSTR	25	96	3
NMSI_	25	96	3	96	96	0
NMTAP	25	192	5
NMSTR	25	288	4
NMSI_	25	288	4	96	96	7
NMTAP	26	0	2
NMHLD	26	96	0	144
NMTAP	26	240	7
NMSTR	26	288	7
NMSLL	26	288	7	96	96	3
NMHLD	27	96	2	72
NMHLD	27	168	1	72
NMTAP	27	240	0
NMHLD	27	288	5	72
NMHLD	27	360	6	72
NMTAP	28	48	7
NMHLD	28	96	3	72
NMHLD	28	168	1	72
NMTAP	28	240	0
NMTAP	28	288	6
NMTAP	28	288	7
NMTAP	28	360	5
NMTAP	29	0	4
NMTAP	29	48	3
NMTAP	29	48	4
NMSTR	29	96	2
NMSCL	29	96	2	96	48	7
NMTAP	29	192	3
NMTAP	29	240	4
NMSTR	29	288	5
NMSCR	29	288	5	96	48	0
NMSTR	30	0	4
NMSXR	30	0	4	96	192	0
EXTAP	30	96	7
EXTAP	30	192	6
EXTAP	30	288	5
NMTAP	31	0	0
NMTAP	31	0	4
NMHLD	31	96	5	72
NMHLD	31	168	6	72
NMTAP	31	240	7
NMHLD	31	288	2	72
NMHLD	31	360	1	72
NMTAP	32	48	0
NMHLD	32	96	4	72
NMHLD	32	168	6	72
NMTAP	32	240	7
NMTAP	32	288	0
NMTAP	32	288	1
NMTAP	32	360	2
NMTAP	33	0	3
NMTAP	33	48	4
NMTAP	33	48	5
NMTAP	33	96	3
NMSTR	33	96	6
NMSI_	33	96	6	96	48	2
NMTAP	33	168	2
NMTAP	33	192	2
NMTAP	33	240	1
NMSTR	33	288	0
NMSI_	33	288	0	96	48	4
NMTAP	33	360	7
NMSTR	34	0	7
NMSCL	34	0	7	96	96	3
NMSTR	34	96	3
NMSCL	34	96	3	96	96	7
NMTAP	34	192	7
NMTHO	34	288	0	192	C	0	M1
NMSTR	35	288	0
BRSI_	35	288	0	96	48	4
NMSTR	36	0	0
NMSUL	36	0	0	96	96	7
BRTAP	36	96	0
NMHLD	36	96	6	192
CNSCL	36	192	7	0	96	1
EXTAP	36	336	6
EXTAP	36	336	7
EXTAP	37	0	6
EXSTR	37	0	7
NMSCR	37	0	7	96	96	2
NMSTR	37	96	2
NMSCR	37	96	2	96	96	5
NMSTR	37	192	5
NMSCR	37	192	5	96	96	0
NMTAP	37	288	0
NMTAP	38	0	3
NMTAP	38	48	3
NMTAP	38	96	1
NMTAP	38	96	5
NMSTR	38	192	4
NMSCR	38	192	4	96	96	1
NMSTR	38	288	1
NMSCL	38	288	1	96	96	4
NMSTR	39	0	4
BRSXL	39	0	4	96	144	0
BRTAP	39	96	0
NMTAP	39	336	0
NMTAP	39	336	1
NMTAP	40	0	2
NMTAP	40	48	3
NMSTR	40	96	4
NMSCL	40	96	4	96	96	0
NMTAP	40	96	5
NMTTP	40	144	1	E	0	M1
NMTTP	40	192	2	E	0	M1
NMTTP	40	240	3	E	0	M1
NMTTP	40	288	4	E	0	M1
NMTAP	40	336	6
NMTAP	40	336	7
NMTAP	41	0	5
NMTAP	41	48	4
NMTAP	41	96	2
NMSTR	41	96	3
NMSCR	41	96	3	96	96	7
NMTTP	41	144	7	E	0	M1
NMTTP	41	192	6	E	0	M1
NMTTP	41	240	5	E	0	M1
NMTTP	41	288	4	E	0	M1
EXSTR	42	0	3
NMSLR	42	0	3	96	96	7
NMTAP	42	48	2
NMTAP	42	96	1
NMTAP	42	192	2
NMSTR	42	288	1
NMSI_	42	288	1	96	96	6
NMTAP	42	336	1
NMSTR	43	0	6
NMSUR	43	0	6	96	192	1
NMTAP	43	48	6
BXHLD	43	96	7	240
EXTAP	43	336	0
EXTAP	44	0	0
EXSTR	44	0	7
NMSUR	44	0	7	96	96	0
NMHLD	44	96	1	96
CNSCR	44	192	0	0	96	6
EXTAP	44	288	0
EXTAP	44	336	0
EXSTR	45	0	0
NMSCL	45	0	0	96	96	5
EXTAP	45	0	1
NMSTR	45	96	5
NMSCL	45	96	5	96	96	2
NMSTR	45	192	2
NMSCL	45	192	2	96	96	7
NMTAP	45	288	7
NMTAP	46	0	4
NMTAP	46	48	4
NMTAP	46	96	2
NMTAP	46	96	6
NMSTR	46	192	3
NMSCL	46	192	3	96	96	6
NMSTR	46	288	6
NMSCR	46	288	6	96	96	3
NMSTR	47	0	3
BRSXR	47	0	3	96	144	7
BRTAP	47	96	7
NMTAP	47	336	6
NMTAP	47	336	7
NMTAP	48	0	5
NMTAP	48	48	4
NMTAP	48	96	2
NMSTR	48	96	3
NMSCR	48	96	3	96	96	7
NMTTP	48	144	7	E	0	M1
NMTTP	48	192	6	E	0	M1
NMTTP	48	240	5	E	0	M1
NMTTP	48	288	4	E	0	M1
NMTAP	48	336	0
NMTAP	48	336	1
NMTAP	49	0	2
NMTAP	49	48	3
NMSTR	49	96	4
NMSCL	49	96	4	96	96	0
NMTAP	49	96	5
NMTTP	49	144	1	E	0	M1
NMTTP	49	192	2	E	0	M1
NMTTP	49	240	3	E	0	M1
NMTTP	49	288	4	E	0	M1
NMTAP	49	336	6
NMTAP	49	336	7
NMTAP	50	0	6
NMTAP	50	0	7
NMTAP	50	96	0
NMTAP	50	96	1
NMTAP	50	144	0
NMTAP	50	144	1
NMTAP	50	192	2
NMTAP	50	192	3
NMTAP	50	240	4
NMTAP	50	264	4
NMTAP	50	288	3
NMTAP	50	336	4
NMTAP	50	336	5
NMSTR	51	0	6
NMSCL	51	0	6	96	288	0
NMSTR	51	0	7
NMSSR	51	0	7	96	288	3
NMTAP	51	48	6
NMTAP	51	48	7
BRTAP	51	96	6
BRTAP	51	96	7
CNSCR	52	0	0	0	288	6
CNSSR	52	0	3	0	288	7
BRSTR	53	0	0
NMSCR	53	0	0	96	48	3
BRSTR	53	0	4
NMSCR	53	0	4	96	48	7
NMTAP	53	96	0
NMSTR	53	96	4
BRSF_	53	96	4	96	48	0
NMTTP	53	192	4	A	1	M1
NMTAP	53	288	2
NMTAP	53	288	6
NMTAP	53	336	3
NMTAP	53	336	5
NMTAP	54	0	3
NMSTR	54	0	5
NMSCR	54	0	5	96	96	0
NMSTR	54	96	0
NMSCR	54	96	0	96	96	3
NMSTR	54	192	3
NMSCR	54	192	3	96	96	6
NMTAP	54	288	6
NMTAP	55	0	0
NMTAP	55	48	0
NMTAP	55	96	2
NMSTR	55	96	6
NMSCR	55	96	6	96	48	1
NMTAP	55	192	4
NMSTR	55	288	3
BRSI_	55	288	3	96	48	5
NMHLD	55	336	3	288
CNSI_	56	48	5	0	48	2
CNSI_	56	96	2	0	48	6
CNSI_	56	144	6	0	48	1
CNSI_	56	192	1	0	48	7
NMTAP	56	336	2
NMTAP	56	336	3
NMTAP	57	0	1
NMTAP	57	48	0
NMTAP	57	96	6
NMSTR	57	96	7
NMSCR	57	96	7	96	96	3
NMTTP	57	144	3	E	0	M1
NMTTP	57	192	2	E	0	M1
NMTTP	57	240	1	E	0	M1
NMTTP	57	288	0	E	0	M1
NMTAP	57	336	4
NMTAP	57	336	5
NMTAP	58	0	6
NMTAP	58	48	7
NMSTR	58	96	0
NMSCL	58	96	0	96	96	4
NMTAP	58	96	1
NMTTP	58	144	5	E	0	M1
NMTTP	58	192	6	E	0	M1
NMTTP	58	240	7	E	0	M1
NMTTP	58	288	0	E	0	M1
EXTAP	58	336	2
EXTAP	58	336	4
NMSTR	59	0	3
NMSI_	59	0	3	96	48	0
NMSI_	59	0	3	96	48	6
NMTAP	59	48	3
EXTAP	59	192	0
EXTAP	59	192	6
NMSTR	59	288	5
NMSI_	59	288	5	96	96	2
NMTAP	59	336	5
NMSTR	60	0	2
NMSLR	60	0	2	96	144	7
NMTAP	60	48	2
BXHLD	60	96	3	240
EXTAP	60	336	7
EXTAP	61	0	7
NMTAP	61	48	4
NMTAP	61	48	6
NMSTR	61	96	4
NMSCL	61	96	4	96	96	0
NMTAP	61	96	6
NMTAP	61	192	5
NMSTR	61	288	7
NMSSR	61	288	7	96	144	3
NMTAP	61	336	7
NMTAP	62	0	1
NMSTR	62	96	2
NMSI_	62	96	2	96	48	7
NMTAP	62	192	4
CNSLR	62	240	7	0	96	3
NMTAP	62	288	6
NMTAP	63	0	7
NMTAP	63	48	7
NMSTR	63	96	1
NMSCR	63	96	1	96	48	4
NMTAP	63	96	5
NMTAP	63	192	6
NMSTR	63	288	5
NMSI_	63	288	5	96	48	7
NMHLD	63	336	5	336
CNSI_	64	48	7	0	48	4
CNSI_	64	96	4	0	48	0
CNSI_	64	144	0	0	48	3
CNSI_	64	192	3	0	48	1
NMTAP	64	336	4
NMTAP	64	336	5
NMTAP	65	0	6
NMTAP	65	48	7
NMSTR	65	96	0
NMSCL	65	96	0	96	96	4
NMTAP	65	96	1
NMTTP	65	144	5	E	0	M1
NMTTP	65	192	6	E	0	M1
NMTTP	65	240	7	E	0	M1
NMTTP	65	288	0	E	0	M1
NMTAP	65	336	2
NMTAP	65	336	3
NMTAP	66	0	1
NMTAP	66	48	0
NMTAP	66	96	6
NMSTR	66	96	7
NMSCR	66	96	7	96	96	3
NMTTP	66	144	3	E	0	M1
NMTTP	66	192	2	E	0	M1
NMTTP	66	240	1	E	0	M1
NMTTP	66	288	0	E	0	M1
NMTAP	67	0	3
NMTAP	67	0	4
NMSTR	67	96	5
NMSLR	67	96	5	96	96	1
NMTAP	67	168	4
NMTAP	67	192	4
NMTAP	67	240	3
NMSTR	67	288	2
NMSLL	67	288	2	96	96	6
NMTAP	67	360	3
NMTAP	68	0	3
NMTAP	68	48	4
NMTHO	68	96	0	1536	C	0	M1
NMTTP	68	288	0	D	0	M1
NMTTP	69	0	1	D	0	M1
NMTTP	69	96	2	D	0	M1
NMTTP	69	192	3	D	0	M1
NMTTP	69	288	4	D	0	M1
NMTTP	70	0	5	D	0	M1
NMTTP	70	96	6	D	0	M1
NMTTP	70	192	7	D	0	M1
NMTTP	70	288	0	D	0	M1

T_REC_TAP	163
T_REC_BRK	6
T_REC_XTP	19
T_REC_BXX	0
T_REC_HLD	34
T_REC_XHO	0
T_REC_BHO	0
T_REC_BXH	2
T_REC_STR	72
T_REC_BST	2
T_REC_XST	4
T_REC_XBS	0
T_REC_TTP	42
T_REC_THO	2
T_REC_SLD	75
T_REC_BSL	5
T_REC_ALL	426
T_NUM_TAP	300
T_NUM_BRK	15
T_NUM_HLD	36
T_NUM_SLD	75
T_NUM_ALL	426
T_JUDGE_TAP	308
T_JUDGE_HLD	146
T_JUDGE_SLD	80
T_JUDGE_ALL	534
TTM_EACHPAIRS	56
TTM_SCR_TAP	150000
TTM_SCR_BRK	39000
TTM_SCR_HLD	36000
TTM_SCR_SLD	112500
TTM_SCR_ALL	337500
TTM_SCR_S	325950
TTM_SCR_SS	336000
TTM_RAT_ACV	10044

