VERSION	0.00.00	1.04.00
FES_MODE	0
BPM_DEF	138.000	138.000	138.000	138.000
MET_DEF	4	4
RESOLUTION	384
CLK_DEF	384
COMPATIBLE_CODE	MA2

BPM	0	0	138.000
MET	0	0	4	4
MET	10	0	4	5
MET	11	96	4	4

NMSTR	2	0	0
NMSCR	2	0	0	96	576	7
NMTTP	4	0	0	E	0	M1
NMTTP	4	192	0	C	0	M1
NMTTP	5	0	4	E	0	M1
NMTTP	5	192	3	E	0	M1
NMTTP	5	192	5	E	0	M1
NMHLD	6	0	4	576
NMTAP	6	192	2
NMHLD	7	0	3	192
NMHLD	8	0	3	96
NMHLD	8	0	5	96
NMHLD	8	192	2	96
NMHLD	8	192	6	96
NMTAP	9	0	1
NMHLD	9	0	7	768
NMTHO	10	0	0	384	C	0	M1
BXTAP	11	96	7
NMTAP	11	192	0
NMTAP	11	192	7
NMTAP	11	288	1
NMTAP	12	0	0
NMTAP	12	0	1
NMTAP	12	96	6
NMTAP	12	192	6
NMTAP	12	192	7
EXTAP	12	288	5
NMTAP	12	336	5
NMTAP	13	0	4
NMHLD	13	96	3	96
NMTAP	13	96	5
NMHLD	13	192	2	96
NMHLD	13	288	1	96
NMHLD	14	0	0	96
NMSTR	14	96	7
NMSI_	14	96	7	96	96	3
NMTAP	15	0	2
NMTAP	15	0	4
NMTAP	15	96	5
NMTAP	15	192	4
NMTAP	15	192	6
NMTAP	15	288	2
NMTAP	16	0	1
NMTAP	16	0	3
NMTAP	16	96	6
NMTAP	16	192	5
NMTAP	16	192	7
NMTAP	16	288	1
NMTAP	16	336	1
NMTAP	17	0	0
NMHLD	17	96	1	96
NMTAP	17	96	7
NMHLD	17	192	2	96
NMHLD	17	288	3	96
NMHLD	18	0	4	96
NMSTR	18	96	5
NMSI_	18	96	5	96	96	1
BRTAP	18	288	7
NMHLD	19	96	1	384
NMTAP	19	96	4
NMTAP	19	288	3
NMSTR	20	96	2
NMSCR	20	96	2	96	240	0
NMTTP	21	96	2	E	0	M1
NMTTP	21	192	3	E	0	M1
NMTTP	21	288	5	E	0	M1
NMTTP	22	0	6	E	0	M1
NMTTP	22	96	0	E	0	M1
NMTTP	22	192	0	C	0	M1
NMTTP	22	288	4	E	0	M1
NMTAP	23	96	3
NMHLD	23	96	6	384
NMTAP	23	288	4
NMSTR	24	96	5
NMSCL	24	96	5	96	240	7
NMTTP	25	96	6	E	0	M1
NMTTP	25	192	5	E	0	M1
NMTTP	25	288	3	E	0	M1
NMTTP	26	0	2	E	0	M1
NMSTR	26	96	0
NMSF_	26	96	0	96	96	4
NMTAP	27	96	6
NMTAP	27	192	7
NMTAP	27	288	0
NMTAP	28	0	1
NMHLD	28	96	1	96
NMTAP	28	96	3
NMHLD	28	192	0	96
NMHLD	28	288	7	96
NMHLD	29	0	6	96
NMTAP	29	96	4
NMTAP	29	192	3
NMTAP	29	192	5
NMTAP	29	288	2
NMTAP	30	0	1
NMTAP	30	0	3
NMTAP	30	96	0
NMTAP	30	96	4
NMTAP	30	192	1
NMTAP	30	192	5
NMTAP	30	288	2
NMTAP	30	288	6
NMTAP	31	0	3
NMTAP	31	0	7
NMTAP	31	96	4
NMTAP	31	96	6
NMTAP	31	192	3
NMTAP	31	192	5
NMTAP	31	288	2
NMTAP	31	336	2
NMTAP	32	0	3
NMTAP	32	96	1
NMTAP	32	96	4
NMTAP	32	192	0
NMTAP	32	192	3
NMHLD	32	288	1	72
NMHLD	32	360	2	72
NMTAP	33	48	3
NMHLD	33	96	6	72
NMHLD	33	168	5	72
NMTAP	33	240	4
NMHLD	33	288	2	72
NMHLD	33	360	1	72
NMTAP	34	48	0
NMTAP	34	96	0
NMSTR	34	192	0
NMSCR	34	192	0	96	96	3
NMSTR	34	192	7
NMSCL	34	192	7	96	96	4
BRTAP	35	96	7
NMSTR	36	0	2
BRSCL	36	0	2	96	192	5
NMTAP	36	0	5
NMHLD	36	96	4	192
NMTAP	37	0	3
NMSTR	37	0	4
NMSUL	37	0	4	96	192	3
NMHLD	37	96	2	192
NMTAP	38	0	2
NMSTR	38	96	1
NMSCR	38	96	1	96	96	4
NMTAP	38	96	3
NMSTR	38	288	7
NMSI_	38	288	7	96	96	3
NMSTR	39	96	0
NMSXL	39	96	0	96	240	4
EXTAP	39	336	5
EXTAP	40	0	5
NMHLD	40	96	6	96
NMHLD	40	192	4	96
NMHLD	40	288	3	96
NMTAP	41	0	1
NMHLD	41	96	1	96
NMHLD	41	192	3	96
NMHLD	41	288	4	96
NMTAP	42	0	6
BRTAP	42	96	0
BRTAP	42	96	7
NMTAP	42	192	1
NMTAP	42	192	3
NMTAP	42	288	0
NMTAP	42	288	7
NMTAP	43	0	6
NMTAP	43	48	6
NMTAP	43	96	4
NMTAP	43	144	4
NMTAP	43	192	5
NMTAP	43	240	5
NMTAP	43	288	2
NMTAP	43	336	2
BRSTR	44	0	1
BRSCR	44	0	1	96	192	6
NMTAP	44	0	3
NMHLD	44	96	7	192
NMTAP	45	0	0
NMSTR	45	0	7
NMSUR	45	0	7	96	192	0
NMHLD	45	96	1	192
NMTAP	46	0	1
NMTAP	46	96	0
NMSTR	46	96	2
NMSCL	46	96	2	96	96	7
NMSTR	46	288	4
NMSI_	46	288	4	96	96	0
NMSTR	47	96	3
NMSXR	47	96	3	96	240	7
EXTAP	47	336	6
EXTAP	48	0	6
NMHLD	48	96	5	96
NMHLD	48	192	7	96
NMHLD	48	288	0	96
NMTAP	49	0	2
NMHLD	49	96	2	96
NMHLD	49	192	0	96
NMHLD	49	288	7	96
NMTAP	50	0	5
NMTAP	50	96	4
NMTAP	50	144	4
NMTAP	50	192	2
NMTAP	50	240	2
NMTAP	50	288	6
NMTAP	50	336	6
NMTAP	51	0	1
NMTAP	51	48	1
NMSTR	51	96	0
NMSXL	51	96	0	96	288	3
NMSTR	51	96	7
NMSXR	51	96	7	96	288	4
NMTAP	52	288	3
NMTAP	52	288	4
NMTAP	53	0	3
NMTAP	53	48	4
NMTAP	53	96	2
NMTAP	53	96	5
BRTAP	53	192	0
BRTAP	53	192	7
NMTAP	53	288	1
NMTAP	53	288	3
NMSTR	54	0	4
BRSUR	54	0	4	96	192	3
NMSTR	54	0	5
BRSCR	54	0	5	96	192	2
NMTAP	55	0	2
NMTAP	55	0	3
NMTAP	55	96	0
NMTAP	55	96	1
NMTAP	55	192	6
NMTAP	55	192	7
NMTAP	55	288	4
NMTAP	55	288	5
NMTAP	56	0	2
NMTAP	56	0	3
NMSTR	56	96	0
BRSCR	56	96	0	96	168	5
NMTAP	56	96	4
EXTAP	56	336	6
EXTAP	57	0	6
NMSTR	57	96	6
NMSI_	57	96	6	96	48	4
NMSTR	57	96	7
NMSI_	57	96	7	96	48	3
NMSTR	57	288	0
NMSI_	57	288	0	96	48	4
NMSTR	57	288	1
NMSI_	57	288	1	96	48	3
NMSTR	58	96	6
NMSI_	58	96	6	96	48	4
NMSTR	58	96	7
NMSI_	58	96	7	96	48	3
EXTAP	58	288	0
EXTAP	58	288	1
NMTAP	59	0	2
NMTAP	59	0	7
NMTAP	59	96	5
NMTAP	59	144	5
NMTAP	59	192	3
NMTAP	59	240	3
NMTAP	59	288	4
NMTAP	59	336	4
NMHLD	60	0	2	96
BRTAP	60	96	0
BRTAP	60	192	3
BRTAP	60	192	4
BRTAP	60	288	6
BRTAP	60	288	7
BRSTR	61	0	2
BRSCL	61	0	2	96	192	5
BRTAP	61	0	5
NMHLD	61	96	4	192
NMTAP	62	0	3
NMSTR	62	0	4
NMSUL	62	0	4	96	192	3
NMHLD	62	96	1	192
NMTAP	63	0	1
NMTAP	63	48	0
NMHLD	63	96	2	96
NMHLD	63	96	7	96
NMTAP	63	288	4
NMTAP	63	288	5
NMTAP	64	0	2
NMTAP	64	0	3
NMSTR	64	96	1
NMSLR	64	96	1	96	120	5
NMTAP	64	96	7
EXTAP	64	336	6
EXTAP	65	0	6
NMSTR	65	96	6
NMSI_	65	96	6	96	48	3
NMSTR	65	96	7
NMSI_	65	96	7	96	48	2
NMSTR	65	288	0
NMSI_	65	288	0	96	48	5
NMSTR	65	288	1
NMSI_	65	288	1	96	48	4
NMSTR	66	96	6
NMSI_	66	96	6	96	48	3
NMSTR	66	96	7
NMSI_	66	96	7	96	48	2
EXTAP	66	288	0
EXTAP	66	288	1
NMTAP	67	0	2
NMTAP	67	0	7
NMHLD	67	96	6	72
NMHLD	67	168	5	72
NMTAP	67	240	4
NMHLD	67	288	3	72
NMHLD	67	360	2	72
NMTAP	68	48	1
BRTAP	68	96	0
BRHLD	68	96	7	1536
NMTHO	71	96	0	384	C	0	M1

T_REC_TAP	137
T_REC_BRK	13
T_REC_XTP	13
T_REC_BXX	1
T_REC_HLD	52
T_REC_XHO	0
T_REC_BHO	1
T_REC_BXH	0
T_REC_STR	36
T_REC_BST	2
T_REC_XST	0
T_REC_XBS	0
T_REC_TTP	16
T_REC_THO	2
T_REC_SLD	32
T_REC_BSL	6
T_REC_ALL	311
T_NUM_TAP	202
T_NUM_BRK	23
T_NUM_HLD	54
T_NUM_SLD	32
T_NUM_ALL	311
T_JUDGE_TAP	218
T_JUDGE_HLD	202
T_JUDGE_SLD	38
T_JUDGE_ALL	458
TTM_EACHPAIRS	66
TTM_SCR_TAP	101000
TTM_SCR_BRK	59800
TTM_SCR_HLD	54000
TTM_SCR_SLD	48000
TTM_SCR_ALL	262800
TTM_SCR_S	252700
TTM_SCR_SS	260500
TTM_RAT_ACV	10088

