VERSION	0.00.00	1.04.00
FES_MODE	0
BPM_DEF	145.000	145.000	145.000	145.000
MET_DEF	4	4
RESOLUTION	384
CLK_DEF	384
COMPATIBLE_CODE	MA2

BPM	0	0	145.000

NMHLD	1	0	1	72
NMHLD	1	72	3	96
NMTAP	1	168	2
NMTAP	1	216	2
NMTAP	1	240	3
NMHLD	1	288	2	48
NMHLD	1	288	4	72
NMTAP	2	72	4
NMTAP	2	72	6
NMTAP	2	120	4
NMTAP	2	120	6
NMTAP	2	168	3
NMTAP	2	168	7
NMTAP	2	216	4
NMTAP	2	240	6
EXHLD	2	288	3	96
EXTAP	2	288	7
NMHLD	3	0	5	72
NMHLD	3	72	4	96
NMTAP	3	168	6
NMTAP	3	216	6
NMTAP	3	240	4
NMHLD	3	288	3	48
NMHLD	3	288	5	72
NMTAP	4	72	2
NMTAP	4	72	4
NMTAP	4	120	1
NMTAP	4	120	3
NMTAP	4	168	0
NMTAP	4	168	4
NMTAP	4	216	1
NMTAP	4	240	3
EXTAP	4	288	0
EXHLD	4	288	4	96
NMTAP	5	0	1
NMTAP	5	48	1
NMTAP	5	72	3
NMTAP	5	120	3
NMTAP	5	168	2
NMTAP	5	168	4
NMTAP	5	216	5
NMTAP	5	240	3
NMTAP	5	288	2
NMTAP	5	288	6
NMTAP	5	336	5
NMTAP	5	360	4
NMTAP	6	0	6
NMTAP	6	48	6
NMTAP	6	72	4
NMTAP	6	120	4
NMTAP	6	168	3
NMTAP	6	168	5
NMTAP	6	216	2
NMTAP	6	240	4
NMTAP	6	288	1
NMHLD	6	288	5	96
NMTAP	7	0	1
NMTAP	7	48	1
NMTAP	7	72	3
NMTAP	7	120	3
NMTAP	7	168	1
NMTAP	7	168	5
NMTAP	7	216	4
NMTAP	7	240	2
NMSTR	7	288	1
NMSCL	7	288	1	96	96	4
NMHLD	7	288	5	288
NMTAP	8	192	7
NMTAP	8	240	1
BRTAP	8	288	3
BRTAP	8	288	7
EXTAP	9	0	2
EXTAP	9	0	6
NMTAP	9	48	5
NMHLD	9	72	3	48
NMTAP	9	120	4
NMTAP	9	144	2
NMTAP	9	168	3
NMHLD	9	192	1	48
NMTAP	9	240	7
NMHLD	9	264	0	48
NMTAP	9	312	6
NMTAP	9	336	7
NMTAP	9	360	5
NMHLD	10	0	0	48
NMTAP	10	48	4
NMHLD	10	72	1	48
NMTAP	10	120	3
NMTAP	10	144	2
NMTAP	10	168	4
NMHLD	10	192	3	48
NMTAP	10	240	5
NMHLD	10	264	4	48
NMTAP	10	312	7
NMTAP	10	336	5
NMTAP	10	360	6
NMTAP	11	0	3
NMSTR	11	72	4
NMSI_	11	72	4	96	48	0
NMTAP	11	72	5
NMTAP	11	144	7
NMSTR	11	192	7
NMSI_	11	192	7	96	48	4
NMSTR	11	288	1
NMSCL	11	288	1	96	48	6
NMSTR	12	0	5
NMSI_	12	0	5	96	48	0
NMSTR	12	96	4
NMSCL	12	96	4	96	48	1
NMTAP	12	192	7
NMTAP	12	240	7
BXTAP	12	288	0
BXTAP	12	288	6
EXHLD	13	0	1	48
EXTAP	13	0	5
NMTAP	13	48	6
NMHLD	13	72	0	48
NMTAP	13	120	5
NMTAP	13	144	7
NMTAP	13	168	6
EXTAP	13	192	6
NMTAP	13	240	1
NMHLD	13	264	7	48
NMTAP	13	312	2
NMTAP	13	336	0
NMTAP	13	360	1
EXTAP	14	0	1
NMTAP	14	48	6
NMHLD	14	72	0	48
NMTAP	14	120	5
NMTAP	14	144	7
NMTAP	14	168	6
EXTAP	14	192	6
NMTAP	14	240	2
NMHLD	14	264	2	48
NMTAP	14	312	3
NMTAP	14	336	1
NMTAP	14	360	4
NMTAP	15	0	4
NMTAP	15	72	2
NMSTR	15	72	3
NMSI_	15	72	3	96	48	7
NMTAP	15	144	0
NMSTR	15	192	0
NMSCR	15	192	0	96	48	3
NMHLD	15	288	6	96
NMTTP	16	0	4	E	0	M1
NMTTP	16	12	3	B	0	M1
NMTTP	16	24	2	B	0	M1
NMTTP	16	36	1	B	0	M1
NMTTP	16	48	1	E	0	M1
NMTTP	16	96	4	E	0	M1
NMTTP	16	108	4	B	0	M1
NMTTP	16	120	5	B	0	M1
NMTTP	16	132	6	B	0	M1
NMTTP	16	144	7	E	0	M1
NMSTR	16	192	0
NMSI_	16	192	0	96	48	3
NMSI_	16	192	0	96	48	5
NMTAP	16	208	7
NMTAP	16	224	0
NMTAP	16	240	7
BXTAP	16	288	0
EXTAP	17	0	2
EXHLD	17	0	6	48
NMTAP	17	48	1
NMHLD	17	72	7	48
NMTAP	17	120	2
NMTAP	17	144	0
NMTAP	17	168	1
EXTAP	17	192	4
NMTAP	17	240	6
NMHLD	17	264	0	48
NMTAP	17	312	5
NMTAP	17	336	7
NMTAP	17	360	6
EXTAP	18	0	3
NMTAP	18	48	1
NMHLD	18	72	7	48
NMTAP	18	120	2
NMTAP	18	144	0
NMTAP	18	168	1
EXTAP	18	192	4
NMTAP	18	240	6
NMHLD	18	264	0	48
NMTAP	18	312	5
NMTAP	18	336	7
NMTAP	18	360	6
NMHLD	19	0	1	48
NMTAP	19	48	3
NMTAP	19	72	3
NMTAP	19	120	5
NMTAP	19	144	5
NMHLD	19	192	1	48
NMHLD	19	192	7	48
NMHLD	19	264	6	48
NMHLD	19	264	7	48
NMTAP	19	336	5
NMTAP	19	336	7
NMHLD	20	0	0	48
NMHLD	20	0	6	48
NMHLD	20	72	0	48
NMHLD	20	72	1	48
NMTAP	20	144	0
NMTAP	20	144	2
NMTAP	20	192	3
NMTAP	20	192	7
NMTAP	20	240	6
NMTAP	20	264	4
NMTAP	20	288	5
NMTAP	20	312	3
NMTAP	20	336	4
EXHLD	21	0	2	48
EXTAP	21	0	6
NMTAP	21	48	5
NMHLD	21	72	3	48
NMTAP	21	120	6
NMTAP	21	144	4
NMTAP	21	168	5
EXTAP	21	192	0
NMTAP	21	240	2
NMHLD	21	264	4	48
NMTAP	21	312	1
NMTAP	21	336	3
NMTAP	21	360	2
EXTAP	22	0	7
NMTAP	22	48	5
NMHLD	22	72	3	48
NMTAP	22	120	6
NMTAP	22	144	4
NMTAP	22	168	5
EXTAP	22	192	0
NMTAP	22	240	6
NMTAP	22	264	0
NMTAP	22	288	5
NMTAP	22	312	1
NMTAP	22	336	4
NMTAP	22	360	2
NMTAP	23	0	1
NMTAP	23	0	5
NMTAP	23	48	6
NMTAP	23	72	7
NMSTR	23	96	5
NMSCR	23	96	5	96	96	1
NMTAP	23	144	4
NMTAP	23	192	3
CNSCL	23	288	1	0	96	5
NMTAP	23	288	3
NMTAP	24	0	1
NMTAP	24	48	1
NMTAP	24	72	3
NMTAP	24	120	3
NMTAP	24	144	2
NMTAP	24	168	4
NMTAP	24	192	3
NMTAP	24	208	5
NMTAP	24	224	3
NMTAP	24	240	5
BXTAP	24	288	1
BXTAP	24	288	7
EXHLD	25	0	0	72
NMTAP	25	0	6
NMTTP	25	72	2	B	0	M1
NMTTP	25	72	3	E	0	M1
NMTTP	25	120	4	E	0	M1
NMTTP	25	120	4	D	0	M1
EXTAP	25	168	1
NMTTP	25	168	5	B	0	M1
NMTTP	25	168	5	E	0	M1
NMTAP	25	240	6
NMTAP	25	264	6
NMSTR	25	288	3
NMSI_	25	288	3	96	24	1
NMTAP	25	336	4
NMSTR	26	0	5
NMSI_	26	0	5	96	24	7
NMTAP	26	48	4
NMSTR	26	96	3
NMSI_	26	96	3	96	24	1
NMTAP	26	144	4
NMSTR	26	192	5
NMSI_	26	192	5	96	24	7
NMTAP	26	240	4
EXTAP	26	288	0
EXTAP	27	0	1
EXHLD	27	0	7	72
NMTTP	27	72	2	B	0	M1
NMTTP	27	72	3	E	0	M1
NMTTP	27	120	4	E	0	M1
NMTTP	27	120	4	D	0	M1
NMTTP	27	168	5	B	0	M1
NMTTP	27	168	5	E	0	M1
NMHLD	27	168	6	72
NMTAP	27	240	7
NMTAP	27	264	0
NMTAP	27	288	1
NMTAP	27	312	2
NMTAP	27	336	3
NMTAP	28	0	6
NMTAP	28	24	6
NMTAP	28	72	3
NMSTR	28	72	5
NMSI_	28	72	5	96	48	0
NMTAP	28	120	2
NMTAP	28	120	4
NMSTR	28	168	1
NMSI_	28	168	1	96	48	4
CNSCL	28	312	4	0	24	2
EXHLD	29	0	0	72
EXTAP	29	0	7
NMTTP	29	72	2	B	0	M1
NMTTP	29	72	3	E	0	M1
NMTTP	29	120	4	E	0	M1
NMTTP	29	120	4	D	0	M1
NMTTP	29	168	5	B	0	M1
NMTTP	29	168	5	E	0	M1
EXTAP	29	168	7
NMTAP	29	240	6
NMTAP	29	264	6
NMSTR	29	288	0
NMSI_	29	288	0	96	24	2
NMTAP	29	336	7
NMSTR	30	0	6
NMSI_	30	0	6	96	24	4
NMTAP	30	48	7
NMSTR	30	96	0
NMSI_	30	96	0	96	24	2
NMTAP	30	144	7
NMSTR	30	192	6
NMSI_	30	192	6	96	24	4
NMTAP	30	240	7
NMTTP	30	288	3	B	1	M1
NMSTR	31	0	7
NMSCL	31	0	7	96	72	5
NMSTR	31	72	5
NMSCL	31	72	5	96	72	3
NMSTR	31	144	3
NMSCL	31	144	3	96	72	0
NMSTR	31	216	0
NMSCL	31	216	0	96	72	5
NMSTR	31	288	5
NMSCL	31	288	5	96	72	2
NMSTR	31	360	2
NMSCL	31	360	2	96	72	6
NMTAP	32	48	7
NMTAP	32	120	5
NMSTR	32	192	4
NMSF_	32	192	4	96	48	0
NMTTP	32	288	4	A	1	M1
NMTTP	32	288	4	D	0	M1
NMTTP	32	288	5	D	0	M1
NMTAP	33	0	2
NMSTR	33	0	6
NMSUL	33	0	6	96	288	3
NMSTR	34	0	2
NMSUR	34	0	2	96	288	5
NMSTR	35	0	7
NMSUL	35	0	7	96	288	4
NMSTR	36	0	3
NMSUL	36	0	3	96	288	0
NMSTR	37	0	7
NMSCL	37	0	7	96	672	0
NMTTP	37	192	2	E	0	M1
NMTTP	38	0	4	E	0	M1
NMTTP	38	192	6	E	0	M1
CNSCR	39	0	0	0	768	7
NMTTP	39	0	0	E	0	M1
NMTTP	39	96	1	E	0	M1
NMTTP	39	192	2	E	0	M1
NMTTP	39	288	3	E	0	M1
NMTTP	40	0	4	E	0	M1
NMTTP	40	96	5	E	0	M1
NMTTP	40	192	0	C	0	M1
BRTAP	41	0	0
NMSTR	41	96	6
NMSI_	41	96	6	96	48	2
NMTAP	41	192	0
NMTAP	41	240	0
CNSI_	41	240	2	0	48	5
NMTAP	41	288	0
CNSI_	41	288	5	0	48	3
NMHLD	42	0	1	72
NMHLD	42	72	2	72
NMHLD	42	144	3	96
NMTAP	42	240	2
NMTAP	42	312	1
NMTAP	42	312	4
BRTAP	43	0	0
NMHLD	43	0	5	96
NMSTR	43	96	1
NMSI_	43	96	1	96	48	5
NMTAP	43	192	7
CNSI_	43	240	5	0	48	2
NMTAP	43	240	7
CNSI_	43	288	2	0	48	4
NMTAP	43	288	7
NMHLD	44	0	6	72
NMTAP	44	72	5
NMHLD	44	144	4	96
NMTAP	44	144	5
NMTTP	44	240	4	B	0	M1
NMTTP	44	240	5	E	0	M1
NMTTP	44	312	6	B	0	M1
NMTTP	44	312	6	A	0	M1
EXTAP	45	0	0
NMTHO	45	0	0	1152	C	0	M1
EXTAP	45	96	0
NMTTP	45	192	1	E	0	M1
NMTTP	45	240	2	E	0	M1
NMTTP	45	288	3	E	0	M1
NMHLD	46	0	2	72
NMTAP	46	144	2
NMHLD	46	240	1	72
EXTAP	47	0	0
NMTAP	47	96	0
NMTAP	47	192	7
NMTAP	47	240	7
NMSTR	47	288	7
NMSUR	47	288	7	96	144	2
CNSCR	48	144	2	0	96	5
BRTAP	49	0	1
NMTAP	49	16	0
NMTAP	49	32	1
NMTAP	49	48	7
NMTAP	49	72	2
NMTAP	49	96	6
NMTAP	49	120	3
NMHLD	49	144	5	48
EXTAP	49	192	2
NMTAP	49	208	3
NMTAP	49	224	2
NMTAP	49	240	4
NMTAP	49	264	1
NMTAP	49	288	5
NMTAP	49	312	0
NMTAP	49	336	6
NMSTR	49	360	7
NMSI_	49	360	7	96	48	3
NMTAP	50	0	5
EXTAP	50	72	3
CNSI_	50	120	3	0	48	1
EXTAP	50	120	5
NMTAP	50	168	7
NMTAP	50	192	7
NMTAP	50	240	1
NMTAP	50	240	5
NMTAP	50	288	1
NMTAP	50	288	5
NMTAP	50	304	2
NMTAP	50	320	3
NMTAP	50	336	4
BRTAP	51	0	6
NMTAP	51	16	7
NMTAP	51	32	6
NMTAP	51	48	0
NMTAP	51	72	5
NMTAP	51	96	1
NMTAP	51	120	4
NMHLD	51	144	2	48
EXTAP	51	192	5
NMTAP	51	208	4
NMTAP	51	224	5
NMTAP	51	240	3
NMTAP	51	264	6
NMTAP	51	288	2
NMTAP	51	312	7
NMTAP	51	336	1
NMTAP	51	360	0
NMHLD	52	0	3	96
BRTAP	52	96	7
BRTAP	52	128	7
BRTAP	52	160	7
NMTAP	52	192	0
NMTAP	52	216	6
NMTAP	52	240	1
NMTAP	52	264	5
EXTAP	52	288	2
EXHLD	52	336	2	48
BRTAP	53	0	6
NMTAP	53	16	5
NMTAP	53	32	4
NMTAP	53	48	2
NMTAP	53	72	3
NMTAP	53	96	1
NMTAP	53	120	3
NMTAP	53	144	2
NMTAP	53	168	3
NMTAP	53	192	0
NMTAP	53	208	1
NMTAP	53	224	2
NMTAP	53	240	5
NMTAP	53	264	4
NMTAP	53	288	6
NMTAP	53	312	4
NMTAP	53	336	5
NMTAP	53	360	4
NMTAP	54	0	7
NMTAP	54	16	6
NMTAP	54	32	5
NMTAP	54	48	3
NMTAP	54	72	3
NMTAP	54	96	1
NMTAP	54	120	1
NMTAP	54	144	0
NMTAP	54	168	0
NMTAP	54	192	6
NMTAP	54	208	5
NMTAP	54	224	4
NMTAP	54	240	2
NMTAP	54	264	2
NMTAP	54	288	7
EXTAP	54	336	0
EXTAP	54	336	6
NMTAP	55	0	0
NMTAP	55	16	1
NMTAP	55	32	2
NMTAP	55	48	4
NMTAP	55	72	4
NMTAP	55	96	6
NMTAP	55	120	6
NMTAP	55	144	7
NMTAP	55	168	7
NMTAP	55	192	1
NMTAP	55	208	2
NMTAP	55	224	3
NMTAP	55	240	5
NMTAP	55	264	5
NMTAP	55	288	7
NMTAP	55	312	7
BRTAP	55	336	4
EXTAP	56	0	1
NMTAP	56	16	2
NMTAP	56	32	3
NMTAP	56	48	5
NMTAP	56	64	6
NMTAP	56	80	7
NMTAP	56	96	1
NMTAP	56	112	2
NMTAP	56	128	3
NMTAP	56	144	5
NMTAP	56	160	6
NMTAP	56	176	7
NMTAP	56	192	0
NMTAP	56	192	1
NMTAP	56	204	2
NMTAP	56	216	3
NMTAP	56	228	4
NMTAP	56	240	5
NMTAP	56	252	6
NMTAP	56	264	7
NMTAP	56	276	0
NMTTP	56	288	0	C	1	M1
NMTAP	56	288	1
BRTAP	57	0	0
BRTAP	57	0	7
NMTAP	57	48	6
NMTAP	57	72	6
NMSTR	57	96	4
NMSI_	57	96	4	96	48	1
NMTAP	57	144	3
NMTAP	57	144	5
NMTAP	57	192	4
NMTAP	57	192	6
NMTAP	57	240	5
NMTAP	57	264	5
NMSTR	57	288	7
NMSI_	57	288	7	96	48	2
NMTAP	57	336	0
NMTAP	57	336	6
NMTAP	58	0	5
NMTAP	58	0	7
NMTAP	58	48	3
NMTAP	58	72	3
NMSTR	58	96	1
NMSI_	58	96	1	96	48	4
NMTAP	58	144	0
NMTAP	58	144	2
NMTAP	58	192	1
NMTAP	58	192	3
NMTAP	58	240	5
NMTAP	58	264	5
NMSTR	58	288	3
NMSI_	58	288	3	96	48	7
NMTAP	58	336	2
NMTAP	58	336	4
NMTAP	59	0	3
NMTAP	59	0	5
NMTAP	59	48	6
NMHLD	59	72	6	48
NMTAP	59	120	0
NMHLD	59	144	0	48
NMTAP	59	192	7
NMTAP	59	208	6
NMTAP	59	224	5
NMTAP	59	240	2
NMTAP	59	264	2
NMTAP	59	288	3
NMTAP	59	312	1
NMHLD	59	336	7	48
NMTAP	60	0	0
NMTAP	60	16	1
NMTAP	60	32	2
NMTAP	60	48	5
NMTAP	60	72	5
NMTAP	60	96	4
NMTAP	60	120	6
NMHLD	60	144	0	48
NMTAP	60	192	7
NMTAP	60	208	1
NMTAP	60	208	6
NMTAP	60	224	2
NMTAP	60	224	5
NMTAP	60	240	3
NMTAP	60	240	4
EXTAP	60	288	2
EXTAP	60	288	6
BRTAP	61	0	0
BRTAP	61	0	7
NMTAP	61	48	1
NMTAP	61	72	1
NMSTR	61	96	3
NMSI_	61	96	3	96	48	6
NMTAP	61	144	2
NMTAP	61	144	4
NMTAP	61	192	1
NMTAP	61	192	3
NMTAP	61	240	2
NMTAP	61	264	2
NMSTR	61	288	0
NMSI_	61	288	0	96	48	5
NMTAP	61	336	1
NMTAP	61	336	7
NMTAP	62	0	0
NMTAP	62	0	2
NMTAP	62	48	4
NMTAP	62	72	4
NMSTR	62	96	6
NMSI_	62	96	6	96	48	3
NMTAP	62	144	5
NMTAP	62	144	7
NMTAP	62	192	4
NMTAP	62	192	6
NMTAP	62	240	2
NMTAP	62	264	2
NMSTR	62	288	4
NMSI_	62	288	4	96	48	0
NMTAP	62	336	3
NMTAP	62	336	5
NMTAP	63	0	4
NMTAP	63	0	6
NMTAP	63	48	7
NMTAP	63	72	7
NMTAP	63	120	1
NMTAP	63	120	5
NMTAP	63	144	1
NMTAP	63	144	5
NMTAP	63	192	0
NMTAP	63	208	1
NMTAP	63	224	2
NMTAP	63	240	5
NMTAP	63	264	5
NMTAP	63	288	4
NMTAP	63	312	6
NMHLD	63	336	2	48
NMTAP	64	0	0
NMTAP	64	24	1
NMTAP	64	48	0
NMTAP	64	72	1
NMTAP	64	96	7
NMTAP	64	120	2
NMTAP	64	144	7
NMTAP	64	168	2
NMSTR	64	192	3
NMSI_	64	192	3	96	48	0
NMSTR	64	192	6
NMSI_	64	192	6	96	48	0
NMTAP	64	240	4
NMTAP	64	240	5
BRTAP	64	288	3
BRTAP	64	288	6
EXTAP	65	0	2
EXTAP	65	0	6
NMTAP	65	48	1
NMSTR	65	72	0
NMSI_	65	72	0	96	48	4
NMTAP	65	96	2
NMTAP	65	120	7
NMTAP	65	144	1
BRTAP	65	168	0
EXTAP	65	240	3
NMTAP	65	288	6
NMTAP	65	312	4
NMTAP	65	336	6
NMTAP	65	360	4
BXTAP	66	0	5
NMTAP	66	48	6
NMSTR	66	72	7
NMSI_	66	72	7	96	48	3
NMTAP	66	96	5
NMTAP	66	120	0
NMTAP	66	144	6
BRTAP	66	168	7
NMTAP	66	240	4
NMTAP	66	256	5
NMTAP	66	272	6
NMTAP	66	288	0
NMTAP	66	304	1
NMTAP	66	320	2
BRTAP	66	336	3
BRTAP	66	336	7
BXTAP	67	0	1
BXTAP	67	0	5
NMTAP	67	48	2
NMSTR	67	72	3
NMSI_	67	72	3	96	48	7
NMTAP	67	96	1
NMTAP	67	120	4
NMTAP	67	144	2
BRTAP	67	168	3
CNSI_	67	216	7	0	48	5
NMTAP	67	240	0
CNSI_	67	264	5	0	48	1
BRTAP	67	288	2
BXTAP	68	0	0
BXTAP	68	0	1
NMTAP	68	48	0
NMTAP	68	48	1
NMSTR	68	72	2
NMSI_	68	72	2	96	48	7
NMSTR	68	72	7
NMSI_	68	72	7	96	48	3
NMTAP	68	120	4
NMTAP	68	120	5
NMTTP	68	168	0	C	1	M1
BRTAP	68	168	2
BRTAP	68	168	7

T_REC_TAP	434
T_REC_BRK	25
T_REC_XTP	37
T_REC_BXX	10
T_REC_HLD	55
T_REC_XHO	9
T_REC_BHO	0
T_REC_BXH	0
T_REC_STR	51
T_REC_BST	0
T_REC_XST	0
T_REC_XBS	0
T_REC_TTP	51
T_REC_THO	1
T_REC_SLD	52
T_REC_BSL	0
T_REC_ALL	725
T_NUM_TAP	573
T_NUM_BRK	35
T_NUM_HLD	65
T_NUM_SLD	52
T_NUM_ALL	725
T_JUDGE_TAP	608
T_JUDGE_HLD	116
T_JUDGE_SLD	52
T_JUDGE_ALL	776
TTM_EACHPAIRS	81
TTM_SCR_TAP	286500
TTM_SCR_BRK	91000
TTM_SCR_HLD	65000
TTM_SCR_SLD	78000
TTM_SCR_ALL	520500
TTM_SCR_S	501500
TTM_SCR_SS	517000
TTM_RAT_ACV	10067

