VERSION	0.00.00	1.04.00
FES_MODE	0
BPM_DEF	145.000	145.000	145.000	145.000
MET_DEF	4	4
RESOLUTION	384
CLK_DEF	384
COMPATIBLE_CODE	MA2

BPM	0	0	145.000

NMHLD	1	0	1	96
NMTAP	1	96	3
NMTAP	1	192	2
NMTAP	1	240	2
NMTAP	1	288	3
NMTAP	2	0	4
NMTAP	2	48	4
NMTAP	2	96	3
NMTAP	2	192	2
NMTAP	2	240	2
NMTAP	2	288	3
NMHLD	3	0	6	96
NMTAP	3	96	4
NMTAP	3	192	5
NMTAP	3	240	5
NMTAP	3	288	4
NMTAP	4	0	3
NMTAP	4	48	3
NMTAP	4	96	4
NMTAP	4	192	5
NMTAP	4	240	5
NMTAP	4	288	4
NMHLD	5	0	2	96
NMTAP	5	96	3
NMTAP	5	192	1
NMTAP	5	240	1
NMTAP	5	288	3
NMTAP	6	0	6
NMTAP	6	48	6
NMTAP	6	96	4
NMTAP	6	192	1
NMTAP	6	240	1
NMTAP	6	288	3
NMTAP	7	0	2
NMTAP	7	48	2
NMTAP	7	96	4
NMTAP	7	144	4
NMTAP	7	192	3
NMTAP	7	240	3
NMTAP	7	288	5
NMTAP	7	336	5
NMSTR	8	0	3
BRSUL	8	0	3	96	96	7
BRSUR	8	0	3	96	96	7
NMTAP	8	288	0
NMTAP	8	288	5
NMSTR	9	0	6
NMSI_	9	0	6	96	48	3
NMSTR	9	0	7
NMSI_	9	0	7	96	48	3
NMSTR	9	192	0
NMSI_	9	192	0	96	48	4
NMSTR	9	192	1
NMSI_	9	192	1	96	48	4
NMSTR	10	0	6
NMSI_	10	0	6	96	48	3
NMSTR	10	0	7
NMSI_	10	0	7	96	48	3
NMTAP	10	192	0
NMTAP	10	192	1
NMTAP	10	288	0
NMTAP	10	288	1
NMHLD	11	0	1	72
NMHLD	11	72	2	72
NMTAP	11	144	3
NMHLD	11	192	6	72
NMHLD	11	264	5	72
NMTAP	11	336	4
NMHLD	12	0	2	72
NMHLD	12	72	3	72
NMTAP	12	144	1
NMTAP	12	192	1
NMTAP	12	288	0
NMTAP	12	288	7
NMSTR	13	0	0
NMSI_	13	0	0	96	48	4
NMSTR	13	0	1
NMSI_	13	0	1	96	48	4
NMSTR	13	192	6
NMSI_	13	192	6	96	48	3
NMSTR	13	192	7
NMSI_	13	192	7	96	48	3
NMSTR	14	0	0
NMSI_	14	0	0	96	48	4
NMSTR	14	0	1
NMSI_	14	0	1	96	48	4
NMTAP	14	192	6
NMTAP	14	192	7
NMTAP	14	288	6
NMTAP	14	288	7
NMHLD	15	0	6	72
NMHLD	15	72	5	72
NMTAP	15	144	4
NMHLD	15	192	1	72
NMHLD	15	264	2	72
NMTAP	15	336	3
NMHLD	16	0	5	72
NMHLD	16	72	4	72
NMTAP	16	144	7
NMTAP	16	192	7
NMTAP	16	288	0
NMTAP	16	288	6
NMSTR	17	0	2
NMSI_	17	0	2	96	48	7
NMSTR	17	0	3
NMSI_	17	0	3	96	48	7
NMSTR	17	192	4
NMSI_	17	192	4	96	48	0
NMSTR	17	192	5
NMSI_	17	192	5	96	48	0
NMSTR	18	0	2
NMSI_	18	0	2	96	48	7
NMSTR	18	0	3
NMSI_	18	0	3	96	48	7
NMTAP	18	192	4
NMTAP	18	192	5
NMTAP	18	288	4
NMTAP	18	288	5
NMHLD	19	0	6	48
NMHLD	19	0	7	48
NMHLD	19	72	0	48
NMHLD	19	72	5	48
NMTAP	19	144	1
NMTAP	19	144	4
NMSTR	19	192	1
NMSI_	19	192	1	96	48	3
NMSTR	19	192	4
NMSI_	19	192	4	96	48	6
NMHLD	20	0	4	48
NMHLD	20	0	5	48
NMHLD	20	72	3	48
NMHLD	20	72	6	48
NMTAP	20	144	2
NMTAP	20	144	7
NMTAP	20	192	2
NMTAP	20	192	7
NMTAP	20	288	1
NMTAP	20	288	6
NMSTR	21	0	4
NMSI_	21	0	4	96	48	0
NMSTR	21	0	5
NMSI_	21	0	5	96	48	0
NMSTR	21	192	2
NMSI_	21	192	2	96	48	7
NMSTR	21	192	3
NMSI_	21	192	3	96	48	7
NMSTR	22	0	4
NMSI_	22	0	4	96	48	0
NMSTR	22	0	5
NMSI_	22	0	5	96	48	0
NMTAP	22	192	2
NMTAP	22	192	3
NMTAP	22	288	2
NMTAP	22	288	3
NMHLD	23	0	0	48
NMHLD	23	0	1	48
NMHLD	23	72	2	48
NMHLD	23	72	7	48
NMTAP	23	144	3
NMTAP	23	144	6
NMSTR	23	192	3
NMSI_	23	192	3	96	48	1
NMSTR	23	192	6
NMSI_	23	192	6	96	48	4
NMHLD	24	0	2	48
NMHLD	24	0	3	48
NMHLD	24	72	1	48
NMHLD	24	72	4	48
NMTAP	24	144	0
NMTAP	24	144	5
NMTAP	24	192	0
NMTAP	24	192	5
BXTAP	24	288	1
BXTAP	24	288	6
NMHLD	25	0	1	72
NMTAP	25	72	0
NMTAP	25	120	0
NMSTR	25	168	1
NMSI_	25	168	1	96	48	4
NMSTR	25	168	7
NMSI_	25	168	7	96	48	4
NMTAP	26	0	5
NMTAP	26	48	5
NMTAP	26	96	4
NMTAP	26	144	6
NMTAP	26	192	2
NMTAP	26	240	3
NMTAP	26	288	1
NMTAP	26	288	4
NMHLD	27	0	6	72
NMTAP	27	72	7
NMTAP	27	120	7
NMSTR	27	168	0
NMSI_	27	168	0	96	48	3
NMSTR	27	168	6
NMSI_	27	168	6	96	48	3
NMTAP	28	0	2
NMTAP	28	48	2
NMTAP	28	96	3
NMTAP	28	144	1
NMTAP	28	192	5
NMTAP	28	240	4
NMTAP	28	288	3
NMTAP	28	288	6
NMHLD	29	0	1	72
NMTAP	29	72	0
NMTAP	29	120	0
NMSTR	29	168	1
NMSCR	29	168	1	96	48	4
NMSTR	29	168	7
NMSCL	29	168	7	96	48	4
NMTAP	30	0	5
NMTAP	30	48	5
NMTAP	30	96	4
NMTAP	30	144	7
NMTAP	30	192	1
NMTAP	30	240	0
NMTAP	30	288	2
NMTAP	30	288	7
NMHLD	31	0	2	72
NMHLD	31	72	1	72
NMHLD	31	144	0	72
NMHLD	31	216	7	72
NMHLD	31	288	6	72
NMHLD	31	360	5	72
NMHLD	32	48	4	72
NMHLD	32	120	3	72
NMTAP	32	192	2
NMTAP	32	240	2
EXTAP	32	288	1
EXTAP	32	288	4
NMSTR	33	0	2
NMSV_	33	0	2	96	192	7
NMHLD	33	0	5	672
NMSTR	34	0	7
NMSV_	34	0	7	96	192	4
NMHLD	35	0	3	384
NMSTR	35	0	6
NMSV_	35	0	6	96	192	1
NMSTR	36	0	0
NMSUL	36	0	0	96	192	4
NMSUR	36	0	0	96	192	4
NMHLD	37	0	1	672
NMTTP	37	96	0	E	0	M1
NMTTP	37	192	1	E	0	M1
NMTTP	37	288	2	E	0	M1
NMTTP	38	0	3	E	0	M1
NMTTP	38	96	4	E	0	M1
NMTTP	38	192	5	E	0	M1
NMTTP	38	288	0	C	0	M1
NMHLD	39	0	6	576
NMTTP	39	96	0	E	0	M1
NMTTP	39	192	7	E	0	M1
NMTTP	39	288	6	E	0	M1
NMTTP	40	0	5	E	0	M1
NMTTP	40	96	4	E	0	M1
NMTHO	40	192	0	96	C	0	M1
NMTAP	41	0	6
NMTAP	41	48	6
NMTAP	41	96	7
NMTAP	41	192	5
NMTAP	41	240	5
NMTAP	41	288	4
NMTAP	42	0	3
NMTAP	42	0	4
NMTAP	42	72	2
NMTAP	42	72	3
NMSTR	42	144	1
NMSV_	42	144	1	96	48	0
NMTAP	42	144	2
NMTAP	43	0	1
NMTAP	43	48	1
NMTAP	43	96	0
NMTAP	43	192	2
NMTAP	43	240	2
NMTAP	43	288	3
NMTAP	44	0	3
NMTAP	44	0	4
NMTAP	44	72	4
NMTAP	44	72	5
NMTAP	44	144	5
NMSTR	44	144	6
NMSV_	44	144	6	96	48	7
NMTAP	45	0	6
NMTAP	45	48	6
NMTAP	45	96	4
NMTAP	45	96	6
NMTAP	45	192	5
NMTAP	45	240	5
NMTAP	45	288	4
NMTAP	45	288	5
NMTAP	46	0	2
NMTAP	46	0	3
NMTAP	46	72	2
NMTAP	46	72	3
NMSTR	46	144	1
NMSV_	46	144	1	96	48	3
NMTAP	46	144	4
NMTAP	47	0	5
NMTAP	47	48	5
NMTAP	47	96	4
NMTAP	47	96	5
NMTAP	47	192	2
NMTAP	47	240	2
NMTAP	47	288	2
NMTAP	47	288	3
NMTAP	48	0	3
NMTAP	48	0	4
NMTAP	48	72	2
NMTAP	48	72	5
NMSTR	48	144	1
NMSV_	48	144	1	96	48	3
NMSTR	48	144	6
NMSV_	48	144	6	96	48	4
NMTAP	49	0	2
NMTAP	49	24	3
NMTAP	49	48	2
NMTAP	49	72	3
NMTAP	49	96	1
NMTAP	49	192	5
NMTAP	49	216	4
NMTAP	49	240	5
NMTAP	49	264	4
NMTAP	49	288	6
NMTAP	50	0	1
NMTAP	50	24	0
NMTAP	50	48	1
NMTAP	50	96	2
NMTAP	50	96	7
NMTAP	50	144	2
NMTAP	50	144	7
NMTAP	50	192	3
NMTAP	50	192	6
NMTAP	50	240	3
NMTAP	50	240	6
NMTAP	50	288	4
NMTAP	50	288	5
NMTAP	51	0	5
NMTAP	51	24	4
NMTAP	51	48	5
NMTAP	51	72	4
NMTAP	51	96	6
NMTAP	51	192	2
NMTAP	51	216	3
NMTAP	51	240	2
NMTAP	51	264	3
NMTAP	51	288	1
NMTAP	52	0	6
NMTAP	52	24	7
NMTAP	52	48	6
NMTAP	52	96	0
NMTAP	52	96	5
NMTAP	52	144	0
NMTAP	52	144	5
NMTAP	52	192	1
NMTAP	52	192	4
NMTAP	52	240	1
NMTAP	52	240	4
NMTAP	52	288	2
NMTAP	52	288	3
NMTAP	53	0	1
NMTAP	53	24	0
NMTAP	53	48	1
NMTAP	53	72	0
NMTAP	53	96	2
NMTAP	53	192	6
NMTAP	53	216	7
NMTAP	53	240	6
NMTAP	53	264	7
NMTAP	53	288	5
NMTAP	54	0	2
NMTAP	54	24	3
NMTAP	54	48	2
NMTAP	54	96	1
NMTAP	54	96	4
NMTAP	54	144	1
NMTAP	54	144	4
NMTAP	54	192	0
NMTAP	54	192	5
NMTAP	54	240	0
NMTAP	54	240	5
NMTAP	54	288	6
NMTAP	54	288	7
NMTAP	55	0	6
NMTAP	55	24	7
NMTAP	55	48	6
NMTAP	55	72	7
NMTAP	55	96	5
NMTAP	55	192	1
NMTAP	55	216	0
NMTAP	55	240	1
NMTAP	55	264	0
NMTAP	55	288	2
NMTAP	56	0	3
NMSTR	56	0	5
NMSI_	56	0	5	96	48	2
NMSTR	56	96	1
NMSI_	56	96	1	96	48	6
NMTAP	56	192	7
EXTAP	56	288	0
EXTAP	56	288	7
BRSTR	57	0	0
NMSUR	57	0	0	96	48	5
BRSTR	57	0	1
NMSCR	57	0	1	96	48	4
NMSTR	57	192	6
NMSCL	57	192	6	96	48	3
NMSTR	57	192	7
NMSUL	57	192	7	96	48	2
NMSTR	58	0	0
NMSUR	58	0	0	96	48	5
NMSTR	58	0	1
NMSCR	58	0	1	96	48	4
NMTAP	58	192	6
NMTAP	58	192	7
NMTAP	58	288	6
NMTAP	58	288	7
NMHLD	59	0	0	48
NMHLD	59	0	1	48
NMHLD	59	72	2	48
NMHLD	59	72	3	48
NMTAP	59	144	4
NMTAP	59	144	5
NMSTR	59	192	4
NMSV_	59	192	4	96	48	2
NMSTR	59	192	5
NMSV_	59	192	5	96	48	7
NMHLD	60	0	0	48
NMHLD	60	0	1	48
NMHLD	60	72	6	48
NMHLD	60	72	7	48
NMTAP	60	144	4
NMTAP	60	144	5
NMTAP	60	192	4
NMTAP	60	192	5
NMTAP	60	288	3
NMTAP	60	288	6
BRSTR	61	0	4
NMSUR	61	0	4	96	48	1
BRSTR	61	0	5
NMSCR	61	0	5	96	48	0
NMSTR	61	192	2
NMSCL	61	192	2	96	48	7
NMSTR	61	192	3
NMSUL	61	192	3	96	48	6
NMSTR	62	0	4
NMSUR	62	0	4	96	48	1
NMSTR	62	0	5
NMSCR	62	0	5	96	48	0
NMTAP	62	192	2
NMTAP	62	192	3
NMTAP	62	288	2
NMTAP	62	288	3
NMHLD	63	0	4	48
NMHLD	63	0	5	48
NMHLD	63	72	6	48
NMHLD	63	72	7	48
NMTAP	63	144	0
NMTAP	63	144	1
NMSTR	63	192	0
NMSV_	63	192	0	96	48	6
NMSTR	63	192	1
NMSV_	63	192	1	96	48	3
NMHLD	64	0	4	48
NMHLD	64	0	5	48
NMHLD	64	72	2	48
NMHLD	64	72	3	48
NMTAP	64	144	0
NMTAP	64	144	1
NMTAP	64	192	0
NMTAP	64	192	1
BRTAP	64	288	2
BRTAP	64	288	7
NMHLD	65	0	6	72
NMTAP	65	72	7
NMTAP	65	120	0
NMTAP	65	120	5
NMSTR	65	168	0
NMSI_	65	168	0	96	48	3
NMSTR	65	168	5
NMSI_	65	168	5	96	48	2
NMHLD	66	0	1	72
NMTAP	66	72	0
NMTAP	66	120	2
NMTAP	66	120	7
NMSTR	66	168	2
NMSI_	66	168	2	96	48	5
NMSTR	66	168	7
NMSI_	66	168	7	96	48	4
NMHLD	67	0	2	72
NMTAP	67	72	3
NMTAP	67	120	1
NMTAP	67	120	4
NMSTR	67	168	1
NMSI_	67	168	1	96	48	5
NMSTR	67	168	4
NMSI_	67	168	4	96	48	7
NMHLD	68	0	7	120
NMTAP	68	72	0
NMTAP	68	120	0
NMTTP	68	168	0	C	1	M1
NMTTP	68	168	2	B	0	M1
NMTTP	68	168	3	B	0	M1
NMTTP	68	168	4	B	0	M1
NMTTP	68	168	5	B	0	M1

T_REC_TAP	275
T_REC_BRK	2
T_REC_XTP	4
T_REC_BXX	2
T_REC_HLD	66
T_REC_XHO	0
T_REC_BHO	0
T_REC_BXH	0
T_REC_STR	64
T_REC_BST	4
T_REC_XST	0
T_REC_XBS	0
T_REC_TTP	17
T_REC_THO	1
T_REC_SLD	68
T_REC_BSL	2
T_REC_ALL	505
T_NUM_TAP	360
T_NUM_BRK	10
T_NUM_HLD	67
T_NUM_SLD	68
T_NUM_ALL	505
T_JUDGE_TAP	368
T_JUDGE_HLD	143
T_JUDGE_SLD	70
T_JUDGE_ALL	581
TTM_EACHPAIRS	117
TTM_SCR_TAP	180000
TTM_SCR_BRK	26000
TTM_SCR_HLD	67000
TTM_SCR_SLD	102000
TTM_SCR_ALL	375000
TTM_SCR_S	362800
TTM_SCR_SS	374000
TTM_RAT_ACV	10026

