VERSION	0.00.00	1.04.00
FES_MODE	0
BPM_DEF	156.000	156.000	156.000	156.000
MET_DEF	4	4
RESOLUTION	384
CLK_DEF	384
COMPATIBLE_CODE	MA2

BPM	0	0	156.000
MET	0	0	4	4

NMTAP	2	0	3
NMSTR	2	0	5
NMSI_	2	0	5	96	48	3
NMHLD	2	72	2	264
NMTAP	2	336	3
NMTAP	2	360	2
NMTAP	3	0	4
NMTAP	3	48	4
NMTAP	3	72	3
NMTAP	3	120	3
NMHLD	3	144	5	96
NMTAP	3	240	4
NMTAP	3	288	3
NMTAP	3	288	4
NMSTR	4	0	2
NMSI_	4	0	2	96	48	4
NMTAP	4	0	4
NMHLD	4	72	5	264
NMTAP	4	336	4
NMTAP	4	360	5
NMTAP	5	0	3
NMTAP	5	48	3
NMTAP	5	72	4
NMTAP	5	120	4
NMHLD	5	144	2	96
NMTAP	5	240	3
NMSTR	5	288	1
NMSCR	5	288	1	96	96	4
NMTAP	5	288	4
NMTAP	6	0	5
NMSTR	6	96	6
NMSI_	6	96	6	96	96	2
NMTAP	6	192	3
NMSTR	6	288	1
NMSI_	6	288	1	96	96	5
NMTAP	7	0	3
NMSTR	7	96	6
NMSCL	7	96	6	96	96	3
NMTAP	7	192	7
NMHLD	7	288	0	288
NMTAP	8	0	3
NMTAP	8	48	3
NMTAP	8	96	3
NMTAP	8	144	3
NMTAP	8	192	3
NMTAP	8	216	1
NMTAP	8	240	4
NMTAP	8	264	2
NMTAP	8	288	5
NMTAP	8	312	3
NMTAP	8	336	6
NMTAP	8	360	4
EXHLD	9	0	7	48
EXHLD	9	72	7	48
NMTAP	9	144	0
NMTAP	9	144	6
NMSTR	9	192	1
BRSI_	9	192	1	96	48	4
NMSTR	9	192	5
BRSI_	9	192	5	96	48	0
NMTAP	9	240	0
NMTAP	9	240	4
BRTAP	10	0	3
BRTAP	10	0	7
NMTAP	10	96	2
NMTAP	10	96	6
NMTAP	10	144	1
NMTAP	10	168	0
NMTAP	10	216	6
NMTAP	10	240	7
NMSTR	10	288	5
NMSI_	10	288	5	96	48	0
NMTAP	10	312	4
NMTAP	10	336	6
EXTAP	11	0	3
NMTAP	11	96	2
NMTAP	11	96	7
NMTAP	11	144	5
NMTAP	11	168	4
NMTAP	11	216	6
NMTAP	11	240	7
NMTAP	11	288	1
NMTAP	11	312	0
NMTAP	11	336	2
NMTAP	11	360	7
EXHLD	12	0	3	96
NMTAP	12	96	6
NMTAP	12	144	5
NMTAP	12	168	4
NMTAP	12	216	1
NMTAP	12	240	0
NMTAP	12	288	6
NMTAP	12	312	7
NMTAP	12	336	5
BRTAP	13	0	3
BRTAP	13	0	7
NMHLD	13	96	2	48
NMHLD	13	96	3	48
NMHLD	13	168	3	48
NMHLD	13	168	4	48
NMTAP	13	240	4
NMTAP	13	240	5
NMTAP	13	288	6
NMTAP	13	312	7
NMTAP	13	336	5
NMTAP	14	0	0
NMSTR	14	0	1
NMSUR	14	0	1	96	48	5
EXTAP	14	96	4
NMHLD	14	168	6	72
NMTAP	14	240	7
NMTAP	14	288	1
NMTAP	14	312	0
NMTAP	14	336	2
NMSTR	15	0	6
NMSUL	15	0	6	96	48	2
NMTAP	15	48	4
EXTAP	15	96	3
NMHLD	15	168	1	72
NMTAP	15	240	0
NMTAP	15	288	6
NMTAP	15	312	7
NMTAP	15	336	5
NMSTR	16	0	2
NMSUR	16	0	2	96	48	6
NMTAP	16	48	4
EXTAP	16	96	5
NMHLD	16	168	7	72
NMTAP	16	240	1
NMTAP	16	288	3
NMTAP	16	288	5
NMTAP	16	336	2
NMTAP	16	336	4
BRTAP	17	0	0
BRTAP	17	0	6
NMHLD	17	96	1	48
NMHLD	17	96	4	48
NMTAP	17	168	2
NMSTR	17	168	3
NMSV_	17	168	3	96	48	6
BRTAP	17	240	0
BRTAP	17	288	0
NMTAP	18	0	3
NMSTR	18	0	5
NMSI_	18	0	5	96	48	2
NMTAP	18	48	2
NMTAP	18	48	6
NMTAP	18	96	3
NMTAP	18	96	5
NMTAP	18	144	1
NMHLD	18	168	1	72
NMTAP	18	240	0
NMTAP	18	264	2
NMTAP	18	288	7
NMTAP	18	312	3
NMTAP	18	336	6
NMTAP	18	360	4
NMHLD	19	0	5	48
NMTAP	19	48	7
NMTAP	19	72	6
NMSTR	19	96	0
NMSI_	19	96	0	96	48	4
NMTAP	19	144	1
NMTAP	19	144	7
EXTAP	19	192	0
EXTAP	19	192	2
CNSI_	19	240	4	0	48	6
CNSI_	19	288	6	0	48	3
CNSI_	19	336	3	0	48	7
NMSTR	20	0	1
NMSI_	20	0	1	96	48	5
NMTAP	20	48	0
NMTAP	20	96	1
NMTAP	20	96	7
NMTAP	20	144	6
NMHLD	20	168	6	72
NMTAP	20	240	7
NMTAP	20	264	5
NMTAP	20	288	0
NMTAP	20	312	4
NMTAP	20	336	1
NMTAP	20	360	3
NMSTR	21	0	2
NMSV_	21	0	2	96	48	7
NMTAP	21	96	2
NMTAP	21	96	7
NMTAP	21	144	5
NMHLD	21	168	5	72
NMTAP	21	240	4
NMTAP	21	264	6
NMTAP	21	312	2
NMTAP	21	336	2
NMTAP	21	360	3
NMSTR	22	0	0
NMSCR	22	0	0	96	48	3
NMTAP	22	48	1
NMTAP	22	48	7
NMTAP	22	96	0
NMTAP	22	144	5
NMHLD	22	168	5	72
NMTAP	22	240	7
NMTAP	22	264	6
NMTAP	22	288	0
NMTAP	22	312	5
NMTAP	22	336	1
NMTAP	22	360	4
NMHLD	23	0	2	48
NMTAP	23	48	0
NMTAP	23	72	1
NMSTR	23	96	7
NMSI_	23	96	7	96	48	3
NMTAP	23	144	0
NMTAP	23	144	6
EXTAP	23	192	5
EXTAP	23	192	7
CNSI_	23	240	3	0	48	1
CNSI_	23	288	1	0	48	4
CNSI_	23	336	4	0	48	0
BRTAP	24	0	6
NMHLD	24	96	0	48
NMHLD	24	96	1	48
NMHLD	24	168	3	48
NMHLD	24	168	4	48
NMTAP	24	240	6
NMTAP	24	240	7
NMTAP	24	288	0
NMTAP	24	288	5
NMTAP	24	336	2
NMTAP	24	360	3
BRTAP	25	0	1
NMTAP	25	48	5
NMTAP	25	72	4
BRTAP	25	96	7
NMTAP	25	144	2
NMTAP	25	168	3
BRTAP	25	192	0
NMTAP	25	240	1
NMTAP	25	240	7
NMTAP	25	288	2
NMTAP	25	288	6
BRTAP	26	0	2
BRTAP	26	0	3
NMTAP	26	48	2
NMTAP	26	48	3
NMHLD	26	96	1	72
NMTAP	26	96	4
NMTAP	26	168	3
NMTAP	26	192	2
NMTAP	26	240	2
NMTAP	26	288	1
NMTAP	26	288	4
NMTAP	27	0	0
NMTAP	27	0	6
NMTAP	27	48	1
NMTAP	27	48	5
NMHLD	27	96	2	72
NMTAP	27	96	4
NMTAP	27	168	3
NMTAP	27	192	2
NMTAP	27	240	2
NMTAP	27	288	1
NMTAP	27	288	3
NMTAP	27	312	2
NMTAP	27	360	2
NMTAP	28	0	4
NMTAP	28	48	5
NMTAP	28	96	3
NMHLD	28	96	5	72
NMTAP	28	168	4
NMTAP	28	192	6
NMTAP	28	240	6
NMTAP	28	288	3
NMTAP	28	288	7
NMTAP	29	0	2
NMTAP	29	0	7
NMTAP	29	48	3
NMTAP	29	48	6
NMTAP	29	96	5
NMTAP	29	120	4
NMTAP	29	168	2
NMTAP	29	168	4
NMTAP	29	216	1
NMTAP	29	240	1
NMTAP	29	264	3
NMHLD	29	288	2	48
NMTAP	29	336	5
NMTAP	29	360	4
NMTAP	30	0	6
NMTAP	30	48	6
NMHLD	30	96	0	72
NMTTP	30	96	5	B	0	M1
NMTTP	30	96	5	E	0	M1
NMTAP	30	168	3
NMTAP	30	192	1
NMTAP	30	240	1
NMTAP	30	288	0
NMTAP	30	288	4
NMTAP	31	0	5
NMTAP	31	48	5
NMTTP	31	96	3	B	0	M1
NMTTP	31	96	3	E	0	M1
NMHLD	31	96	6	72
NMTAP	31	168	4
NMTAP	31	192	5
NMTAP	31	240	5
NMTAP	31	288	3
NMTAP	31	288	5
NMTAP	31	336	3
NMTAP	31	360	4
NMTAP	32	0	2
NMTAP	32	48	2
NMHLD	32	96	1	72
NMTTP	32	96	3	B	0	M1
NMTTP	32	96	4	E	0	M1
NMTAP	32	168	0
NMTAP	32	192	2
NMTAP	32	240	2
NMTAP	32	288	1
NMSTR	32	288	3
NMSCR	32	288	3	96	48	6
BRHLD	33	0	0	96
NMTAP	33	96	7
NMTAP	33	120	1
NMTAP	33	168	1
NMTAP	33	192	4
NMTAP	33	216	5
NMTAP	33	240	2
NMTAP	33	264	1
NMTAP	33	288	5
NMTAP	33	312	6
NMTAP	33	336	1
NMTAP	33	360	0
NMSTR	34	0	7
NMSI_	34	0	7	96	48	3
NMTAP	34	48	0
NMTAP	34	48	6
BRTAP	34	96	7
NMTAP	34	168	2
NMSTR	34	192	2
NMSCL	34	192	2	96	48	7
NMTAP	34	240	3
NMTAP	34	288	2
NMTAP	34	288	4
NMTAP	35	0	6
NMSTR	35	0	7
NMSI_	35	0	7	96	48	3
NMTAP	35	48	0
NMTAP	35	96	1
NMTAP	35	96	7
NMTAP	35	168	2
NMTAP	35	192	2
NMTAP	35	240	1
NMTAP	35	240	3
NMTAP	35	288	0
NMTAP	35	312	4
NMTAP	35	336	1
NMTAP	35	360	5
NMSTR	36	0	2
NMSI_	36	0	2	96	48	6
NMTAP	36	48	3
NMTAP	36	96	2
NMTAP	36	96	4
NMTAP	36	168	7
NMSTR	36	192	7
NMSCR	36	192	7	96	48	2
NMTAP	36	240	6
NMTAP	36	288	5
NMTAP	36	288	7
NMTAP	37	0	2
NMSTR	37	0	3
NMSI_	37	0	3	96	48	7
NMTAP	37	48	4
NMTAP	37	96	2
NMTAP	37	96	3
BRTAP	37	192	0
BRTAP	37	192	6
NMTAP	37	240	5
NMTAP	37	264	4
NMTAP	37	312	4
NMTAP	37	336	5
NMTAP	37	360	3
NMSTR	38	0	6
NMSI_	38	0	6	96	48	2
NMTAP	38	48	1
NMTAP	38	48	7
NMTAP	38	96	2
NMTAP	38	96	6
NMTAP	38	168	0
NMSTR	38	192	0
NMSI_	38	192	0	96	48	4
NMTAP	38	240	1
NMTAP	38	240	7
NMTAP	38	288	0
NMTAP	38	288	6
NMSTR	39	0	5
NMSCR	39	0	5	96	48	0
NMTAP	39	48	4
NMTAP	39	96	3
NMTAP	39	96	5
NMTAP	39	168	1
NMSTR	39	192	1
NMSI_	39	192	1	96	48	5
NMTAP	39	240	0
NMTAP	39	240	2
NMTAP	39	288	1
NMTAP	39	288	7
NMSTR	40	0	4
NMSI_	40	0	4	96	48	0
NMTAP	40	0	6
NMTAP	40	48	5
NMTAP	40	96	3
NMTAP	40	96	4
NMTAP	40	168	1
NMSTR	40	192	1
NMSI_	40	192	1	96	48	5
NMSTR	40	192	7
NMSI_	40	192	7	96	48	3
NMTAP	40	240	2
NMTAP	40	240	6
NMTAP	40	288	1
NMTAP	40	288	7
BRTAP	41	0	1
BRTAP	41	0	7
NMTAP	41	96	0
NMTAP	41	120	0
NMTAP	41	144	0
NMTAP	41	168	0
EXTAP	41	192	1
EXTAP	41	192	7
EXTAP	41	216	1
EXTAP	41	216	7
EXTAP	41	240	1
EXTAP	41	240	7
EXTAP	41	264	1
EXTAP	41	264	7
BXSTR	41	288	2
BRSV_	41	288	2	96	48	7
BXSTR	41	288	6
BRSV_	41	288	6	96	48	3
BRTAP	42	0	2
NMSTR	42	0	6
NMSI_	42	0	6	96	96	1
CNSI_	42	192	1	0	96	4
CNSCR	42	288	4	0	384	3
NMTAP	44	0	5
NMTAP	44	48	4
NMTAP	44	96	3
NMSTR	44	144	2
NMSCL	44	144	2	96	144	7
NMTAP	44	240	3
NMTAP	44	288	4
NMTAP	44	336	5
NMTAP	45	0	6
NMHLD	45	48	6	96
NMTAP	45	144	7
NMTAP	45	192	0
NMTAP	45	192	5
NMTAP	45	240	1
NMTAP	45	240	4
NMTAP	45	288	2
NMTAP	45	288	3
NMTAP	45	336	3
NMTAP	45	336	4
NMTAP	46	0	4
NMHLD	46	0	5	384
NMTAP	46	96	7
NMTAP	46	144	7
NMTAP	46	240	1
NMTAP	46	288	2
NMHLD	46	336	3	48
NMHLD	47	48	4	48
NMHLD	47	48	6	48
NMHLD	47	144	5	48
NMHLD	47	144	6	48
NMTAP	47	240	6
NMTAP	47	240	7
NMTAP	47	288	0
NMTAP	47	288	5
NMHLD	47	336	1	240
NMTAP	47	336	4
NMTTP	48	48	3	E	0	M1
NMTTP	48	96	2	E	0	M1
NMTTP	48	144	1	E	0	M1
EXTAP	48	192	7
EXSTR	48	240	7
NMSI_	48	240	7	96	96	2
NMTTP	48	336	2	B	0	M1
CNSI_	49	48	2	0	96	5
NMTTP	49	48	5	B	0	M1
NMTTP	49	144	4	E	0	M1
CNSI_	49	144	5	0	96	0
NMHLD	49	240	1	96
NMTAP	49	336	0
BRTAP	50	0	2
BRTAP	50	0	7
NMTAP	50	96	6
NMTAP	50	96	7
NMTAP	50	144	0
NMSTR	50	144	5
NMSCL	50	144	5	96	96	2
NMTTP	50	240	3	B	0	M1
CNSI_	50	336	2	0	192	6
NMTTP	50	336	5	B	0	M1
NMTTP	51	48	7	B	0	M1
NMTTP	51	144	1	B	0	M1
CNSCR	51	144	6	0	144	1
NMTAP	51	240	2
NMHLD	51	288	2	96
NMTHO	52	0	0	240	C	0	M1
NMTAP	52	96	2
NMTAP	52	144	1
NMTAP	52	192	0
NMSTR	52	240	7
NMSI_	52	240	7	96	24	1
NMSTR	52	336	7
NMSI_	52	336	7	96	24	5
CNSCR	52	360	1	0	48	2
NMTAP	53	48	7
CNSCL	53	72	5	0	48	4
NMTAP	53	96	0
NMHLD	53	144	1	192
NMTAP	53	240	2
NMTAP	53	288	0
NMHLD	53	336	7	384
NMTTP	54	96	2	E	0	M1
NMTTP	54	144	3	A	0	M1
NMTTP	54	192	0	E	0	M1
NMTTP	54	240	5	E	0	M1
NMHLD	54	336	5	96
NMHLD	55	48	3	96
NMHLD	55	144	1	96
NMHLD	55	240	7	96
NMTAP	55	336	2
NMTAP	56	0	3
NMSTR	56	48	4
NMSCL	56	48	4	96	144	6
NMTAP	56	96	5
NMTAP	56	144	6
NMTAP	56	288	4
NMTAP	56	336	5
EXTAP	57	0	6
EXTAP	57	0	7
NMTAP	57	48	0
NMHLD	57	48	5	96
NMSTR	57	192	0
NMSF_	57	192	0	96	48	4
NMTAP	57	240	1
NMTAP	57	240	7
NMTAP	58	0	2
NMTAP	58	48	2
NMTAP	58	96	2
NMTAP	58	96	3
NMTAP	58	144	3
NMTAP	58	144	4
NMTAP	58	192	5
NMTAP	58	240	5
NMTAP	58	288	4
NMTAP	58	288	5
NMTAP	58	336	3
NMTAP	58	336	4
NMTAP	59	0	2
NMTAP	59	48	2
NMTAP	59	96	1
NMTAP	59	96	3
NMTAP	59	144	2
NMTAP	59	144	4
NMTAP	59	192	5
NMTAP	59	240	5
NMTAP	59	288	4
NMTAP	59	288	6
NMTAP	59	336	3
NMTAP	59	336	5
NMTAP	60	0	2
NMTAP	60	48	2
NMTAP	60	96	0
NMTAP	60	96	1
NMTAP	60	144	2
NMTAP	60	144	7
NMTAP	60	192	6
NMTAP	60	240	6
NMTAP	60	288	6
NMTAP	60	288	7
NMTAP	60	336	0
NMTAP	60	336	5
NMTAP	61	0	2
NMTAP	61	48	2
NMTAP	61	96	0
NMTAP	61	96	1
NMTAP	61	144	0
NMTAP	61	144	7
NMTAP	61	192	6
NMTAP	61	240	6
NMTAP	61	288	1
NMTAP	61	288	7
NMTAP	61	336	1
NMTAP	61	336	7
NMTAP	62	0	0
NMTAP	62	24	0
NMTAP	62	48	1
NMTAP	62	72	1
NMTAP	62	96	2
NMTAP	62	120	2
NMTAP	62	144	3
NMTAP	62	168	3
NMTAP	62	192	4
NMTAP	62	216	4
NMTAP	62	240	5
NMTAP	62	264	5
NMTAP	62	288	6
NMTAP	62	312	6
NMTAP	62	336	7
NMTAP	62	360	7
NMTAP	63	0	1
NMTAP	63	24	0
NMTAP	63	48	2
NMTAP	63	72	7
NMTAP	63	96	3
NMTAP	63	120	6
NMTAP	63	144	4
NMTAP	63	168	5
NMTAP	63	192	2
NMTAP	63	216	3
NMTAP	63	240	1
NMTAP	63	264	4
NMTAP	63	288	0
NMTAP	63	312	5
NMTAP	63	336	7
NMTAP	63	360	6
NMTAP	64	0	0
EXTAP	64	48	1
EXHLD	64	48	7	48
NMTTP	64	56	2	E	0	M1
NMTTP	64	64	2	B	0	M1
NMTTP	64	72	3	B	0	M1
NMTTP	64	80	4	E	0	M1
EXHLD	64	144	0	64
EXTAP	64	144	6
NMTTP	64	152	6	E	0	M1
NMTTP	64	160	5	B	0	M1
NMTTP	64	168	4	B	0	M1
NMTTP	64	176	4	E	0	M1
NMTTP	64	216	1	E	0	M1
NMTTP	64	224	1	B	0	M1
NMTTP	64	232	2	B	0	M1
NMTTP	64	240	3	E	0	M1
NMTTP	64	288	6	A	0	M1
NMTTP	64	296	6	D	0	M1
NMTTP	64	304	5	A	0	M1
NMTTP	64	312	5	D	0	M1
NMTTP	64	320	4	A	0	M1
NMTTP	64	336	1	A	0	M1
NMTTP	64	344	2	D	0	M1
NMTTP	64	352	2	A	0	M1
NMTTP	64	360	3	D	0	M1
NMTTP	64	368	3	A	0	M1
BRTAP	65	0	7
NMTAP	65	96	3
NMSTR	65	96	7
NMSI_	65	96	7	96	48	3
NMTAP	65	120	2
NMTAP	65	120	6
NMTAP	65	144	1
NMTAP	65	144	5
NMTAP	65	168	0
NMTAP	65	168	4
NMTAP	65	192	3
NMTAP	65	192	7
CNSI_	65	240	3	0	48	5
NMTAP	65	240	6
BRTAP	65	288	0
CNSI_	65	288	5	0	48	1
BRSTR	66	0	0
NMSI_	66	0	0	96	48	2
BRTAP	66	0	6
NMSTR	66	96	0
NMSI_	66	96	0	96	48	4
NMTAP	66	96	4
NMTAP	66	144	5
NMTAP	66	192	0
NMSTR	66	192	6
NMSI_	66	192	6	96	48	2
NMTAP	66	240	7
NMTAP	66	288	1
NMTAP	66	288	6
NMTAP	66	336	0
CNSI_	66	336	2	0	48	5
NMSTR	67	0	7
NMSV_	67	0	7	96	48	2
NMSTR	67	48	6
NMSCL	67	48	6	96	48	3
NMTAP	67	96	7
NMTAP	67	144	6
NMSTR	67	192	0
BRSI_	67	192	0	96	48	3
BRSI_	67	192	0	96	48	5
NMTAP	67	240	1
NMTAP	67	288	0
NMSTR	68	0	6
NMSCL	68	0	6	96	48	4
NMTAP	68	48	7
NMTAP	68	96	6
NMTAP	68	144	2
CNSI_	68	144	4	0	48	0
NMSTR	68	192	1
NMSCL	68	192	1	96	48	7
NMTAP	68	240	3
NMTAP	68	288	1
NMTAP	68	336	5
CNSI_	68	336	7	0	48	3
NMTAP	69	0	6
NMTAP	69	48	6
NMTAP	69	96	1
NMTAP	69	96	7
NMTAP	69	144	2
NMTAP	69	144	6
NMSTR	69	192	3
NMSV_	69	192	3	96	48	6
BRSV_	69	192	3	96	48	0
NMTAP	69	240	1
NMTAP	69	240	5
EXTAP	69	288	3
BRTAP	70	0	1
BRSTR	70	0	5
NMSI_	70	0	5	96	48	3
NMSTR	70	96	2
NMSI_	70	96	2	96	48	6
NMTAP	70	144	2
NMSTR	70	192	7
NMSI_	70	192	7	96	48	1
NMTAP	70	240	7
NMTAP	70	288	1
NMTAP	70	336	2
NMSTR	71	0	3
NMSI_	71	0	3	96	48	7
NMTAP	71	0	5
NMTAP	71	48	4
NMTAP	71	96	1
NMSTR	71	96	3
NMSCL	71	96	3	96	24	2
NMTAP	71	144	2
NMSTR	71	192	3
BRSCR	71	192	3	96	24	4
NMTAP	71	192	5
CNSI_	71	216	2	0	24	0
NMTAP	71	240	4
NMTAP	71	288	1
NMTAP	71	288	3
CNSI_	71	312	4	0	24	6
NMTAP	71	336	2
BRSTR	72	0	3
NMSI_	72	0	3	96	48	7
BRTAP	72	0	7
NMSTR	72	96	5
NMSI_	72	96	5	96	48	2
NMTAP	72	144	4
EXTAP	72	192	0
NMTAP	72	240	0
NMTAP	72	288	1
NMTAP	72	288	3
NMTAP	72	336	5
NMTAP	73	0	1
NMTAP	73	0	3
NMTAP	73	48	6
NMTAP	73	96	2
NMSTR	73	96	4
NMSCR	73	96	4	96	48	7
NMTAP	73	144	7
NMSTR	73	192	0
NMSF_	73	192	0	96	48	4
NMTAP	73	240	1
EXTAP	73	288	0
BRTAP	74	0	2
BRTAP	74	0	6
NMSTR	74	96	1
NMSI_	74	96	1	96	48	5
NMTAP	74	144	0
NMTAP	74	192	1
CNSI_	74	240	5	0	48	3
NMTAP	74	240	7
CNSI_	74	288	3	0	48	7
NMSTR	74	288	6
NMSI_	74	288	6	96	48	2
NMTAP	74	336	5
NMTAP	75	0	6
CNSI_	75	48	2	0	48	0
NMTAP	75	48	4
CNSI_	75	96	0	0	48	4
NMTAP	75	96	3
NMTAP	75	144	2
NMSTR	75	192	1
BRSCR	75	192	1	96	48	3
NMSTR	75	240	5
BRSCR	75	240	5	96	48	7
NMSTR	75	288	1
NMSI_	75	288	1	96	48	5
NMTAP	75	336	5
BRSTR	76	0	1
NMSLR	76	0	1	96	96	7
NMTAP	76	96	1
EXSTR	76	96	5
NMSI_	76	96	5	96	48	2
NMTAP	76	144	6
NMTAP	76	192	5
NMSTR	76	240	0
BRSI_	76	240	0	96	48	6
NMTAP	76	288	3
NMSTR	76	336	0
BRSI_	76	336	0	96	48	2
NMTAP	76	336	4
NMTAP	77	0	5
NMTAP	77	48	0
NMTAP	77	48	4
NMTAP	77	96	3
NMTAP	77	144	0
NMTAP	77	144	4
NMTAP	77	192	5
NMTAP	77	240	5
NMTAP	77	240	6
NMSTR	77	288	0
BRSI_	77	288	0	96	12	6
NMSTR	77	288	7
NMSCL	77	288	7	96	48	2
NMTAP	77	336	1
NMTAP	77	336	2
BRTAP	78	0	0
BRTAP	78	0	7
CNSI_	78	12	6	0	12	4
CNSI_	78	24	4	0	24	2
NMTAP	78	96	0
NMTAP	78	144	1
NMTAP	78	144	7
NMTAP	78	192	2
NMTAP	78	192	6
NMSTR	78	240	3
NMSLL	78	240	3	96	72	7
NMTAP	78	240	5
NMTAP	78	288	2
NMTAP	78	288	4
NMTAP	78	336	1
NMTAP	78	336	3
NMSTR	79	48	4
NMSLR	79	48	4	96	72	0
NMTAP	79	96	3
NMTAP	79	96	5
NMTAP	79	144	4
NMTAP	79	144	6
NMTAP	79	240	3
NMTAP	79	288	4
NMTAP	79	336	5
NMTAP	80	0	4
NMTAP	80	0	6
NMTAP	80	48	7
NMTAP	80	96	1
NMTAP	80	96	3
NMTAP	80	144	0
NMTAP	80	192	5
NMTAP	80	216	5
NMTAP	80	240	4
NMTAP	80	264	6
NMTAP	80	288	2
NMTAP	80	312	2
NMTAP	80	336	3
NMTAP	80	360	1
NMTAP	81	0	5
NMTAP	81	24	4
NMTAP	81	48	6
NMTAP	81	72	3
NMTAP	81	96	7
NMTAP	81	120	0
NMTAP	81	144	6
NMTAP	81	168	1
NMTAP	81	192	3
NMTAP	81	216	2
NMTAP	81	240	6
NMTAP	81	264	4
NMSTR	81	288	3
NMSI_	81	288	3	96	48	7
NMSTR	81	288	7
NMSI_	81	288	7	96	48	3
NMTAP	81	312	2
NMTAP	81	312	6
NMTAP	81	336	1
NMTAP	81	336	5
NMTAP	81	360	0
NMTAP	81	360	4
BRTAP	82	0	3
BRTAP	82	0	7

T_REC_TAP	548
T_REC_BRK	33
T_REC_XTP	24
T_REC_BXX	0
T_REC_HLD	48
T_REC_XHO	5
T_REC_BHO	1
T_REC_BXH	0
T_REC_STR	70
T_REC_BST	4
T_REC_XST	2
T_REC_XBS	2
T_REC_TTP	42
T_REC_THO	1
T_REC_SLD	67
T_REC_BSL	13
T_REC_ALL	860
T_NUM_TAP	686
T_NUM_BRK	53
T_NUM_HLD	54
T_NUM_SLD	67
T_NUM_ALL	860
T_JUDGE_TAP	725
T_JUDGE_HLD	121
T_JUDGE_SLD	80
T_JUDGE_ALL	926
TTM_EACHPAIRS	159
TTM_SCR_TAP	343000
TTM_SCR_BRK	137800
TTM_SCR_HLD	54000
TTM_SCR_SLD	100500
TTM_SCR_ALL	635300
TTM_SCR_S	611100
TTM_SCR_SS	630000
TTM_RAT_ACV	10084

