VERSION	0.00.00	1.04.00
FES_MODE	0
BPM_DEF	156.000	156.000	156.000	156.000
MET_DEF	4	4
RESOLUTION	384
CLK_DEF	384
COMPATIBLE_CODE	MA2

BPM	0	0	156.000
MET	0	0	4	4

NMHLD	2	0	2	672
NMTTP	2	96	3	E	0	M1
NMTTP	2	288	2	E	0	M1
NMTTP	3	96	3	E	0	M1
NMTTP	3	288	4	E	0	M1
NMHLD	4	0	5	672
NMTTP	4	96	5	E	0	M1
NMTTP	4	288	6	E	0	M1
NMTTP	5	96	5	E	0	M1
NMTTP	5	288	4	E	0	M1
NMHLD	6	0	1	480
NMTAP	6	96	3
NMTAP	6	192	3
NMTAP	6	288	2
NMTAP	7	0	2
NMTAP	7	96	0
NMTAP	7	192	1
NMTAP	7	192	7
NMTAP	7	288	0
NMTAP	7	288	6
NMTAP	8	0	7
NMTAP	8	48	7
NMTAP	8	96	1
NMTAP	8	144	1
NMTAP	8	192	6
NMTAP	8	240	6
NMTAP	8	288	0
NMTAP	8	336	0
NMSTR	9	0	7
NMSUL	9	0	7	96	96	3
NMSUR	9	0	7	96	96	3
NMTAP	9	288	0
NMTAP	9	288	6
NMTAP	10	0	1
NMTAP	10	0	3
NMTAP	10	96	0
NMTAP	10	192	4
NMTAP	10	192	6
NMTAP	10	288	7
NMTAP	11	0	1
NMTAP	11	0	3
NMTAP	11	96	0
NMTAP	11	96	7
NMTAP	11	192	5
NMTAP	11	240	5
NMTAP	11	288	4
NMTAP	11	288	6
NMTAP	12	0	0
NMTAP	12	96	2
NMTAP	12	96	4
NMTAP	12	192	7
NMTAP	12	288	3
NMTAP	12	288	5
NMTAP	13	0	0
NMTAP	13	96	2
NMTAP	13	96	4
NMTAP	13	192	7
NMTAP	13	240	7
NMTAP	13	288	0
NMTAP	13	288	6
NMTAP	14	0	5
NMTAP	14	0	7
NMTAP	14	96	4
NMTAP	14	192	0
NMTAP	14	192	2
NMTAP	14	288	3
NMTAP	15	0	5
NMTAP	15	0	7
NMTAP	15	96	4
NMTAP	15	192	1
NMTAP	15	240	0
NMTAP	15	288	2
NMTAP	15	288	7
NMTAP	16	0	0
NMTAP	16	0	1
NMTAP	16	96	4
NMTAP	16	96	5
NMTAP	16	192	6
NMTAP	16	192	7
NMTAP	16	288	2
NMTAP	16	288	3
NMSTR	17	0	0
NMSCL	17	0	0	96	96	5
NMSTR	17	0	1
NMSCR	17	0	1	96	96	4
NMTAP	17	288	3
NMTAP	17	288	6
NMTAP	18	0	2
NMTAP	18	48	2
NMTAP	18	96	7
NMTAP	18	144	7
NMTAP	18	192	0
NMTAP	18	240	0
NMTAP	18	288	5
NMSTR	19	0	6
NMSI_	19	0	6	96	48	3
NMSTR	19	0	7
NMSI_	19	0	7	96	48	3
NMSTR	19	192	0
NMSI_	19	192	0	96	48	4
NMSTR	19	192	1
NMSI_	19	192	1	96	48	4
NMTAP	20	0	5
NMTAP	20	48	5
NMTAP	20	96	0
NMTAP	20	144	0
NMTAP	20	192	3
NMTAP	20	240	3
NMTAP	20	288	1
NMSTR	21	0	2
NMSI_	21	0	2	96	48	5
NMSTR	21	192	6
NMSI_	21	192	6	96	48	1
NMTAP	22	0	2
NMTAP	22	48	2
NMTAP	22	96	0
NMTAP	22	144	0
NMTAP	22	192	4
NMTAP	22	240	4
NMTAP	22	288	6
NMSTR	23	0	4
NMSI_	23	0	4	96	48	0
NMSTR	23	0	5
NMSI_	23	0	5	96	48	7
NMSTR	23	192	2
NMSI_	23	192	2	96	48	0
NMSTR	23	192	3
NMSI_	23	192	3	96	48	7
NMTAP	24	0	1
NMTAP	24	0	5
NMHLD	24	96	2	72
NMHLD	24	168	3	72
NMTAP	24	240	4
NMTAP	24	288	4
NMTAP	24	288	5
NMTAP	25	0	3
NMTAP	25	0	6
NMSTR	25	96	2
NMSCL	25	96	2	96	96	7
NMSTR	25	96	7
NMSCL	25	96	7	96	96	4
NMTAP	26	0	5
NMTAP	26	48	5
NMHLD	26	96	4	72
NMHLD	26	96	6	72
NMTAP	26	240	5
NMTAP	26	288	4
NMTAP	26	288	5
NMTAP	27	0	5
NMTAP	27	48	4
NMHLD	27	96	3	72
NMHLD	27	96	6	72
NMTAP	27	240	5
NMTAP	27	288	4
NMTAP	27	288	6
NMTAP	28	0	2
NMTAP	28	48	2
NMHLD	28	96	1	72
NMHLD	28	96	3	72
NMTAP	28	240	2
NMTAP	28	288	2
NMTAP	28	288	3
NMTAP	29	0	2
NMTAP	29	48	3
NMTAP	29	96	1
NMTAP	29	96	4
NMTAP	29	168	2
NMTAP	29	168	3
EXTAP	29	240	1
EXTAP	29	240	4
BXTAP	29	288	1
BXTAP	29	288	4
NMTAP	30	0	5
NMTAP	30	48	4
NMHLD	30	96	3	72
NMHLD	30	96	6	72
NMTAP	30	240	5
NMTAP	30	288	4
NMTAP	30	288	6
NMTAP	31	0	6
NMTAP	31	48	6
NMHLD	31	96	5	72
NMHLD	31	96	7	72
NMTAP	31	240	6
NMTAP	31	288	6
NMTAP	31	288	7
NMTAP	32	0	1
NMTAP	32	48	1
NMHLD	32	96	0	72
NMHLD	32	96	2	72
NMTAP	32	240	1
NMTAP	32	288	0
NMTAP	32	288	1
NMHLD	33	0	2	96
NMHLD	33	0	3	96
NMTAP	33	192	3
NMTAP	33	192	4
NMTAP	33	240	3
NMTAP	33	240	4
BRTAP	33	288	2
BRTAP	33	288	5
NMTAP	34	0	6
NMTAP	34	48	6
NMHLD	34	96	5	72
NMHLD	34	96	7	72
NMTAP	34	240	4
NMTAP	34	288	2
NMTAP	34	288	3
NMTAP	35	0	1
NMTAP	35	48	1
NMHLD	35	96	0	72
NMHLD	35	96	2	72
EXTAP	35	240	3
NMTAP	35	288	4
NMTAP	35	288	5
NMTAP	36	0	6
NMTAP	36	48	7
NMHLD	36	96	0	72
NMHLD	36	96	5	72
NMTAP	36	240	2
NMTAP	36	240	4
NMTAP	36	288	2
NMTAP	36	288	4
NMTAP	37	0	1
NMTAP	37	48	1
NMTAP	37	96	0
NMTAP	37	96	2
NMTAP	37	168	3
NMTAP	37	168	4
EXTAP	37	240	4
EXTAP	37	240	6
BRTAP	37	288	4
BRTAP	37	288	6
NMTAP	38	0	5
NMTAP	38	48	5
NMHLD	38	96	4	72
NMHLD	38	96	6	72
NMTAP	38	240	0
NMTAP	38	240	1
NMTAP	38	288	0
NMTAP	38	288	1
NMTAP	39	0	2
NMTAP	39	48	2
NMHLD	39	96	1	72
NMHLD	39	96	3	72
NMTAP	39	240	6
NMTAP	39	240	7
NMTAP	39	288	6
NMTAP	39	288	7
NMTAP	40	0	5
NMTAP	40	48	4
NMHLD	40	96	3	72
NMHLD	40	96	6	72
NMTAP	40	240	1
NMTAP	40	240	4
NMTAP	40	288	1
NMTAP	40	288	4
NMTAP	41	0	2
NMTAP	41	0	3
NMTAP	41	96	5
NMTAP	41	144	5
NMTAP	41	192	4
NMTAP	41	240	6
BRTAP	41	288	3
BRTAP	41	288	7
NMHLD	42	0	0	576
NMSTR	42	0	1
NMSXR	42	0	1	96	480	4
NMHLD	44	0	4	576
NMSTR	44	0	6
NMSXR	44	0	6	96	480	3
NMHLD	46	0	1	576
NMSTR	46	0	3
NMSXL	46	0	3	96	480	0
NMSTR	48	0	0
NMSXL	48	0	0	96	480	3
NMHLD	48	0	2	576
NMHLD	50	0	1	384
NMTTP	50	288	2	B	0	M1
NMHLD	51	0	3	384
NMTTP	51	288	4	E	0	M1
NMHLD	52	0	4	384
NMTTP	52	288	5	B	0	M1
NMHLD	53	0	6	288
NMTTP	53	288	0	C	0	M1
NMTAP	54	0	6
NMHLD	54	96	6	288
NMTAP	54	288	5
NMTAP	55	0	4
NMHLD	55	96	4	288
NMTAP	55	288	3
NMTAP	56	0	3
NMHLD	56	96	3	288
NMTAP	56	288	2
NMTAP	57	0	1
NMTAP	57	96	1
NMTAP	57	96	3
NMTAP	57	192	3
NMTAP	57	192	4
NMTTP	57	288	0	B	0	M1
NMTTP	57	288	0	E	1	M1
NMTTP	57	288	1	E	0	M1
NMTTP	57	288	7	B	0	M1
NMTTP	57	288	7	E	0	M1
NMTAP	58	0	2
NMTAP	58	48	2
NMTAP	58	96	4
NMTAP	58	144	4
NMTAP	58	192	3
NMTAP	58	240	3
NMTAP	58	288	5
NMTAP	59	0	6
NMTAP	59	48	6
NMTAP	59	96	3
NMTAP	59	144	3
NMTAP	59	192	4
NMTAP	59	240	4
NMTAP	59	288	1
NMTAP	60	0	1
NMTAP	60	48	1
NMTAP	60	96	3
NMTAP	60	144	3
NMTAP	60	192	4
NMTAP	60	240	4
NMTAP	60	288	6
NMTAP	61	0	6
NMTAP	61	48	6
NMTAP	61	96	4
NMTAP	61	144	4
NMTAP	61	192	3
NMTAP	61	240	3
NMTAP	61	288	1
NMTAP	62	0	0
NMTAP	62	48	0
NMTAP	62	96	1
NMTAP	62	144	1
NMTAP	62	192	2
NMTAP	62	240	2
NMTAP	62	288	3
NMTAP	62	336	3
NMTAP	63	0	4
NMTAP	63	48	4
NMTAP	63	96	5
NMTAP	63	144	5
NMTAP	63	192	6
NMTAP	63	240	6
NMTAP	63	288	7
NMTAP	64	0	0
NMTAP	64	0	1
NMTAP	64	48	0
NMTAP	64	48	1
NMTAP	64	96	2
NMTAP	64	96	7
NMTAP	64	192	6
NMTAP	64	192	7
NMTAP	64	240	6
NMTAP	64	240	7
NMTAP	64	288	0
NMSTR	64	288	5
NMSI_	64	288	5	96	48	1
NMTAP	65	96	0
NMTAP	65	144	0
NMTAP	65	192	0
NMTAP	65	192	7
EXTAP	65	288	1
EXTAP	65	288	5
BRSTR	66	0	2
NMSI_	66	0	2	96	48	7
BRSTR	66	0	3
NMSI_	66	0	3	96	48	7
NMSTR	66	192	4
NMSI_	66	192	4	96	48	0
NMSTR	66	192	5
NMSI_	66	192	5	96	48	0
NMSTR	67	0	2
NMSI_	67	0	2	96	48	7
NMSTR	67	0	3
NMSI_	67	0	3	96	48	7
NMTAP	67	192	4
NMTAP	67	192	5
NMTAP	67	288	4
NMTAP	67	288	5
NMTAP	68	0	6
NMTAP	68	48	7
NMTAP	68	96	0
NMHLD	68	144	1	240
NMTAP	68	240	2
NMTAP	68	288	3
NMTAP	68	336	4
NMTAP	69	0	5
NMHLD	69	48	6	240
NMTAP	69	144	7
NMTAP	69	192	0
NMTAP	69	240	1
NMTAP	69	288	2
NMTAP	70	0	0
NMTAP	70	0	1
NMTAP	70	96	2
NMTAP	70	96	3
NMTAP	70	144	2
NMTAP	70	144	3
NMTAP	70	240	5
NMTAP	70	288	5
NMSTR	70	336	4
NMSI_	70	336	4	96	48	1
NMTAP	70	336	6
NMSTR	71	48	6
NMSI_	71	48	6	96	48	3
NMTAP	71	144	0
EXTAP	71	240	1
EXTAP	71	240	3
EXTAP	71	288	1
EXTAP	71	288	3
BRHLD	71	336	0	48
BRHLD	71	336	4	48
NMTAP	72	96	1
NMTAP	72	144	1
NMTAP	72	192	3
NMHLD	72	240	2	96
NMHLD	72	336	0	96
NMHLD	73	48	7	96
NMTAP	73	144	5
EXTAP	73	240	4
EXTAP	73	240	5
EXTAP	73	288	3
EXTAP	73	288	6
BRSTR	74	0	4
NMSI_	74	0	4	96	48	0
BRSTR	74	0	5
NMSI_	74	0	5	96	48	0
NMSTR	74	192	2
NMSI_	74	192	2	96	48	7
NMSTR	74	192	3
NMSI_	74	192	3	96	48	7
NMSTR	75	0	4
NMSI_	75	0	4	96	48	0
NMSTR	75	0	5
NMSI_	75	0	5	96	48	0
NMTAP	75	192	2
NMTAP	75	192	3
NMTAP	75	288	2
NMTAP	75	288	3
NMTAP	76	0	1
NMTAP	76	0	5
NMTAP	76	96	1
NMTAP	76	144	0
NMTAP	76	192	7
NMHLD	76	240	6	96
NMTAP	76	336	4
NMTAP	77	48	6
NMTAP	77	48	7
NMTAP	77	96	0
NMTAP	77	96	5
EXTAP	77	144	1
EXTAP	77	144	4
NMTAP	77	240	0
NMTAP	77	240	1
NMTAP	77	288	2
NMTAP	77	288	7
BXHLD	77	336	3	48
BXHLD	77	336	6	48
NMTAP	78	96	5
NMTAP	78	144	4
NMTAP	78	192	3
NMTAP	78	192	6
NMTAP	78	240	3
NMTAP	78	240	6
NMHLD	78	336	4	48
NMHLD	78	336	5	48
NMHLD	79	48	6	48
NMHLD	79	48	7	48
NMHLD	79	144	0	48
NMHLD	79	144	1	48
NMHLD	79	240	2	48
NMHLD	79	240	3	48
EXTAP	79	336	4
EXTAP	79	336	5
NMTAP	80	0	3
NMTAP	80	0	6
NMTAP	80	48	3
NMTAP	80	48	6
NMTAP	80	96	2
NMTAP	80	96	7
NMTAP	80	144	2
NMTAP	80	144	7
NMTAP	80	192	1
NMTAP	80	216	0
NMTAP	80	240	1
NMTAP	80	264	0
NMTAP	80	288	1
NMTAP	80	312	0
NMTAP	80	336	1
NMTAP	80	360	0
NMSTR	81	0	1
NMSI_	81	0	1	96	48	5
NMSTR	81	96	7
NMSI_	81	96	7	96	48	3
NMSTR	81	192	0
NMSI_	81	192	0	96	48	4
NMSTR	81	288	6
BRSCR	81	288	6	96	48	1
NMTTP	82	0	0	C	1	M1

T_REC_TAP	320
T_REC_BRK	6
T_REC_XTP	19
T_REC_BXX	2
T_REC_HLD	56
T_REC_XHO	0
T_REC_BHO	2
T_REC_BXH	2
T_REC_STR	34
T_REC_BST	4
T_REC_XST	0
T_REC_XBS	0
T_REC_TTP	18
T_REC_THO	0
T_REC_SLD	38
T_REC_BSL	1
T_REC_ALL	502
T_NUM_TAP	391
T_NUM_BRK	17
T_NUM_HLD	56
T_NUM_SLD	38
T_NUM_ALL	502
T_JUDGE_TAP	403
T_JUDGE_HLD	220
T_JUDGE_SLD	39
T_JUDGE_ALL	662
TTM_EACHPAIRS	123
TTM_SCR_TAP	195500
TTM_SCR_BRK	44200
TTM_SCR_HLD	56000
TTM_SCR_SLD	57000
TTM_SCR_ALL	352700
TTM_SCR_S	340500
TTM_SCR_SS	351000
TTM_RAT_ACV	10048

