VERSION	0.00.00	1.03.00
FES_MODE	0
BPM_DEF	256.000	256.000	256.000	256.000
MET_DEF	4	4
RESOLUTION	384
CLK_DEF	384
COMPATIBLE_CODE	MA2

BPM	0	0	256.000
MET	0	0	4	4

HLD	2	0	2	144
TAP	2	144	3
TAP	2	240	3
HLD	3	0	5	144
TAP	3	144	4
TAP	3	240	4
HLD	4	0	2	144
TAP	4	144	3
TAP	4	240	3
HLD	5	0	4	192
TTP	5	192	0	C	0	M1
HLD	6	0	6	144
TAP	6	144	4
TAP	6	240	5
HLD	7	0	1	144
TAP	7	144	3
TAP	7	240	2
HLD	8	0	6	144
TAP	8	144	4
TAP	8	240	5
HLD	9	0	3	96
TAP	9	96	4
BRK	9	192	2
BRK	9	192	5
STR	10	0	1
SXR	10	0	1	96	336	4
TAP	10	144	4
TAP	10	240	5
TAP	10	336	6
TAP	11	0	6
HLD	11	144	2	240
TAP	11	240	4
STR	12	0	6
SXL	12	0	6	96	336	3
TAP	12	144	3
TAP	12	240	2
TAP	12	336	1
HLD	13	0	1	144
HLD	13	144	5	144
TAP	13	288	1
STR	14	0	2
SXL	14	0	2	96	336	5
TAP	14	0	6
TAP	14	144	5
TAP	14	240	6
TAP	14	336	7
TAP	15	0	7
HLD	15	144	0	144
TAP	15	288	7
TAP	16	0	0
TAP	16	0	7
TAP	16	144	2
TAP	16	144	5
TAP	16	288	3
HLD	16	288	4	96
TAP	17	0	5
TAP	17	48	5
TAP	17	144	2
TAP	17	144	3
TAP	17	240	3
TAP	17	240	4
BRK	17	288	3
BRK	17	288	4
TAP	18	0	2
TAP	18	96	1
TAP	18	96	3
TAP	18	192	2
TAP	18	240	2
TAP	18	288	3
TAP	18	336	1
TAP	19	48	2
TAP	19	96	3
TAP	19	192	1
TAP	19	240	1
TAP	19	288	3
TAP	20	0	5
TAP	20	96	4
TAP	20	96	6
TAP	20	192	5
TAP	20	240	5
TAP	20	288	4
TAP	20	336	6
TAP	21	48	5
TAP	21	96	4
TAP	21	192	6
TAP	21	240	6
TAP	21	288	4
TAP	22	0	2
TAP	22	96	1
TAP	22	96	3
TAP	22	192	5
TAP	22	240	5
TAP	22	288	4
TAP	22	336	6
TAP	23	48	3
TAP	23	96	4
TAP	23	192	0
TAP	23	240	0
HLD	23	288	7	96
TAP	24	0	0
TAP	24	48	0
TAP	24	96	6
TAP	24	144	6
TAP	24	192	1
TAP	24	240	1
TAP	24	288	5
TAP	24	336	5
TAP	25	0	2
TAP	25	48	2
TAP	25	96	4
TAP	25	144	4
TAP	25	192	3
TAP	25	240	3
TTP	25	288	0	C	0	M1
STR	26	0	1
SCR	26	0	1	96	48	4
STR	26	144	6
SCR	26	144	6	96	48	1
STR	26	288	3
SCR	26	288	3	96	48	6
STR	27	48	0
SCR	27	48	0	96	48	3
BRK	27	192	7
HLD	28	0	5	144
TAP	28	144	4
TAP	28	192	5
TAP	28	288	3
TAP	28	336	2
TAP	28	336	4
TAP	29	48	3
TAP	29	48	5
TAP	29	144	4
TAP	29	144	6
TAP	29	240	7
STR	29	288	7
SCL	29	288	7	96	48	4
HLD	30	0	2	144
TAP	30	144	3
TAP	30	192	2
TAP	30	288	4
TAP	30	336	3
TAP	30	336	5
TAP	31	48	2
TAP	31	48	4
TAP	31	144	1
TAP	31	144	3
TAP	31	240	0
STR	31	288	0
SCR	31	288	0	96	48	3
HLD	32	0	5	144
TAP	32	144	4
TAP	32	192	5
TAP	32	288	3
TAP	32	336	2
TAP	32	336	4
TAP	33	48	3
TAP	33	48	5
HLD	33	144	4	144
TAP	33	144	6
STR	33	288	3
SI_	33	288	3	96	96	7
HLD	34	0	2	192
HLD	34	192	6	144
HLD	34	336	0	144
TTP	35	96	7	E	0	M1
TTP	35	192	0	C	0	M1
TTP	35	288	3	E	0	M1
TAP	36	0	3
TAP	36	0	4
TAP	36	144	2
TAP	36	192	1
TAP	36	192	3
TAP	36	288	5
TAP	36	336	4
TAP	36	336	6
TAP	37	48	3
TAP	37	48	5
TAP	37	144	2
TAP	37	144	4
TAP	37	240	1
STR	37	288	1
SCR	37	288	1	96	48	4
HLD	38	0	5	144
TAP	38	144	4
TAP	38	192	5
TAP	38	288	2
TAP	38	336	1
TAP	38	336	3
TAP	39	48	2
TAP	39	48	4
TAP	39	144	3
TAP	39	144	5
TAP	39	240	6
STR	39	288	6
SCL	39	288	6	96	48	3
HLD	40	0	2	144
TAP	40	144	3
TAP	40	192	2
TAP	40	288	5
TAP	40	336	4
TAP	40	336	6
TAP	41	48	1
TAP	41	48	3
HLD	41	144	4	144
TAP	41	288	3
STR	42	0	2
SI_	42	0	2	96	48	0
TAP	42	0	4
TAP	42	192	3
STR	42	192	5
SI_	42	192	5	96	48	7
STR	43	0	2
SI_	43	0	2	96	48	7
TTP	43	0	4	B	0	M1
TTP	43	192	3	B	0	M1
STR	43	192	5
SI_	43	192	5	96	48	0
TTP	44	0	0	C	1	M1
TAP	45	0	7
TAP	45	144	6
TAP	45	288	5
HLD	46	0	5	288
TAP	46	288	1
TAP	47	0	1
TAP	47	0	5
TAP	47	144	2
TAP	47	144	6
TAP	47	288	3
TAP	47	288	7
HLD	48	0	3	288
TAP	48	0	7
TAP	48	144	6
TAP	48	288	5
TAP	49	0	0
HLD	49	0	4	288
TAP	49	144	1
TAP	49	288	2
HLD	50	0	3	288
TAP	50	0	7
TAP	50	144	6
TAP	50	288	5
TAP	51	0	0
HLD	51	0	4	192
TAP	51	192	3
TAP	51	240	4
TAP	51	288	3
TAP	51	336	4
TAP	52	0	2
TAP	52	0	3
TAP	52	96	3
TAP	52	144	4
TAP	52	240	4
TAP	52	288	5
TAP	53	0	4
TAP	53	0	5
TAP	53	96	4
TAP	53	144	3
TAP	53	240	3
TAP	53	288	2
TAP	54	0	1
TAP	54	0	4
TAP	54	96	2
TAP	54	144	3
TAP	54	240	3
TAP	54	288	4
TAP	55	0	3
TAP	55	0	6
TAP	55	96	5
TAP	55	144	4
TAP	55	240	4
TAP	55	288	3
TAP	56	0	1
TAP	56	0	4
TAP	56	96	3
TAP	56	144	3
TAP	56	144	4
TAP	56	240	5
TAP	56	288	3
TAP	56	288	5
TAP	57	0	1
TAP	57	48	1
TAP	57	48	4
TAP	57	144	7
TAP	57	192	3
TAP	57	192	7
TAP	57	216	4
TAP	57	240	5
TAP	57	264	6
TAP	57	288	7
TAP	57	312	0
TAP	57	336	1
TAP	57	360	2
XHO	58	0	3	96
XHO	58	0	4	96
XHO	58	144	2	96
XHO	58	144	5	96
XHO	58	288	1	96
XHO	58	288	6	96
XHO	59	48	0	96
XHO	59	48	7	96
BRK	59	192	2
BRK	59	192	5
STR	60	0	0
SI_	60	0	0	96	48	3
TAP	60	48	0
STR	60	144	5
SI_	60	144	5	96	48	0
TAP	60	192	5
STR	60	288	2
SI_	60	288	2	96	48	5
TAP	60	336	2
HLD	61	48	7	96
TAP	61	144	4
STR	61	192	4
SI_	61	192	4	96	48	0
TAP	61	288	6
STR	62	0	7
SI_	62	0	7	96	48	4
TAP	62	48	7
STR	62	144	2
SI_	62	144	2	96	48	7
TAP	62	192	2
STR	62	288	5
SI_	62	288	5	96	48	2
TAP	62	336	5
HLD	63	48	0	96
TAP	63	144	7
TAP	63	192	7
STR	63	288	0
SCR	63	288	0	96	96	3
TAP	63	288	6
TAP	64	0	7
TAP	64	96	6
STR	64	192	3
SXR	64	192	3	96	336	0
TAP	64	192	5
TAP	64	288	4
TAP	65	0	5
TAP	65	96	6
TAP	65	192	7
TAP	65	288	6
TAP	66	0	0
TAP	66	0	5
TAP	66	96	1
TAP	66	96	4
STR	66	192	2
SI_	66	192	2	96	48	7
TAP	66	288	3
STR	67	0	5
SI_	67	0	5	96	48	0
TAP	67	96	4
STR	67	192	2
SI_	67	192	2	96	48	7
TAP	67	288	3
TAP	68	0	5
TAP	68	96	6
HLD	68	144	6	144
STR	68	288	7
SUR	68	288	7	96	96	4
TAP	69	0	5
HLD	69	192	6	96
HLD	69	192	7	96
TAP	70	0	2
TAP	70	96	1
HLD	70	144	1	144
STR	70	288	0
SUL	70	288	0	96	96	3
TAP	71	0	2
TAP	71	192	0
TAP	71	192	1
TAP	71	288	3
TAP	71	288	4
TAP	72	0	6
TAP	72	0	7
TAP	72	96	4
TAP	72	192	0
TAP	72	192	1
TAP	72	288	3
STR	73	0	6
SI_	73	0	6	96	48	4
TAP	73	0	7
TAP	73	96	2
TAP	73	192	0
STR	73	192	1
SI_	73	192	1	96	48	3
TAP	73	288	5
HLD	74	0	4	96
XHO	74	0	6	96
XHO	74	144	1	96
HLD	74	144	3	96
HLD	74	288	5	96
XHO	74	288	7	96
XHO	75	48	0	96
HLD	75	48	2	96
BRK	75	192	1
BRK	75	192	6
STR	76	0	7
SI_	76	0	7	96	48	4
TAP	76	48	7
STR	76	144	2
SI_	76	144	2	96	48	7
TAP	76	192	2
STR	76	288	5
SI_	76	288	5	96	48	2
TAP	76	336	5
HLD	77	48	0	96
TAP	77	144	3
STR	77	192	3
SI_	77	192	3	96	48	7
TAP	77	288	1
STR	78	0	0
SI_	78	0	0	96	48	3
TAP	78	48	0
STR	78	144	5
SI_	78	144	5	96	48	0
TAP	78	192	5
STR	78	288	2
SI_	78	288	2	96	48	5
TAP	78	336	2
HLD	79	48	7	96
TAP	79	144	0
TAP	79	192	0
TAP	79	288	1
STR	79	288	7
SCL	79	288	7	96	96	4
TAP	80	0	0
TAP	80	96	1
TAP	80	192	2
STR	80	192	4
SXL	80	192	4	96	336	7
TAP	80	288	3
TAP	81	0	2
TAP	81	96	1
TAP	81	192	0
TAP	81	288	1
TAP	82	0	2
TAP	82	0	7
TAP	82	96	3
TAP	82	96	6
STR	82	192	5
SI_	82	192	5	96	48	0
TAP	82	288	4
STR	83	0	2
SI_	83	0	2	96	48	7
TAP	83	96	3
STR	83	192	5
SI_	83	192	5	96	48	0
TAP	83	288	4
TAP	84	0	2
TAP	84	96	1
HLD	84	144	1	144
STR	84	288	0
SUL	84	288	0	96	96	3
TAP	85	0	2
HLD	85	192	0	96
HLD	85	192	4	96
TAP	86	0	5
TAP	86	96	6
HLD	86	144	6	144
STR	86	288	7
SUR	86	288	7	96	96	4
TAP	87	0	5
TAP	87	192	3
TAP	87	192	7
TAP	87	288	0
STR	87	288	4
SCR	87	288	4	96	192	3
TAP	88	0	3
TAP	88	288	1
TAP	88	288	5
STR	89	0	0
SI_	89	0	0	96	48	2
STR	89	0	4
SI_	89	0	4	96	48	6
TAP	89	192	3
STR	89	192	7
SI_	89	192	7	96	48	3
TTP	90	0	1	E	0	M1
TTP	90	48	5	E	0	M1
TTP	90	96	2	B	0	M1
TTP	90	144	6	B	0	M1
TTP	90	192	0	B	0	M1
TTP	90	240	4	B	0	M1
TTP	90	288	3	E	0	M1
TTP	90	336	7	E	0	M1
TTP	91	0	2	E	0	M1
TTP	91	48	6	E	0	M1
TTP	91	96	1	E	0	M1
TTP	91	144	5	E	0	M1
TTP	91	192	0	E	0	M1
TTP	91	240	4	E	0	M1
TTP	91	288	0	C	1	M1
STR	92	0	1
SXR	92	0	1	96	480	4
HLD	92	0	5	384
HLD	94	0	2	384
STR	94	0	6
SXL	94	0	6	96	480	3
STR	96	0	1
SCL	96	0	1	96	192	6
TAP	96	0	5
TAP	97	0	2
STR	97	0	5
SUR	97	0	5	96	192	1
STR	98	0	2
SCR	98	0	2	96	192	5
TAP	98	0	6
TAP	99	0	3
TAP	99	0	4
TAP	99	144	3
TAP	99	168	4
TAP	99	192	3
TAP	99	240	4
TAP	99	288	3
TAP	99	336	4
TAP	100	0	2
TAP	100	0	3
TAP	100	96	3
TAP	100	144	4
TAP	100	240	4
TAP	100	288	5
TAP	101	0	4
TAP	101	0	5
TAP	101	96	4
TAP	101	144	3
TAP	101	240	3
TAP	101	288	2
TAP	102	0	1
TAP	102	0	4
TAP	102	96	2
TAP	102	144	3
TAP	102	240	3
TAP	102	288	4
TAP	103	0	3
TAP	103	0	6
TAP	103	96	5
TAP	103	144	4
TAP	103	240	4
TAP	103	288	3
STR	104	0	1
SI_	104	0	1	96	48	4
TAP	104	0	4
STR	104	144	5
SI_	104	144	5	96	48	0
STR	104	288	2
SCR	104	288	2	96	96	5
TAP	105	96	7
TAP	105	192	6
TAP	105	288	5
THO	106	0	0	288	C	0	M1
BRK	106	0	4
BRK	106	144	4
BRK	106	288	5
BRK	107	48	6
BRK	107	192	7
BRK	108	0	0
THO	108	0	0	576	C	0	M1
BRK	108	144	1
BRK	108	288	2
BRK	109	48	3
BRK	109	192	3
STR	110	288	2
SI_	110	288	2	96	96	7
STR	110	288	3
SI_	110	288	3	96	96	6
BRK	111	192	0
BRK	111	192	5
STR	112	0	7
SI_	112	0	7	96	48	4
TAP	112	48	7
STR	112	144	2
SI_	112	144	2	96	48	7
TAP	112	192	2
STR	112	288	5
SI_	112	288	5	96	48	2
TAP	112	336	5
HLD	113	48	0	96
TAP	113	144	4
STR	113	192	4
SI_	113	192	4	96	48	1
SI_	113	192	4	96	48	7
STR	114	0	0
SI_	114	0	0	96	48	3
TAP	114	48	0
STR	114	144	5
SI_	114	144	5	96	48	0
TAP	114	192	5
STR	114	288	2
SI_	114	288	2	96	48	5
TAP	114	336	2
HLD	115	48	7	96
TAP	115	144	0
TAP	115	192	0
TAP	115	288	1
STR	115	288	7
SCL	115	288	7	96	96	4
TAP	116	0	0
TAP	116	96	1
TAP	116	192	2
STR	116	192	4
SXL	116	192	4	96	336	7
TAP	116	288	3
TAP	116	336	3
TAP	117	48	2
TAP	117	96	2
HLD	117	192	1	96
TAP	117	288	0
TAP	118	0	2
TAP	118	0	7
TAP	118	96	3
TAP	118	96	6
TAP	118	192	4
STR	118	192	5
SI_	118	192	5	96	48	0
TAP	118	288	1
STR	119	0	2
SI_	119	0	2	96	48	7
TAP	119	0	3
TAP	119	96	6
TAP	119	192	4
STR	119	192	5
SI_	119	192	5	96	48	0
TAP	119	288	1
TAP	120	0	3
TAP	120	96	2
HLD	120	144	2	144
STR	120	288	3
SUR	120	288	3	96	96	0
TAP	121	0	1
TAP	121	96	2
HLD	121	192	6	96
HLD	121	192	7	96
TAP	122	0	6
TAP	122	96	5
HLD	122	144	5	144
STR	122	288	4
SUL	122	288	4	96	96	7
TAP	123	0	6
TAP	123	96	5
TAP	123	192	0
TAP	123	192	1
TAP	123	288	6
STR	123	288	7
SI_	123	288	7	96	48	3
TAP	124	0	0
TAP	124	0	7
TAP	124	96	1
TAP	124	192	2
TAP	124	288	3
TAP	124	336	3
TAP	124	336	5
TAP	125	48	4
TAP	125	96	2
TAP	125	96	4
TAP	125	192	5
TAP	125	192	7
TAP	125	288	0
TAP	125	288	2
HLD	126	0	4	96
XHO	126	0	6	96
XHO	126	144	1	96
HLD	126	144	3	96
HLD	126	288	5	96
XHO	126	288	7	96
XHO	127	48	0	96
HLD	127	48	2	96
BRK	127	192	1
BRK	127	192	6
STR	128	0	0
SI_	128	0	0	96	48	3
TAP	128	48	0
STR	128	144	5
SI_	128	144	5	96	48	0
TAP	128	192	5
STR	128	288	2
SI_	128	288	2	96	48	5
TAP	128	336	2
HLD	129	48	7	96
TAP	129	144	3
STR	129	192	3
SI_	129	192	3	96	48	0
SI_	129	192	3	96	48	6
STR	130	0	7
SI_	130	0	7	96	48	4
TAP	130	48	7
STR	130	144	2
SI_	130	144	2	96	48	7
TAP	130	192	2
STR	130	288	5
SI_	130	288	5	96	48	2
TAP	130	336	5
HLD	131	48	0	96
TAP	131	144	7
TAP	131	192	7
STR	131	288	0
SCR	131	288	0	96	96	3
TAP	131	288	6
TAP	132	0	7
TAP	132	96	6
STR	132	192	3
SXR	132	192	3	96	336	0
TAP	132	192	5
TAP	132	288	4
TAP	132	336	4
TAP	133	48	5
TAP	133	96	5
HLD	133	192	6	96
TAP	133	288	7
TAP	134	0	0
TAP	134	0	5
TAP	134	96	1
TAP	134	96	4
STR	134	192	2
SI_	134	192	2	96	48	7
TAP	134	192	3
TAP	134	288	6
TAP	135	0	4
STR	135	0	5
SI_	135	0	5	96	48	0
TAP	135	96	1
STR	135	192	2
SI_	135	192	2	96	48	7
TAP	135	192	3
TAP	135	288	6
TAP	136	0	4
TAP	136	96	5
HLD	136	144	5	144
STR	136	288	4
SUL	136	288	4	96	96	7
TAP	137	0	6
TAP	137	96	5
HLD	137	192	0	96
HLD	137	192	4	96
TAP	138	0	1
TAP	138	96	2
HLD	138	144	2	144
STR	138	288	3
SUR	138	288	3	96	96	0
TAP	139	0	1
TAP	139	96	2
TAP	139	192	3
TAP	139	192	7
STR	139	288	0
SI_	139	288	0	96	48	4
TAP	139	288	4
TAP	140	0	0
TAP	140	0	7
TAP	140	96	6
TAP	140	192	0
TAP	140	192	2
TAP	140	288	5
STR	140	288	7
SI_	140	288	7	96	48	3
TAP	141	0	0
TAP	141	0	7
TAP	141	96	1
TAP	141	192	6
TAP	141	192	7
STR	141	288	0
SI_	141	288	0	96	48	4
TAP	141	288	1
TAP	142	0	0
TAP	142	0	7
TAP	142	96	6
TAP	142	192	3
TAP	142	192	5
TAP	142	288	2
TAP	142	288	4
TAP	143	0	3
TAP	143	0	6
STR	143	96	1
SI_	143	96	1	96	48	3
TAP	143	96	5
STR	143	192	7
SI_	143	192	7	96	48	5
STR	143	288	0
SI_	143	288	0	96	48	4
BRK	144	0	7
STR	144	288	1
SLR	144	288	1	96	144	7
STR	144	288	6
SLL	144	288	6	96	144	0
TAP	145	0	1
TAP	145	0	6
BRK	145	192	1
BRK	145	192	6
TAP	146	0	0
TAP	146	48	4
TAP	146	96	1
TAP	146	144	4
TAP	146	192	2
TAP	146	240	4
TAP	146	288	3
TAP	146	336	4
TAP	147	0	5
TAP	147	48	4
TAP	147	96	6
TAP	147	144	4
TAP	147	192	7
TAP	147	240	4
BRK	147	288	0
TTP	148	0	3	E	0	M1
TTP	148	48	7	E	0	M1
TTP	148	96	1	B	0	M1
TTP	148	144	5	B	0	M1
TTP	148	192	3	B	0	M1
TTP	148	240	7	B	0	M1
TTP	148	288	1	E	0	M1
TTP	148	336	5	E	0	M1
TTP	149	0	2	E	0	M1
TTP	149	48	6	E	0	M1
TTP	149	96	3	E	0	M1
TTP	149	144	7	E	0	M1
TTP	149	192	1	B	0	M1
TTP	149	240	0	E	0	M1
TTP	149	240	7	B	0	M1
TTP	149	288	3	B	0	M1
TTP	149	288	4	E	0	M1
TTP	149	336	0	C	1	M1
TAP	151	192	2
TAP	151	192	5
STR	151	240	0
SI_	151	240	0	96	48	3
STR	151	240	7
SI_	151	240	7	96	48	4
XTP	151	336	0
XTP	151	336	7

T_REC_TAP	474
T_REC_BRK	27
T_REC_XTP	2
T_REC_HLD	65
T_REC_XHO	16
T_REC_STR	99
T_REC_BST	0
T_REC_XST	0
T_REC_TTP	41
T_REC_THO	2
T_REC_SLD	101
T_REC_ALL	827
T_NUM_TAP	616
T_NUM_BRK	27
T_NUM_HLD	83
T_NUM_SLD	101
T_NUM_ALL	827
T_JUDGE_TAP	643
T_JUDGE_HLD	135
T_JUDGE_SLD	101
T_JUDGE_ALL	879
TTM_EACHPAIRS	139
TTM_SCR_TAP	308000
TTM_SCR_BRK	70200
TTM_SCR_HLD	83000
TTM_SCR_SLD	151500
TTM_SCR_ALL	612700
TTM_SCR_S	591700
TTM_SCR_SS	610000
TTM_RAT_ACV	10044

