VERSION	0.00.00	1.03.00
FES_MODE	0
BPM_DEF	256.000	256.000	256.000	256.000
MET_DEF	4	4
RESOLUTION	384
CLK_DEF	384
COMPATIBLE_CODE	MA2

BPM	0	0	256.000
MET	0	0	4	4

HLD	2	0	2	144
TAP	2	144	3
TAP	2	240	3
HLD	3	0	5	144
TAP	3	144	4
TAP	3	240	4
HLD	4	0	2	144
TAP	4	144	3
TAP	4	240	3
TAP	5	0	4
TAP	5	96	4
BRK	5	192	3
BRK	5	192	5
HLD	6	0	2	144
TAP	6	144	3
TAP	6	240	2
TAP	6	240	3
HLD	7	0	5	144
TAP	7	144	4
TAP	7	240	4
TAP	7	240	5
HLD	8	0	2	144
TAP	8	144	3
TAP	8	240	2
TAP	8	240	3
TAP	9	0	0
TAP	9	0	7
TAP	9	96	0
TAP	9	96	7
BRK	9	192	1
BRK	9	192	6
XST	10	0	3
SXL	10	0	3	96	480	0
XTP	10	0	4
TAP	11	192	7
STR	12	0	6
SCL	12	0	6	96	480	1
TAP	13	192	0
STR	14	0	1
SXR	14	0	1	96	480	4
TAP	15	192	5
HLD	16	0	6	144
HLD	16	144	5	144
TAP	16	288	4
TAP	17	0	3
TAP	17	0	4
TAP	17	96	3
TAP	17	96	4
BRK	17	192	2
BRK	17	192	5
TAP	18	0	0
STR	18	0	1
SCR	18	0	1	96	480	7
TAP	19	192	4
STR	20	0	1
SCR	20	0	1	96	192	4
STR	20	0	5
SCR	20	0	5	96	192	0
HLD	21	0	2	144
HLD	21	144	1	144
TAP	21	288	0
STR	22	0	0
SXL	22	0	0	96	480	3
STR	22	0	4
SXL	22	0	4	96	480	7
HLD	24	0	6	144
HLD	24	144	5	144
TAP	24	288	4
XTP	25	0	3
XTP	25	0	4
BRK	25	144	1
BRK	25	144	6
THO	26	0	0	576	C	1	M1
TTP	26	0	1	B	0	M1
TTP	26	0	6	B	0	M1
HLD	28	0	6	192
HLD	28	192	4	144
TAP	28	336	5
TAP	29	48	5
TAP	29	144	4
TAP	29	144	6
TAP	29	288	1
HLD	30	0	1	192
HLD	30	192	3	144
TAP	30	336	2
TAP	31	48	2
TAP	31	144	1
TAP	31	144	3
TAP	31	288	6
HLD	32	0	6	192
HLD	32	192	4	144
TAP	32	336	5
TAP	33	48	5
TAP	33	144	4
TAP	33	144	6
TAP	33	288	1
STR	34	0	1
SI_	34	0	1	96	96	5
STR	34	192	6
SI_	34	192	6	96	96	2
TAP	35	0	1
TAP	35	96	0
TAP	35	192	7
TAP	35	288	1
TAP	35	288	6
HLD	36	0	2	192
HLD	36	192	3	144
TAP	36	336	0
TAP	37	48	0
TAP	37	144	1
TAP	37	144	7
TAP	37	288	5
HLD	38	0	5	192
HLD	38	192	4	144
TAP	38	336	7
TAP	39	48	7
TAP	39	144	0
TAP	39	144	6
TAP	39	288	2
HLD	40	0	2	192
HLD	40	192	3	144
TAP	40	336	0
TAP	41	48	0
TAP	41	144	1
TAP	41	144	7
TAP	41	288	6
STR	42	0	6
SI_	42	0	6	96	96	2
STR	42	192	0
SI_	42	192	0	96	96	4
STR	43	0	7
SI_	43	0	7	96	96	3
STR	43	192	1
SI_	43	192	1	96	96	5
BRK	44	0	7
TTP	45	0	7	E	0	M1
TTP	45	192	4	B	0	M1
TTP	45	192	5	B	0	M1
TTP	46	0	3	B	0	M1
TTP	46	0	7	B	0	M1
TTP	47	0	1	E	0	M1
TTP	47	192	2	B	0	M1
TTP	47	192	3	B	0	M1
TTP	48	0	0	C	0	M1
TTP	48	0	0	B	0	M1
TTP	48	0	4	B	0	M1
TTP	49	0	0	C	0	M1
TTP	49	0	3	B	0	M1
TTP	49	0	7	B	0	M1
TTP	50	0	0	C	0	M1
TTP	50	0	1	B	0	M1
TTP	50	0	5	B	0	M1
TTP	51	0	0	C	0	M1
TTP	51	0	2	B	0	M1
TTP	51	0	6	B	0	M1
TAP	51	192	0
TAP	51	192	7
BST	52	0	1
SCR	52	0	1	96	480	7
BST	52	0	6
SCL	52	0	6	96	480	0
HLD	54	0	1	144
HLD	54	144	2	144
TAP	54	288	3
HLD	55	0	6	144
HLD	55	144	5	144
TAP	55	288	4
TAP	56	0	2
TAP	56	96	2
TAP	56	192	1
TAP	56	192	3
TAP	56	288	2
TAP	57	0	5
TAP	57	96	5
TAP	57	192	4
TAP	57	192	6
TAP	57	288	5
XHO	58	0	0	96
XHO	58	0	7	96
XHO	58	144	1	96
XHO	58	144	6	96
XHO	58	288	2	96
XHO	58	288	5	96
XTP	59	48	3
XTP	59	48	4
TTP	59	192	0	C	1	M1
TAP	60	0	7
TAP	60	96	6
TAP	60	192	0
TAP	60	192	5
TAP	60	288	4
TAP	61	0	3
TAP	61	96	2
TAP	61	96	6
TAP	61	192	1
TAP	61	192	5
TAP	62	0	0
TAP	62	96	1
TAP	62	192	2
TAP	62	192	7
TAP	62	288	3
TAP	63	0	4
TAP	63	96	1
TAP	63	96	5
TAP	63	192	2
TAP	63	192	6
TAP	63	288	3
TAP	63	288	7
XTP	64	0	3
XHO	64	0	7	192
TAP	64	192	0
STR	64	288	0
SCR	64	288	0	96	288	7
TTP	66	0	5	E	0	M1
TTP	66	96	6	E	0	M1
TTP	66	192	3	E	0	M1
TTP	66	288	2	E	0	M1
TTP	67	0	4	E	0	M1
TTP	67	96	0	C	0	M1
TTP	67	192	1	E	0	M1
TTP	67	192	7	E	0	M1
HLD	68	0	7	144
HLD	68	144	6	144
TAP	68	288	5
TAP	69	0	4
TAP	69	96	5
BRK	69	192	6
BRK	69	192	7
HLD	70	0	0	144
HLD	70	144	1	144
TAP	70	288	2
TAP	71	0	3
TAP	71	96	2
BRK	71	192	0
BRK	71	192	1
TTP	72	0	1	E	0	M1
TTP	72	96	2	E	0	M1
TTP	72	192	7	E	0	M1
TTP	72	288	6	E	0	M1
TTP	73	0	1	B	0	M1
TTP	73	96	3	B	0	M1
TTP	73	192	6	B	0	M1
TTP	73	288	4	B	0	M1
BRK	74	0	0
BRK	74	0	7
BRK	74	144	1
BRK	74	144	2
BRK	74	288	3
BRK	74	288	4
BRK	75	48	5
BRK	75	48	6
TTP	75	192	0	C	1	M1
TAP	76	0	0
TAP	76	96	1
TAP	76	192	2
TAP	76	192	7
TAP	76	288	3
TAP	77	0	4
TAP	77	96	1
TAP	77	96	5
TAP	77	192	2
TAP	77	192	6
TAP	78	0	7
TAP	78	96	6
TAP	78	192	0
TAP	78	192	5
TAP	78	288	4
TAP	79	0	3
TAP	79	96	2
TAP	79	96	6
TAP	79	192	1
TAP	79	192	5
TAP	79	288	0
TAP	79	288	4
XHO	80	0	0	192
XTP	80	0	4
TAP	80	192	7
STR	80	288	7
SCL	80	288	7	96	288	0
TTP	82	0	3	E	0	M1
TTP	82	96	2	E	0	M1
TTP	82	192	5	E	0	M1
TTP	82	288	6	E	0	M1
TTP	83	0	4	E	0	M1
TTP	83	96	0	C	0	M1
TTP	83	192	1	E	0	M1
TTP	83	192	7	E	0	M1
HLD	84	0	0	144
HLD	84	144	1	144
TAP	84	288	2
TAP	85	0	3
TAP	85	96	2
TAP	85	192	1
TAP	85	192	4
HLD	86	0	6	144
HLD	86	144	5	144
TAP	86	288	4
BRK	87	0	3
BRK	87	0	6
TAP	87	192	2
TAP	87	192	5
STR	87	288	3
SCL	87	288	3	96	96	0
STR	87	288	4
SCR	87	288	4	96	96	7
TAP	88	288	0
STR	89	0	0
SI_	89	0	0	96	96	4
STR	89	192	6
SI_	89	192	6	96	96	2
HLD	90	0	1	144
HLD	90	144	0	144
HLD	90	288	7	144
HLD	91	48	6	144
TTP	91	192	0	C	1	M1
BST	92	0	1
SXR	92	0	1	96	672	4
BRK	92	0	6
STR	94	0	6
SXL	94	0	6	96	672	3
STR	96	0	0
SCR	96	0	0	96	288	3
STR	97	0	6
SCL	97	0	6	96	288	3
STR	98	0	1
SI_	98	0	1	96	288	4
TAP	99	0	5
BRK	99	192	0
BRK	99	192	7
HLD	100	0	1	144
HLD	100	144	2	144
TAP	100	288	3
HLD	101	0	6	144
HLD	101	144	5	144
TAP	101	288	4
HLD	102	0	0	144
HLD	102	144	1	144
TAP	102	288	2
HLD	103	0	7	144
HLD	103	144	6	144
TAP	103	288	5
TAP	104	0	0
TAP	104	96	0
TAP	104	192	7
TAP	104	288	7
TAP	105	0	1
TAP	105	0	6
TAP	105	96	2
TAP	105	96	5
TAP	105	192	3
TAP	105	192	4
BRK	106	0	1
BRK	106	0	3
BRK	106	144	4
BRK	106	144	6
BRK	106	288	0
BRK	106	288	2
BRK	107	48	5
BRK	107	48	7
BRK	107	192	1
BRK	107	192	6
XTP	108	0	1
XTP	108	0	2
XTP	108	144	3
XTP	108	144	4
XTP	108	288	5
XTP	108	288	6
XTP	109	48	0
XTP	109	48	7
HLD	109	192	1	480
HLD	109	192	6	576
BRK	111	192	1
BRK	111	192	6
TAP	112	0	1
TAP	112	96	2
TAP	112	192	3
TAP	112	192	6
TAP	112	288	4
TAP	113	0	5
TAP	113	96	6
TAP	113	96	7
TAP	113	192	0
TAP	113	192	5
TAP	114	0	6
TAP	114	96	5
TAP	114	192	1
TAP	114	192	4
TAP	114	288	3
TAP	115	0	2
TAP	115	96	0
TAP	115	96	1
TAP	115	192	2
TAP	115	192	7
TAP	115	288	1
TAP	115	288	6
XHO	116	0	0	192
XTP	116	0	5
TAP	116	192	7
STR	116	288	7
SCL	116	288	7	96	288	0
TTP	118	0	3	E	0	M1
TTP	118	96	2	E	0	M1
TTP	118	192	5	E	0	M1
TTP	118	288	6	E	0	M1
TTP	119	0	4	E	0	M1
TTP	119	96	0	C	0	M1
TTP	119	192	0	E	0	M1
TTP	119	192	1	E	0	M1
TTP	119	192	7	E	0	M1
HLD	120	0	1	144
HLD	120	144	3	144
TAP	120	288	4
TAP	121	0	7
TAP	121	96	6
BRK	121	192	0
BRK	121	192	5
HLD	122	0	6	144
HLD	122	144	4	144
TAP	122	288	3
TAP	123	0	0
TAP	123	96	1
BRK	123	192	2
BRK	123	192	7
TTP	124	0	6	B	0	M1
TTP	124	96	4	B	0	M1
TTP	124	192	1	B	0	M1
TTP	124	288	3	B	0	M1
TTP	125	0	7	E	0	M1
TTP	125	96	5	E	0	M1
TTP	125	192	1	E	0	M1
TTP	125	288	3	E	0	M1
BRK	126	0	0
BRK	126	0	7
BRK	126	144	5
BRK	126	144	6
BRK	126	288	3
BRK	126	288	4
BRK	127	48	1
BRK	127	48	2
TTP	127	192	0	B	0	M1
TTP	127	192	0	C	1	M1
TTP	127	192	4	B	0	M1
TAP	128	0	6
TAP	128	96	5
TAP	128	192	1
TAP	128	192	4
TAP	128	288	3
TAP	129	0	2
TAP	129	96	0
TAP	129	96	1
TAP	129	192	2
TAP	129	192	7
TAP	130	0	1
TAP	130	96	2
TAP	130	192	3
TAP	130	192	6
TAP	130	288	4
TAP	131	0	5
TAP	131	96	6
TAP	131	96	7
TAP	131	192	0
TAP	131	192	5
TAP	131	288	1
TAP	131	288	6
XTP	132	0	2
XHO	132	0	7	192
TAP	132	192	0
STR	132	288	0
SCR	132	288	0	96	288	7
TTP	134	0	5	E	0	M1
TTP	134	96	6	E	0	M1
TTP	134	192	3	E	0	M1
TTP	134	288	2	E	0	M1
TTP	135	0	4	E	0	M1
TTP	135	96	0	C	0	M1
TTP	135	192	0	E	0	M1
TTP	135	192	1	E	0	M1
TTP	135	192	7	E	0	M1
HLD	136	0	6	144
HLD	136	144	4	144
TAP	136	288	3
TAP	137	0	0
TAP	137	96	1
BRK	137	192	2
BRK	137	192	7
HLD	138	0	1	144
HLD	138	144	3	144
TAP	138	288	4
BRK	139	0	1
BRK	139	0	6
TAP	139	192	0
TAP	139	192	7
STR	139	288	0
SCR	139	288	0	96	96	3
STR	139	288	7
SCL	139	288	7	96	96	4
TAP	140	288	2
STR	141	0	2
SCR	141	0	2	96	96	5
TAP	141	288	6
STR	142	0	6
SCR	142	0	6	96	192	3
BRK	143	0	1
BRK	143	0	6
TAP	143	192	2
TAP	143	192	5
STR	143	288	3
SCL	143	288	3	96	96	0
STR	143	288	4
SCR	143	288	4	96	96	7
TAP	144	288	7
STR	145	0	7
SI_	145	0	7	96	96	3
STR	145	192	1
SI_	145	192	1	96	96	5
HLD	146	0	6	144
HLD	146	144	7	144
HLD	146	288	0	144
HLD	147	48	1	144
TTP	147	192	0	C	1	M1
HLD	148	0	0	144
HLD	148	144	2	144
HLD	148	288	4	144
HLD	149	48	6	144
TAP	149	192	0
TAP	149	240	7
TAP	149	288	0
STR	149	336	7
SXL	149	336	7	96	336	2
SXR	149	336	7	96	336	4
TAP	151	192	0
TAP	151	192	7
TAP	151	240	0
TAP	151	240	7
TTP	151	336	0	C	1	M1
TTP	151	336	1	B	0	M1
TTP	151	336	2	B	0	M1
TTP	151	336	5	B	0	M1
TTP	151	336	6	B	0	M1

T_REC_TAP	228
T_REC_BRK	56
T_REC_XTP	17
T_REC_HLD	66
T_REC_XHO	10
T_REC_STR	34
T_REC_BST	3
T_REC_XST	1
T_REC_TTP	84
T_REC_THO	1
T_REC_SLD	39
T_REC_ALL	539
T_NUM_TAP	364
T_NUM_BRK	59
T_NUM_HLD	77
T_NUM_SLD	39
T_NUM_ALL	539
T_JUDGE_TAP	423
T_JUDGE_HLD	159
T_JUDGE_SLD	39
T_JUDGE_ALL	621
TTM_EACHPAIRS	104
TTM_SCR_TAP	182000
TTM_SCR_BRK	153400
TTM_SCR_HLD	77000
TTM_SCR_SLD	58500
TTM_SCR_ALL	470900
TTM_SCR_S	451050
TTM_SCR_SS	465000
TTM_RAT_ACV	10126

