VERSION	0.00.00	1.03.00
FES_MODE	0
BPM_DEF	256.000	256.000	256.000	256.000
MET_DEF	4	4
RESOLUTION	384
CLK_DEF	384
COMPATIBLE_CODE	MA2

BPM	0	0	256.000
MET	0	0	4	4

HLD	6	0	5	384
HLD	7	0	4	384
HLD	8	0	3	384
TAP	9	0	2
HLD	10	0	2	192
TAP	10	192	3
TAP	11	0	4
TAP	11	192	4
HLD	12	0	5	192
TAP	12	192	4
TAP	13	0	3
TAP	13	0	6
HLD	14	0	1	192
TAP	14	192	0
TAP	15	0	7
TAP	15	192	6
HLD	16	0	6	192
TAP	16	192	7
TAP	17	0	0
TAP	17	0	5
TAP	18	0	2
TAP	18	192	1
TAP	18	192	3
TAP	19	0	2
TAP	19	96	2
TAP	19	192	2
TAP	20	0	5
TAP	20	192	4
TAP	20	192	6
TAP	21	0	5
TAP	21	96	5
TAP	21	192	5
HLD	22	0	2	192
TAP	22	192	3
HLD	23	0	5	192
TAP	23	192	4
STR	24	0	3
SI_	24	0	3	96	480	0
STR	24	0	4
SI_	24	0	4	96	480	7
HLD	26	0	1	384
HLD	26	0	6	384
XTP	27	192	2
XTP	27	192	5
TAP	28	0	4
TAP	28	192	5
TAP	29	0	4
TAP	29	0	5
TAP	30	0	3
TAP	30	192	2
TAP	31	0	2
TAP	31	0	3
TAP	32	0	3
TAP	32	0	4
TAP	32	192	5
TAP	33	0	3
TAP	33	0	4
TAP	33	192	2
HLD	34	0	3	192
HLD	34	0	4	192
XTP	35	0	2
XTP	35	0	5
TAP	36	0	0
TAP	36	192	1
TAP	37	0	0
TAP	37	0	1
TAP	38	0	7
TAP	38	192	6
TAP	39	0	6
TAP	39	0	7
TAP	40	0	5
TAP	40	192	5
TAP	41	0	3
TAP	41	0	4
TAP	41	192	3
TAP	41	192	4
HLD	42	0	2	192
HLD	42	0	5	192
HLD	43	0	1	192
HLD	43	0	6	192
BRK	44	0	1
BRK	44	0	6
TTP	45	0	2	E	0	L1
TTP	46	0	2	B	0	L1
TTP	47	0	3	B	0	L1
TTP	48	0	4	E	0	L1
TTP	49	0	3	B	0	L1
TTP	49	0	4	B	0	L1
TTP	50	0	2	B	0	L1
TTP	50	0	5	B	0	L1
TTP	51	0	1	B	0	L1
TTP	51	0	6	B	0	L1
THO	52	0	0	384	C	0	L1
TTP	54	0	6	E	0	L1
TTP	54	192	5	B	0	L1
TTP	55	0	4	B	0	L1
TTP	56	0	2	E	0	L1
TTP	56	192	2	B	0	L1
TTP	57	0	3	B	0	L1
TTP	57	0	4	B	0	L1
TTP	58	0	0	C	1	L1
XTP	59	192	1
XTP	59	192	6
TAP	60	0	2
TAP	60	96	2
TAP	60	192	3
TAP	61	0	3
TAP	61	0	4
TAP	61	192	2
TAP	61	192	5
TAP	62	0	6
TAP	62	96	6
TAP	62	192	7
TAP	63	0	0
TAP	63	0	7
TAP	63	192	1
TAP	63	192	6
STR	64	0	2
SLL	64	0	2	96	480	3
STR	64	0	5
SLR	64	0	5	96	480	4
XTP	66	0	2
XTP	66	0	5
XTP	66	192	3
XTP	67	0	4
XTP	67	192	2
XTP	67	192	5
HLD	68	0	4	192
HLD	68	0	6	192
TAP	69	0	5
TAP	69	96	5
TAP	69	192	4
HLD	70	0	1	192
HLD	70	0	3	192
TAP	71	0	2
TAP	71	96	2
TAP	71	192	3
TAP	72	0	2
TAP	72	0	3
TAP	72	192	1
TAP	72	192	4
TAP	73	0	4
TAP	73	0	5
XTP	73	192	3
XTP	73	192	6
XHO	74	0	4	144
XHO	74	0	5	144
XHO	74	288	2	144
XHO	74	288	3	144
XTP	75	192	3
XTP	75	192	4
TAP	76	0	6
TAP	76	96	6
TAP	76	192	7
TAP	77	0	0
TAP	77	0	7
TAP	77	192	1
TAP	77	192	6
TAP	78	0	2
TAP	78	96	2
TAP	78	192	3
TAP	79	0	3
TAP	79	0	4
TAP	79	192	2
TAP	79	192	5
STR	80	0	1
SLR	80	0	1	96	480	0
STR	80	0	6
SLL	80	0	6	96	480	7
XTP	82	0	1
XTP	82	0	6
XTP	82	192	0
XTP	83	0	7
XTP	83	192	1
XTP	83	192	6
TAP	84	0	5
TAP	84	96	5
HLD	84	192	5	192
TAP	85	0	4
TAP	85	192	3
TAP	85	192	6
TAP	86	0	2
TAP	86	96	2
HLD	86	192	2	192
TAP	87	0	3
TAP	87	192	1
TAP	87	192	4
HLD	88	0	2	192
HLD	88	0	3	192
HLD	89	0	4	192
HLD	89	0	5	192
THO	90	0	0	384	C	1	L1
XST	92	0	0
SUR	92	0	0	96	672	3
TAP	95	0	4
STR	96	0	4
SUR	96	0	4	96	672	7
TAP	99	0	0
THO	100	0	0	384	C	0	L1
TTP	102	0	5	B	0	L1
TTP	102	192	6	B	0	L1
TTP	103	0	7	E	0	L1
TTP	103	0	7	B	0	L1
TTP	104	0	2	B	0	L1
TTP	104	192	1	B	0	L1
TTP	105	0	0	B	0	L1
TTP	105	0	1	E	0	L1
TTP	106	0	0	C	1	L1
THO	108	0	0	768	C	0	L1
XTP	112	0	2
TAP	112	96	2
TAP	112	192	2
TAP	112	192	3
TAP	113	0	1
TAP	113	0	4
TAP	113	192	0
TAP	113	192	7
TAP	114	0	6
TAP	114	96	6
TAP	114	192	6
TAP	114	192	7
TAP	115	0	0
TAP	115	0	5
TAP	115	192	3
TAP	115	192	4
STR	116	0	2
SLL	116	0	2	96	480	4
STR	116	0	5
SLR	116	0	5	96	480	3
XTP	118	0	2
XTP	118	0	5
XTP	118	192	2
XTP	118	192	3
XTP	119	0	3
XTP	119	0	4
XTP	119	192	4
XTP	119	192	5
HLD	120	0	6	192
HLD	120	0	7	192
TAP	121	0	1
TAP	121	96	1
TAP	121	192	0
HLD	122	0	2	192
HLD	122	0	3	192
TAP	123	0	5
TAP	123	96	5
TAP	123	192	4
TAP	124	0	6
TAP	124	0	7
TAP	124	192	0
TAP	124	192	5
TAP	125	0	0
TAP	125	0	1
XTP	125	192	2
XTP	125	192	7
XHO	126	0	4	144
XHO	126	0	5	144
XHO	126	288	2	144
XHO	126	288	3	144
XTP	127	192	3
XTP	127	192	4
XTP	128	0	6
TAP	128	96	6
TAP	128	192	6
TAP	128	192	7
TAP	129	0	0
TAP	129	0	5
TAP	129	192	3
TAP	129	192	4
TAP	130	0	2
TAP	130	96	2
TAP	130	192	2
TAP	130	192	3
TAP	131	0	1
TAP	131	0	4
TAP	131	192	0
TAP	131	192	7
STR	132	0	1
SLR	132	0	1	96	480	7
STR	132	0	6
SLL	132	0	6	96	480	0
XTP	134	0	1
XTP	134	0	6
XTP	134	192	2
XTP	134	192	3
XTP	135	0	3
XTP	135	0	4
XTP	135	192	4
XTP	135	192	5
TAP	136	0	6
TAP	136	96	6
HLD	136	192	6	192
TAP	137	0	7
TAP	137	192	4
TAP	137	192	5
TAP	138	0	2
TAP	138	96	2
HLD	138	192	2	192
TAP	139	0	3
TAP	139	192	0
TAP	139	192	1
HLD	140	0	6	192
HLD	140	0	7	192
HLD	141	0	0	192
HLD	141	0	1	192
STR	142	0	0
SCR	142	0	0	96	288	3
STR	142	0	7
SCL	142	0	7	96	288	4
XTP	143	192	2
XTP	143	192	5
HLD	144	0	1	192
HLD	144	0	3	192
HLD	145	0	4	192
HLD	145	0	6	192
BST	146	0	3
SXR	146	0	3	96	480	0
BST	146	0	4
SXL	146	0	4	96	480	7
HLD	148	0	1	576
HLD	148	0	6	576
THO	150	0	0	720	C	1	L1

T_REC_TAP	159
T_REC_BRK	2
T_REC_XTP	46
T_REC_HLD	43
T_REC_XHO	8
T_REC_STR	13
T_REC_BST	2
T_REC_XST	1
T_REC_TTP	27
T_REC_THO	5
T_REC_SLD	16
T_REC_ALL	322
T_NUM_TAP	246
T_NUM_BRK	4
T_NUM_HLD	56
T_NUM_SLD	16
T_NUM_ALL	322
T_JUDGE_TAP	250
T_JUDGE_HLD	148
T_JUDGE_SLD	16
T_JUDGE_ALL	414
TTM_EACHPAIRS	89
TTM_SCR_TAP	123000
TTM_SCR_BRK	10400
TTM_SCR_HLD	56000
TTM_SCR_SLD	24000
TTM_SCR_ALL	213400
TTM_SCR_S	206650
TTM_SCR_SS	213000
TTM_RAT_ACV	10018

