VERSION	0.00.00	1.03.00
FES_MODE	0
BPM_DEF	256.000	256.000	256.000	256.000
MET_DEF	4	4
RESOLUTION	384
CLK_DEF	384
COMPATIBLE_CODE	MA2

BPM	0	0	256.000
MET	0	0	4	4

TAP	10	0	3
TAP	11	0	3
TAP	12	0	3
TAP	14	0	4
TAP	15	0	4
TAP	16	0	4
HLD	18	0	3	384
HLD	20	0	2	384
HLD	22	0	1	384
TAP	24	0	0
TAP	24	192	0
TAP	25	0	0
STR	26	0	7
SI_	26	0	7	96	288	4
TAP	28	0	3
TAP	28	0	4
TAP	29	0	3
TAP	30	0	2
TAP	30	192	2
TAP	31	0	2
TAP	32	0	3
TAP	32	0	4
TAP	33	0	4
TAP	34	0	5
TAP	34	192	5
XTP	35	0	5
TAP	36	0	6
TAP	37	0	6
TAP	38	0	7
TAP	38	192	7
TAP	39	0	7
TAP	40	0	0
TAP	41	0	0
STR	42	0	0
SI_	42	0	0	96	288	4
TTP	44	0	5	B	0	L1
TTP	46	0	7	B	0	L1
TTP	48	0	1	B	0	L1
TTP	50	0	3	B	0	L1
HLD	52	0	3	384
HLD	52	0	4	384
TTP	54	0	2	B	0	L1
TTP	54	0	5	B	0	L1
THO	56	0	0	768	C	1	L1
TAP	60	0	0
TAP	60	192	0
TAP	61	0	0
TAP	62	0	1
TAP	62	192	1
TAP	63	0	1
XHO	64	0	2	384
XHO	64	0	3	384
TAP	66	0	3
TAP	67	0	3
TAP	67	0	4
TAP	68	0	4
TAP	68	192	4
XTP	69	0	4
XTP	69	0	5
TAP	70	0	3
TAP	70	192	3
XTP	71	0	2
XTP	71	0	3
TAP	72	0	4
TAP	73	0	3
XHO	74	0	4	384
XHO	74	0	5	384
BRK	75	192	6
TAP	76	0	7
TAP	76	192	7
TAP	77	0	7
TAP	78	0	6
TAP	78	192	6
TAP	79	0	6
HLD	80	0	4	384
HLD	80	0	5	384
TAP	82	0	4
TAP	83	0	3
TAP	83	0	4
TAP	84	0	3
TAP	84	192	3
XTP	85	0	2
XTP	85	0	3
TAP	86	0	4
TAP	86	192	4
XTP	87	0	4
XTP	87	0	5
TAP	88	0	3
TAP	88	0	4
TAP	89	0	3
TAP	89	0	4
TAP	89	192	3
TAP	89	192	4
STR	90	0	3
SI_	90	0	3	96	288	0
STR	90	0	4
SI_	90	0	4	96	288	7
TTP	92	0	1	B	0	L1
TTP	94	0	2	B	0	L1
TTP	96	0	3	B	0	L1
TTP	97	0	4	B	0	L1
TTP	98	0	5	B	0	L1
TTP	99	0	6	B	0	L1
HLD	100	0	0	384
HLD	100	0	7	384
TAP	102	0	0
TAP	102	192	0
HLD	103	0	1	192
HLD	103	0	7	192
TAP	104	0	7
TAP	104	192	7
HLD	105	0	0	192
HLD	105	0	6	192
XTP	106	0	0
XTP	106	0	7
XTP	106	288	0
XTP	106	288	7
XTP	107	192	1
XTP	107	192	6
THO	108	0	0	672	C	0	L1
TAP	112	0	0
TAP	112	192	0
TAP	113	0	0
TAP	113	0	7
TAP	114	0	1
TAP	114	192	1
TAP	115	0	0
TAP	115	0	1
HLD	116	0	2	384
HLD	116	0	3	384
TAP	118	0	3
TAP	118	192	3
TAP	119	0	3
TAP	119	0	4
TAP	120	0	4
TAP	120	192	4
TAP	121	0	3
TAP	121	0	5
TAP	122	0	3
TAP	122	192	3
TAP	123	0	2
TAP	123	0	4
TAP	124	0	4
TAP	124	192	4
TAP	125	0	3
TAP	125	192	3
HLD	126	0	4	384
HLD	126	0	5	384
BRK	127	192	6
TAP	128	0	7
TAP	128	192	7
TAP	129	0	0
TAP	129	0	7
TAP	130	0	6
TAP	130	192	6
TAP	131	0	6
TAP	131	0	7
HLD	132	0	4	384
HLD	132	0	5	384
TAP	134	0	4
TAP	134	192	4
TAP	135	0	3
TAP	135	0	4
TAP	136	0	3
TAP	136	192	3
TAP	137	0	2
TAP	137	0	4
TAP	138	0	4
TAP	138	192	4
TAP	139	0	3
TAP	139	0	5
HLD	140	0	4	192
HLD	140	0	5	192
HLD	141	0	2	192
HLD	141	0	3	192
HLD	142	0	2	384
HLD	142	0	5	384
TAP	143	192	2
TAP	143	192	5
XTP	144	0	1
XTP	144	0	6
XTP	145	0	1
XTP	145	0	6
XTP	145	192	2
XTP	145	192	5
XST	146	0	3
SI_	146	0	3	96	288	0
XST	146	0	4
SI_	146	0	4	96	288	7
TTP	148	0	1	B	0	L1
TTP	148	0	6	B	0	L1
TTP	149	0	3	B	0	L1
TTP	149	0	4	B	0	L1
THO	150	0	0	720	C	1	L1

T_REC_TAP	111
T_REC_BRK	2
T_REC_XTP	21
T_REC_HLD	25
T_REC_XHO	4
T_REC_STR	4
T_REC_BST	0
T_REC_XST	2
T_REC_TTP	16
T_REC_THO	3
T_REC_SLD	6
T_REC_ALL	194
T_NUM_TAP	154
T_NUM_BRK	2
T_NUM_HLD	32
T_NUM_SLD	6
T_NUM_ALL	194
T_JUDGE_TAP	156
T_JUDGE_HLD	123
T_JUDGE_SLD	6
T_JUDGE_ALL	285
TTM_EACHPAIRS	43
TTM_SCR_TAP	77000
TTM_SCR_BRK	5200
TTM_SCR_HLD	32000
TTM_SCR_SLD	9000
TTM_SCR_ALL	123200
TTM_SCR_S	119350
TTM_SCR_SS	123000
TTM_RAT_ACV	10016

