VERSION	0.00.00	1.04.00
FES_MODE	0
BPM_DEF	240.000	240.000	240.000	240.000
MET_DEF	4	4
RESOLUTION	384
CLK_DEF	384
COMPATIBLE_CODE	MA2

BPM	0	0	240.000
MET	0	0	4	4

BRSTR	2	0	0
NMSCR	2	0	0	96	192	4
NMTAP	2	96	4
NMTAP	2	192	5
NMTAP	2	288	6
BRSTR	3	0	7
NMSCL	3	0	7	96	192	3
NMTAP	3	96	3
NMTAP	3	192	2
NMTAP	3	288	1
BRSTR	4	0	0
NMSCR	4	0	0	96	192	4
NMTAP	4	96	4
NMTAP	4	192	5
NMTAP	4	288	6
BRSTR	5	0	7
NMSCL	5	0	7	96	192	3
NMTAP	5	96	3
NMTAP	5	192	2
NMTAP	5	288	1
NMHLD	6	0	0	192
NMTAP	6	96	5
NMTAP	6	192	5
NMTAP	6	288	5
NMHLD	7	0	6	192
NMTAP	7	96	3
NMTAP	7	192	3
NMTAP	7	288	3
NMTAP	8	0	4
NMTAP	8	48	4
NMTAP	8	96	3
NMTAP	8	144	3
NMTAP	8	192	5
NMTAP	8	240	5
NMTAP	8	288	2
NMTAP	8	288	5
NMTAP	9	0	3
NMTAP	9	24	4
NMTAP	9	48	3
NMTAP	9	72	4
NMTAP	9	96	3
NMTAP	9	120	4
NMTAP	9	144	3
NMTAP	9	168	4
NMTAP	9	192	2
BRTAP	9	288	1
BRTAP	9	288	5
NMTAP	10	0	6
NMTAP	10	32	4
NMTAP	10	64	5
NMTAP	10	96	4
NMTAP	10	128	5
NMTAP	10	160	4
NMHLD	10	192	6	96
NMTAP	10	288	0
NMTAP	11	0	1
NMTAP	11	32	3
NMTAP	11	64	2
NMTAP	11	96	3
NMTAP	11	128	2
NMTAP	11	160	3
NMHLD	11	192	1	96
NMTAP	11	288	7
NMTAP	12	0	6
NMTAP	12	32	4
NMTAP	12	64	5
NMTAP	12	96	4
NMTAP	12	192	1
NMTAP	12	224	3
NMTAP	12	256	2
NMTAP	12	288	3
NMTAP	13	0	6
NMTAP	13	32	4
NMTAP	13	64	5
NMTAP	13	96	1
NMTAP	13	128	3
NMTAP	13	160	2
NMHLD	13	192	6	96
NMTAP	13	288	0
NMTAP	14	0	1
NMTAP	14	32	3
NMTAP	14	64	2
NMTAP	14	96	3
NMTAP	14	128	2
NMTAP	14	160	3
NMHLD	14	192	1	96
NMTAP	14	288	7
NMTAP	15	0	6
NMTAP	15	32	4
NMTAP	15	64	5
NMTAP	15	96	4
NMTAP	15	128	5
NMTAP	15	160	4
NMHLD	15	192	6	96
NMTAP	15	288	0
NMTAP	16	0	1
NMTAP	16	32	3
NMTAP	16	64	2
NMTAP	16	96	3
NMTAP	16	192	6
NMTAP	16	224	4
NMTAP	16	256	5
NMTAP	16	288	4
NMTAP	17	0	1
NMTAP	17	32	3
NMTAP	17	64	2
NMTAP	17	96	6
NMTAP	17	128	4
NMTAP	17	160	5
NMSTR	17	192	3
NMSI_	17	192	3	96	48	0
NMSI_	17	192	3	96	48	6
EXHLD	18	0	7	96
NMTAP	18	96	1
NMHLD	18	144	1	96
NMTAP	18	240	3
NMTAP	18	288	3
NMTAP	19	0	0
NMTAP	19	0	7
NMTAP	19	96	4
NMTAP	19	96	6
NMTAP	19	192	3
NMTAP	19	192	4
NMTAP	19	288	2
NMTAP	19	336	1
NMHLD	20	0	0	96
NMTAP	20	96	6
NMHLD	20	144	6	96
NMTAP	20	240	4
NMTAP	20	288	4
NMTAP	21	0	0
NMTAP	21	0	7
NMTAP	21	96	1
NMTAP	21	96	3
NMTAP	21	192	3
NMTAP	21	192	4
NMTAP	21	288	4
NMTAP	21	288	6
NMHLD	22	0	7	96
NMTAP	22	96	5
NMHLD	22	144	5	96
NMTAP	22	240	3
NMTAP	22	288	3
NMTAP	23	0	2
NMTAP	23	0	4
NMTAP	23	48	2
NMTAP	23	48	4
NMSTR	23	144	1
NMSLR	23	144	1	96	96	5
NMTAP	23	240	6
NMTAP	23	288	6
NMSTR	24	0	7
NMSI_	24	0	7	96	48	3
NMTAP	24	96	0
NMSTR	24	192	1
NMSI_	24	192	1	96	48	5
NMTAP	24	288	6
NMTAP	25	0	7
NMTAP	25	48	7
NMTAP	25	144	1
NMTAP	25	144	5
NMTAP	25	240	2
NMTAP	25	240	4
NMTAP	25	288	2
NMTAP	25	288	4
EXSTR	26	0	1
NMSI_	26	0	1	96	48	4
EXTAP	26	0	5
NMSTR	26	96	6
NMSI_	26	96	6	96	48	2
NMSTR	26	192	0
NMSI_	26	192	0	96	48	4
NMSTR	26	288	7
NMSI_	26	288	7	96	48	3
NMHLD	27	0	2	96
NMTAP	27	96	4
NMTAP	27	192	5
NMTAP	27	288	4
NMTAP	27	288	6
NMSTR	28	0	6
NMSI_	28	0	6	96	48	3
NMTAP	28	0	7
NMTAP	28	192	0
NMSTR	28	192	1
NMSI_	28	192	1	96	48	4
NMTAP	29	0	6
NMSTR	29	0	7
NMSI_	29	0	7	96	48	3
NMSTR	29	192	0
NMSI_	29	192	0	96	48	4
NMTAP	29	192	1
NMHLD	30	0	6	96
NMHLD	30	96	4	96
NMHLD	30	192	3	96
NMHLD	30	288	1	96
NMTAP	31	0	0
NMTAP	31	96	2
NMTAP	31	96	7
NMTAP	31	192	3
NMTAP	31	192	6
NMTAP	31	288	4
NMTAP	31	288	5
NMSTR	32	0	6
NMSI_	32	0	6	96	48	4
NMSTR	32	0	7
NMSI_	32	0	7	96	48	3
NMSTR	32	192	0
NMSI_	32	192	0	96	48	4
NMSTR	32	192	1
NMSI_	32	192	1	96	48	3
EXTAP	33	0	2
EXTAP	33	0	5
EXTAP	33	48	2
EXTAP	33	48	5
EXTAP	33	96	2
EXTAP	33	96	5
NMTAP	33	192	3
NMTAP	33	216	4
NMTAP	33	240	3
NMTAP	33	264	4
NMTAP	33	288	2
NMSTR	34	0	0
NMSI_	34	0	0	96	48	4
EXSTR	34	96	4
NMSCL	34	96	4	96	192	0
EXTAP	34	144	5
NMTAP	34	288	6
NMTAP	35	0	6
NMTAP	35	96	5
NMTAP	35	192	1
NMTAP	35	192	5
NMTAP	35	288	0
NMTAP	35	288	6
NMTAP	36	0	0
NMSTR	36	0	6
NMSCL	36	0	6	96	48	3
NMTAP	36	96	1
NMSTR	36	144	0
NMSCR	36	144	0	96	48	3
NMTAP	36	240	5
NMTAP	36	288	6
NMTAP	37	0	6
NMTAP	37	48	5
NMTAP	37	96	4
NMTAP	37	144	3
NMTAP	37	192	2
NMTAP	37	240	3
NMTAP	37	288	4
NMTAP	37	336	5
NMTAP	38	0	6
NMHLD	38	48	6	144
NMTAP	38	96	4
NMTAP	38	192	4
NMTAP	38	288	3
NMTAP	38	336	3
NMSTR	39	0	5
NMSI_	39	0	5	96	48	7
NMTAP	39	96	4
NMSTR	39	192	3
NMSI_	39	192	3	96	48	1
NMSTR	39	288	4
NMSXL	39	288	4	96	192	7
EXTAP	40	0	0
NMHLD	40	144	1	144
EXSTR	40	288	7
NMSI_	40	288	7	96	48	5
NMTAP	41	0	1
NMTAP	41	48	2
NMTAP	41	96	3
NMTAP	41	144	4
NMTAP	41	192	5
NMTAP	41	240	4
NMTAP	41	288	3
NMTAP	41	336	2
NMHLD	42	0	1	96
NMTAP	42	96	3
NMTAP	42	144	3
NMSTR	42	192	2
NMSCL	42	192	2	96	48	0
NMTAP	42	288	3
NMSTR	43	0	4
NMSCR	43	0	4	96	48	6
NMTAP	43	96	3
NMTAP	43	192	2
NMSTR	43	288	1
NMSI_	43	288	1	96	48	5
NMSTR	44	0	6
NMSCR	44	0	6	96	48	1
NMTAP	44	96	4
NMSTR	44	144	3
NMSI_	44	144	3	96	48	0
NMTAP	44	240	4
NMSTR	44	288	5
NMSCR	44	288	5	96	48	0
NMHLD	45	0	1	192
NMHLD	45	192	3	96
NMHLD	45	288	4	96
NMHLD	46	0	6	192
NMTTP	46	96	5	E	0	M1
NMHLD	46	192	2	192
NMTTP	46	288	3	B	0	M1
NMHLD	47	0	5	192
NMTTP	47	96	4	B	0	M1
NMHLD	47	192	1	192
NMTTP	47	288	3	E	0	M1
NMSTR	48	0	4
NMSCR	48	0	4	96	48	7
NMTAP	48	96	2
NMSTR	48	192	0
NMSCR	48	192	0	96	48	3
NMTAP	48	288	6
NMSTR	49	0	7
NMSI_	49	0	7	96	48	4
NMTAP	49	96	2
NMSTR	49	192	3
NMSI_	49	192	3	96	48	0
NMSI_	49	192	3	96	48	6
EXTAP	50	0	7
EXTAP	50	24	7
EXTAP	50	48	7
BRTAP	50	96	0
BRTAP	50	96	6
NMSTR	50	192	1
NMSI_	50	192	1	96	48	5
NMTAP	50	192	5
NMTAP	50	288	6
NMTAP	50	336	6
NMSTR	51	48	7
NMSI_	51	48	7	96	48	3
NMSTR	51	144	2
NMSCR	51	144	2	96	48	5
NMTAP	51	144	7
NMTAP	51	240	2
EXHLD	52	0	7	96
NMTAP	52	96	1
NMTAP	52	192	2
NMSTR	52	192	6
NMSI_	52	192	6	96	48	2
NMTAP	52	288	1
NMTAP	52	336	1
NMSTR	53	48	0
NMSI_	53	48	0	96	48	4
NMTAP	53	48	3
NMTAP	53	144	0
NMSTR	53	144	5
NMSCL	53	144	5	96	48	2
NMTAP	53	240	5
EXTAP	54	0	0
NMTAP	54	96	1
NMTAP	54	96	3
NMTAP	54	192	3
NMTAP	54	192	4
NMTAP	54	288	4
NMTAP	54	288	6
NMTAP	54	336	4
NMTAP	54	336	6
NMTAP	55	48	3
NMTAP	55	48	5
NMTAP	55	96	3
NMTAP	55	96	5
NMTAP	55	192	2
NMTAP	55	288	2
NMSTR	55	288	3
NMSCR	55	288	3	96	96	7
NMSTR	56	96	4
NMSCL	56	96	4	96	96	0
NMSTR	56	288	3
NMSCR	56	288	3	96	96	7
NMSTR	57	96	4
NMSCL	57	96	4	96	96	0
NMTAP	57	288	3
NMHLD	58	0	5	96
NMTAP	58	96	7
NMHLD	58	144	7	96
NMTAP	58	240	0
NMHLD	58	288	0	96
NMTAP	59	0	2
NMHLD	59	48	2	96
NMTAP	59	144	4
NMTAP	59	192	4
NMTAP	59	288	1
NMTAP	59	288	5
EXHLD	60	0	2	48
EXHLD	60	144	0	48
EXHLD	60	288	7	48
EXHLD	61	48	5	48
EXTAP	61	192	3
NMTAP	61	288	3
NMTAP	61	288	5
NMHLD	62	0	1	96
NMTAP	62	96	3
NMSTR	62	144	3
NMSI_	62	144	3	96	48	7
NMSTR	62	240	1
NMSI_	62	240	1	96	48	5
NMSTR	62	336	6
NMSI_	62	336	6	96	48	2
NMSTR	63	48	4
NMSSL	63	48	4	96	144	0
EXTAP	64	0	0
EXTAP	64	24	1
EXTAP	64	48	7
EXTAP	64	72	6
EXTAP	64	96	0
EXTAP	64	120	1
EXTAP	64	144	7
EXTAP	64	168	6
EXTAP	64	192	0
EXTAP	64	216	1
EXTAP	64	240	7
EXTAP	64	264	6
EXTAP	64	288	0
EXTAP	64	312	1
EXTAP	64	336	7
EXTAP	64	360	6
EXTAP	65	0	0
BXHLD	65	24	1	168
BXHLD	65	48	7	144
NMTTP	65	204	3	D	0	M1
NMTTP	65	204	6	D	0	M1
NMTTP	65	216	3	A	0	M1
NMTTP	65	216	5	A	0	M1
NMTTP	65	228	4	D	0	M1
NMTTP	65	228	5	D	0	M1
NMTTP	65	240	4	A	0	M1
NMSTR	66	0	6
NMSCL	66	0	6	96	48	3
NMTAP	66	96	3
NMHLD	66	144	2	96
NMTAP	66	240	4
NMTAP	66	288	5
NMTAP	66	336	5
NMTAP	67	0	4
NMTAP	67	0	5
NMTAP	67	96	6
NMTAP	67	96	7
NMSTR	67	192	0
NMSCR	67	192	0	96	48	3
NMTAP	67	192	5
NMTAP	67	288	6
NMSTR	68	0	7
NMSCL	68	0	7	96	48	4
NMTAP	68	96	3
NMHLD	68	144	2	96
NMTAP	68	240	3
NMTAP	68	288	3
NMTAP	69	0	2
NMTAP	69	0	3
NMTAP	69	96	0
NMTAP	69	96	1
NMTAP	69	192	6
NMTAP	69	192	7
NMTAP	69	288	4
NMTAP	69	288	5
NMHLD	70	0	3	96
NMHLD	70	0	6	96
NMSTR	70	192	7
NMSCL	70	192	7	96	96	4
NMSTR	70	288	4
NMSI_	70	288	4	96	96	0
NMSTR	71	0	0
NMSCR	71	0	0	96	96	3
NMSTR	71	96	3
NMSI_	71	96	3	96	96	7
NMTAP	71	192	7
NMTAP	71	288	0
NMTAP	72	0	1
NMTAP	72	0	6
NMSTR	72	96	3
NMSI_	72	96	3	96	48	0
NMSTR	72	96	4
NMSI_	72	96	4	96	48	7
CNSI_	72	240	0	0	48	2
CNSI_	72	240	7	0	48	5
CNSV_	72	288	2	0	96	1
CNSV_	72	288	5	0	96	6
EXTAP	73	96	0
EXTAP	73	96	7
NMTAP	73	192	2
NMTAP	73	192	5
NMTAP	73	288	3
NMTAP	73	288	4
NMSTR	74	0	2
NMSCL	74	0	2	96	48	7
NMTAP	74	96	7
NMHLD	74	144	6	96
NMTAP	74	240	0
NMTAP	74	288	1
NMTAP	74	336	2
NMTAP	75	0	2
NMTAP	75	0	3
NMTAP	75	96	2
NMTAP	75	96	3
NMTAP	75	192	1
NMSTR	75	192	4
NMSCR	75	192	4	96	48	7
NMTAP	75	288	2
NMSTR	76	0	3
NMSCL	76	0	3	96	48	0
NMTAP	76	96	7
NMHLD	76	144	6	96
NMTAP	76	240	7
NMTAP	76	288	7
NMTAP	77	0	6
NMTAP	77	0	7
NMTAP	77	96	4
NMTAP	77	96	5
NMTAP	77	192	2
NMTAP	77	192	3
NMSTR	77	288	0
NMSI_	77	288	0	96	48	3
NMSI_	77	288	0	96	48	5
NMTAP	77	288	1
BRTAP	78	0	0
NMSTR	78	192	6
NMSI_	78	192	6	96	96	4
NMSTR	78	288	4
NMSI_	78	288	4	96	96	0
NMSTR	79	0	0
NMSI_	79	0	0	96	96	2
NMSTR	79	96	2
NMSI_	79	96	2	96	96	6
NMTAP	79	192	6
NMSTR	79	288	0
BRSI_	79	288	0	96	1	4
EXTAP	80	0	0
NMSTR	80	0	5
NMSCR	80	0	5	96	96	1
NMSTR	80	96	1
NMSCL	80	96	1	96	96	5
NMTAP	80	192	3
NMSTR	80	288	2
NMSXL	80	288	2	96	192	3
NMSLL	80	288	2	96	192	3
EXTAP	81	288	2
EXTAP	81	288	4
NMTAP	82	0	1
NMTAP	82	32	3
NMTAP	82	64	2
NMTAP	82	96	6
NMTAP	82	128	4
NMTAP	82	160	5
NMTAP	82	192	2
NMTAP	82	224	3
NMTAP	82	256	1
NMTAP	82	288	5
NMTAP	82	320	4
NMTAP	82	352	6
EXSTR	83	0	1
NMSCR	83	0	1	96	48	3
EXTAP	83	32	1
EXSTR	83	96	7
NMSCL	83	96	7	96	48	5
EXTAP	83	128	7
EXSTR	83	192	4
NMSI_	83	192	4	96	48	0
EXTAP	83	224	4
EXTAP	83	288	7
NMHLD	84	0	6	64
NMTAP	84	64	4
NMTAP	84	96	4
NMTAP	84	128	5
NMTAP	84	160	3
NMTAP	84	192	6
NMTAP	84	224	4
NMTAP	84	256	5
NMTAP	84	288	1
NMTAP	84	320	3
NMTAP	84	352	2
NMTAP	85	0	6
NMTAP	85	32	4
NMTAP	85	64	5
EXSTR	85	96	3
NMSI_	85	96	3	96	48	0
NMSI_	85	96	3	96	48	6
EXTAP	85	128	3
EXTAP	85	288	1
EXTAP	85	288	5
NMTAP	86	0	6
NMTAP	86	32	4
NMTAP	86	64	5
NMTAP	86	96	1
NMTAP	86	128	3
NMTAP	86	160	2
NMTAP	86	192	5
NMTAP	86	224	4
NMTAP	86	256	6
NMTAP	86	288	2
NMTAP	86	320	3
NMTAP	86	352	1
EXSTR	87	0	6
NMSI_	87	0	6	96	48	4
EXTAP	87	32	6
EXSTR	87	96	0
NMSI_	87	96	0	96	48	2
EXTAP	87	128	0
EXSTR	87	192	7
NMSI_	87	192	7	96	48	3
EXTAP	87	224	7
EXTAP	87	288	0
NMHLD	88	0	1	64
NMTAP	88	64	3
NMTAP	88	96	3
NMTAP	88	128	2
NMTAP	88	160	4
NMTAP	88	192	1
NMTAP	88	224	3
NMTAP	88	256	2
NMTAP	88	288	6
NMTAP	88	320	4
NMTAP	88	352	5
NMTAP	89	0	1
NMTAP	89	32	0
NMTAP	89	64	2
NMTAP	89	96	6
NMTAP	89	128	7
NMTAP	89	160	5
EXSTR	89	192	0
NMSI_	89	192	0	96	48	3
EXTAP	89	224	0
NMTAP	89	288	6
EXSTR	90	0	7
NMSLL	90	0	7	96	96	3
EXTAP	90	32	7
EXSTR	90	96	3
NMSLL	90	96	3	96	96	7
EXTAP	90	128	3
EXTAP	90	192	7
EXTAP	90	288	3
NMTAP	91	0	1
NMTAP	91	32	3
NMTAP	91	64	2
NMTAP	91	96	3
NMTAP	91	128	2
NMTAP	91	160	3
NMTAP	91	192	1
NMTAP	91	224	3
NMTAP	91	256	2
NMTAP	91	288	3
NMTAP	91	320	2
NMTAP	91	352	3
EXSTR	92	0	0
NMSI_	92	0	0	96	48	4
EXTAP	92	32	0
NMTAP	92	96	4
NMTAP	92	192	5
NMTAP	92	224	4
NMTAP	92	256	6
NMTAP	92	288	2
NMTAP	92	320	3
NMTAP	92	352	1
NMTAP	93	0	6
NMTAP	93	32	4
NMTAP	93	64	5
NMTAP	93	96	1
NMTAP	93	128	3
NMTAP	93	160	2
NMTAP	93	192	5
NMTAP	93	224	4
NMTAP	93	256	5
NMTAP	93	288	2
NMTAP	93	320	3
NMTAP	93	352	2
EXSTR	94	0	5
NMSI_	94	0	5	96	48	0
EXTAP	94	32	5
EXSTR	94	96	1
NMSI_	94	96	1	96	48	4
EXTAP	94	128	1
EXSTR	94	192	6
NMSI_	94	192	6	96	48	3
EXTAP	94	224	6
EXTAP	94	288	2
EXTAP	94	320	2
NMTAP	95	0	1
NMTAP	95	32	0
NMTAP	95	64	1
NMTAP	95	96	6
NMTAP	95	128	7
NMTAP	95	160	6
NMHLD	95	192	1	64
NMTAP	95	256	7
NMTAP	95	288	7
NMTAP	95	320	4
NMTAP	95	352	5
NMTAP	96	0	2
NMTAP	96	32	3
NMTAP	96	64	1
NMTAP	96	96	5
NMTAP	96	128	4
NMTAP	96	160	6
EXSTR	96	192	3
NMSV_	96	192	3	96	48	0
NMSV_	96	192	3	96	48	6
EXTAP	96	224	3
EXSTR	97	0	7
NMSI_	97	0	7	96	48	3
EXTAP	97	32	7
EXSTR	97	96	0
NMSI_	97	96	0	96	48	2
EXTAP	97	128	0
EXSTR	97	192	6
NMSI_	97	192	6	96	48	4
EXTAP	97	224	6
EXTAP	97	288	3
EXTAP	98	0	3
NMTAP	98	32	3
NMTAP	98	64	3
NMTAP	98	96	3
NMTAP	98	128	3
NMTAP	98	160	3
NMTAP	98	192	3
NMTAP	98	224	3
NMTAP	98	256	3
NMTAP	98	288	3
NMTAP	98	320	3
NMTAP	98	352	3
BXTAP	99	0	2
BXTAP	99	0	3
BXTAP	99	96	0
BXTAP	99	96	1
BXTAP	99	192	6
BXTAP	99	192	7
BXTAP	99	288	4
BXTAP	99	288	5
NMTAP	100	0	5
NMTAP	100	32	5
NMTAP	100	64	5
NMTAP	100	96	5
NMTAP	100	128	5
NMTAP	100	160	5
NMTAP	100	192	5
NMTAP	100	224	5
NMTAP	100	256	5
NMTAP	100	288	5
NMTAP	100	320	5
NMTAP	100	352	5
BXTAP	101	0	4
BXTAP	101	0	5
BXTAP	101	96	6
BXTAP	101	96	7
BXTAP	101	192	2
BXTAP	101	192	3
BXTAP	101	288	0
BXTAP	101	288	1
NMTAP	102	0	1
NMTAP	102	32	1
NMTAP	102	64	1
NMTAP	102	96	1
NMTAP	102	128	1
NMTAP	102	160	1
NMTAP	102	192	1
NMTAP	102	224	1
NMTAP	102	256	1
NMTAP	102	288	1
NMTAP	102	320	1
NMTAP	102	352	1
BXTAP	103	0	0
BXTAP	103	0	1
BXTAP	103	96	2
BXTAP	103	96	3
BXTAP	103	192	4
BXTAP	103	192	5
BXTAP	103	288	6
BXTAP	103	288	7
NMTAP	104	0	7
NMTAP	104	32	7
NMTAP	104	64	7
NMTAP	104	96	7
NMTAP	104	128	7
NMTAP	104	160	7
NMTAP	104	192	7
NMTAP	104	224	7
NMTAP	104	256	7
NMTAP	104	288	7
NMTAP	104	320	7
NMTAP	104	352	7
BXTAP	105	0	0
BXTAP	105	0	7
NMSTR	105	96	0
NMSI_	105	96	0	96	48	3
NMSTR	105	96	7
NMSI_	105	96	7	96	48	4
NMTAP	105	192	0
NMTAP	105	192	7
EXTAP	105	288	2
EXTAP	105	288	5
NMTAP	106	0	2
NMTAP	106	32	4
NMTAP	106	64	2
NMTAP	106	96	4
NMTAP	106	128	2
NMTAP	106	160	4
NMTAP	106	192	2
NMTAP	106	224	3
NMTAP	106	256	2
NMTAP	106	288	3
NMTAP	106	320	2
NMTAP	106	352	3
NMTAP	107	0	2
NMTAP	107	32	1
NMTAP	107	64	2
NMTAP	107	96	1
NMTAP	107	128	2
NMTAP	107	160	1
NMTAP	107	192	2
NMTAP	107	224	3
NMTAP	107	256	2
NMTAP	107	288	3
EXTAP	107	320	1
EXTAP	107	352	1
NMTAP	108	0	5
NMTAP	108	32	3
NMTAP	108	64	5
NMTAP	108	96	3
NMTAP	108	128	5
NMTAP	108	160	3
NMTAP	108	192	5
NMTAP	108	224	4
NMTAP	108	256	5
NMTAP	108	288	4
NMTAP	108	320	5
NMTAP	108	352	4
NMTAP	109	0	5
NMTAP	109	32	6
NMTAP	109	64	5
NMTAP	109	96	6
NMTAP	109	128	5
NMTAP	109	160	6
NMTAP	109	192	5
NMTAP	109	224	4
NMTAP	109	256	5
NMTAP	109	288	4
EXTAP	109	320	6
EXTAP	109	352	6
NMTAP	110	0	1
NMTAP	110	32	4
NMTAP	110	64	1
NMTAP	110	96	4
NMTAP	110	128	1
NMTAP	110	160	4
NMTAP	110	192	1
NMTAP	110	224	2
NMTAP	110	256	1
NMTAP	110	288	2
NMTAP	110	320	1
NMTAP	110	352	2
NMTAP	111	0	1
NMTAP	111	32	0
NMTAP	111	64	1
NMTAP	111	96	0
NMTAP	111	128	1
NMTAP	111	160	0
NMTAP	111	192	1
NMTAP	111	224	6
NMTAP	111	256	1
NMTAP	111	288	6
EXTAP	111	320	2
EXTAP	111	352	2
NMTAP	112	0	5
NMTAP	112	32	4
NMTAP	112	64	5
NMTAP	112	96	4
NMTAP	112	128	5
NMTAP	112	160	4
NMTAP	112	192	5
NMTAP	112	224	6
NMTAP	112	256	5
NMTAP	112	288	6
NMTAP	112	320	5
NMTAP	112	352	6
NMTAP	113	0	5
NMTAP	113	32	0
NMTAP	113	64	5
NMTAP	113	96	0
NMTAP	113	128	5
NMTAP	113	160	0
NMTAP	113	192	5
NMTAP	113	224	2
NMTAP	113	256	5
NMTAP	113	288	2
NMTAP	113	320	5
NMTAP	113	352	2
NMSTR	114	0	6
NMSCL	114	0	6	96	192	3
NMSTR	115	0	1
NMSCR	115	0	1	96	192	4
NMSTR	116	0	6
NMSCL	116	0	6	96	192	3
NMTAP	117	0	1
NMTAP	117	192	2
NMTAP	117	192	3
NMHLD	118	0	2	192
NMTAP	118	192	4
NMHLD	119	0	5	192
NMTAP	119	192	3
NMTAP	120	0	2
NMTAP	120	96	2
NMTAP	120	96	4
NMTAP	120	192	5
NMTAP	120	288	3
NMTAP	120	288	5
NMTAP	121	0	2
NMTAP	121	48	2
NMTAP	121	96	4
NMTAP	121	144	4
NMTAP	121	192	3
NMTAP	121	240	3
NMTAP	121	288	4
NMTAP	121	336	4
NMTAP	122	0	2
NMTAP	122	24	5
NMTAP	122	48	1
NMTAP	122	72	5
NMTAP	122	96	1
NMTAP	122	120	5
NMTAP	122	144	1
NMTAP	122	168	5
NMTAP	122	192	1
NMTAP	122	216	5
NMTAP	122	240	1
NMTAP	122	264	5
NMTAP	122	288	1
NMTAP	122	312	5
NMTAP	122	336	1
NMTAP	122	360	5
NMTAP	123	0	1
NMTAP	123	24	5
NMTAP	123	48	1
NMTAP	123	72	5
NMTAP	123	96	1
NMTAP	123	120	5
NMTAP	123	144	1
NMTAP	123	168	5
NMTAP	123	192	1
NMTAP	123	216	5
NMTAP	123	240	1
NMTAP	123	264	5
NMTAP	123	288	1
NMTAP	123	312	5
NMTAP	123	336	1
NMTAP	123	360	5
NMTAP	124	0	0
NMTAP	124	24	5
NMTAP	124	48	0
NMTAP	124	72	5
NMTAP	124	96	0
NMTAP	124	120	5
NMTAP	124	144	0
NMTAP	124	168	5
NMTAP	124	192	0
NMTAP	124	216	5
NMTAP	124	240	0
NMTAP	124	264	5
NMTAP	124	288	0
NMTAP	124	312	5
NMTAP	124	336	0
NMTAP	124	360	5
NMTAP	125	0	0
NMTAP	125	24	5
NMTAP	125	48	0
NMTAP	125	72	5
NMTAP	125	96	0
NMTAP	125	120	5
NMTAP	125	144	0
NMTAP	125	168	5
NMTAP	125	192	0
NMTAP	125	216	5
NMTAP	125	240	0
NMTAP	125	264	5
NMTAP	125	288	2
NMTAP	126	0	0
NMTAP	126	24	4
NMTAP	126	48	7
NMTAP	126	72	4
NMTAP	126	96	7
NMTAP	126	120	4
NMTAP	126	144	7
NMTAP	126	168	4
NMTAP	126	192	7
NMTAP	126	216	4
NMTAP	126	240	7
NMTAP	126	264	4
NMTAP	126	288	7
NMTAP	126	312	4
NMTAP	126	336	7
NMTAP	126	360	4
NMTAP	127	0	7
NMTAP	127	24	4
NMTAP	127	48	7
NMTAP	127	72	4
NMTAP	127	96	7
NMTAP	127	120	4
NMTAP	127	144	7
NMTAP	127	168	4
NMTAP	127	192	7
NMTAP	127	216	4
NMTAP	127	240	7
NMTAP	127	264	4
NMTAP	127	288	7
NMTAP	127	312	4
NMTAP	127	336	7
NMTAP	127	360	4
NMTAP	128	0	6
NMTAP	128	24	4
NMTAP	128	48	6
NMTAP	128	72	4
NMTAP	128	96	6
NMTAP	128	120	4
NMTAP	128	144	6
NMTAP	128	168	4
NMTAP	128	192	6
NMTAP	128	216	4
NMTAP	128	240	6
NMTAP	128	264	4
NMTAP	128	288	6
NMTAP	128	312	4
NMTAP	128	336	6
NMTAP	128	360	4
NMTAP	129	0	6
NMTAP	129	24	4
NMTAP	129	48	6
NMTAP	129	72	4
NMTAP	129	96	6
NMTAP	129	120	4
NMTAP	129	144	6
NMTAP	129	168	4
NMTAP	129	192	6
NMTAP	129	216	4
NMTAP	129	240	6
NMTAP	129	264	4
BRSTR	129	288	0
NMSI_	129	288	0	96	768	4
NMTHO	130	0	0	1680	C	0	M1
CNSI_	132	0	4	0	768	0
NMTTP	134	168	0	C	0	M1
NMTTP	134	168	1	B	0	M1
NMTTP	134	168	1	A	0	M1
NMTTP	134	168	3	B	0	M1
NMTTP	134	168	3	A	0	M1
NMTTP	134	168	5	B	0	M1
NMTTP	134	168	5	A	0	M1
NMTTP	134	168	7	B	0	M1
NMTTP	134	168	7	A	0	M1

T_REC_TAP	664
T_REC_BRK	5
T_REC_XTP	72
T_REC_BXX	26
T_REC_HLD	43
T_REC_XHO	6
T_REC_BHO	0
T_REC_BXH	2
T_REC_STR	71
T_REC_BST	5
T_REC_XST	21
T_REC_XBS	0
T_REC_TTP	20
T_REC_THO	1
T_REC_SLD	102
T_REC_BSL	1
T_REC_ALL	1039
T_NUM_TAP	848
T_NUM_BRK	39
T_NUM_HLD	50
T_NUM_SLD	102
T_NUM_ALL	1039
T_JUDGE_TAP	884
T_JUDGE_HLD	82
T_JUDGE_SLD	103
T_JUDGE_ALL	1069
TTM_EACHPAIRS	88
TTM_SCR_TAP	424000
TTM_SCR_BRK	101400
TTM_SCR_HLD	50000
TTM_SCR_SLD	153000
TTM_SCR_ALL	728400
TTM_SCR_S	702800
TTM_SCR_SS	724500
TTM_RAT_ACV	10053

