VERSION	0.00.00	1.04.00
FES_MODE	0
BPM_DEF	240.000	240.000	240.000	240.000
MET_DEF	4	4
RESOLUTION	384
CLK_DEF	384
COMPATIBLE_CODE	MA2

BPM	0	0	240.000
MET	0	0	4	4

NMHLD	2	0	4	384
NMHLD	3	0	3	384
NMHLD	4	0	5	192
NMHLD	4	192	4	192
NMHLD	5	0	3	192
NMHLD	5	192	2	192
NMTAP	6	0	4
NMTAP	6	96	4
NMTAP	6	192	4
NMTAP	6	288	4
NMTAP	7	0	2
NMTAP	7	96	2
NMTAP	7	192	2
NMTAP	7	288	2
NMTAP	8	0	1
NMTAP	8	96	1
NMTAP	8	192	1
NMTAP	8	288	0
NMTAP	8	288	1
NMTAP	9	0	6
NMTAP	9	96	6
NMTAP	9	192	6
NMTAP	9	288	6
NMTAP	9	288	7
NMTAP	10	0	5
NMTAP	10	96	4
NMTAP	10	96	5
NMTAP	10	192	5
NMTAP	10	288	4
NMTAP	10	288	6
NMTAP	11	0	2
NMTAP	11	96	2
NMTAP	11	96	3
NMTAP	11	192	2
NMTAP	11	288	1
NMTAP	11	288	3
NMTAP	12	0	6
NMTAP	12	96	6
NMTAP	12	96	7
NMTAP	12	192	6
NMTAP	12	288	5
NMTAP	12	288	7
NMTAP	13	0	1
NMTAP	13	96	0
NMTAP	13	96	1
NMTAP	13	192	1
NMTAP	13	288	0
NMTAP	13	288	2
NMTAP	14	0	2
NMTAP	14	96	2
NMTAP	14	96	3
NMTAP	14	192	1
NMTAP	14	288	0
NMTAP	14	288	1
NMTAP	15	0	6
NMTAP	15	96	6
NMTAP	15	96	7
NMTAP	15	192	5
NMTAP	15	288	4
NMTAP	15	288	5
NMTAP	16	0	6
NMTAP	16	96	7
NMTAP	16	192	0
NMTAP	16	288	1
NMTAP	17	0	2
NMTAP	17	96	3
NMTAP	17	192	3
NMTAP	17	192	4
BRTAP	17	288	1
BRTAP	17	288	6
NMHLD	18	0	1	144
NMHLD	18	144	2	144
NMTAP	18	288	3
NMSTR	19	0	4
NMSCR	19	0	4	96	96	7
NMHLD	20	0	6	144
NMHLD	20	144	4	144
NMTAP	20	288	3
NMTTP	21	0	2	B	0	M1
NMTTP	21	96	3	B	0	M1
NMTTP	21	192	4	B	0	M1
NMTTP	21	288	5	B	0	M1
NMHLD	22	0	6	144
NMHLD	22	144	7	144
NMTAP	22	288	0
NMSTR	23	0	1
NMSUL	23	0	1	96	192	4
NMSTR	24	0	6
NMSI_	24	0	6	96	48	3
NMSTR	24	192	1
NMSI_	24	192	1	96	48	4
NMSTR	25	0	7
NMSI_	25	0	7	96	48	3
NMTAP	25	192	0
NMTAP	25	288	0
NMTTP	26	0	1	E	0	M1
NMTTP	26	96	1	B	0	M1
NMTTP	26	192	2	B	0	M1
NMTTP	26	288	3	E	0	M1
NMTAP	27	0	4
NMTAP	27	96	4
NMTAP	27	192	3
NMTAP	27	192	5
NMTTP	28	0	5	E	0	M1
NMTTP	28	96	5	B	0	M1
NMTTP	28	192	6	B	0	M1
NMTTP	28	288	7	E	0	M1
NMTAP	29	0	0
NMTAP	29	96	0
NMTAP	29	192	1
NMTAP	29	192	7
NMTAP	30	0	0
NMTAP	30	96	1
NMTAP	30	192	2
NMTAP	30	288	2
NMTAP	30	288	3
NMTAP	31	0	4
NMTAP	31	96	5
NMTAP	31	192	6
NMTAP	31	288	6
NMTAP	31	288	7
NMHLD	32	0	6	96
NMHLD	32	0	7	96
NMHLD	32	192	0	96
NMHLD	32	192	1	96
NMTAP	33	0	0
NMTAP	33	0	7
NMTAP	33	96	1
NMTAP	33	96	6
BRTAP	33	192	2
BRTAP	33	192	5
NMTAP	34	0	3
EXTAP	34	96	2
NMHLD	34	144	2	336
NMTAP	34	288	3
NMTAP	35	96	4
NMTAP	35	192	5
NMTAP	35	288	5
EXTAP	36	0	4
EXTAP	36	0	6
EXTAP	36	144	3
EXTAP	36	144	4
NMSTR	36	288	1
NMSCR	36	288	1	96	192	4
EXTAP	36	288	3
NMTAP	37	288	5
NMTAP	38	0	6
NMHLD	38	48	6	336
NMTAP	38	288	0
EXSTR	39	0	1
NMSCR	39	0	1	96	96	4
NMSTR	39	192	5
NMSCR	39	192	5	96	96	0
NMTAP	40	0	1
EXTAP	40	144	2
EXTAP	40	288	2
EXTAP	40	288	3
NMTAP	41	0	1
NMTAP	41	0	4
NMTTP	41	96	2	E	0	M1
NMTTP	41	192	2	B	0	M1
NMTTP	41	288	3	B	0	M1
NMTAP	42	0	4
NMTAP	42	96	5
NMHLD	42	144	5	336
NMTAP	42	288	4
NMTAP	43	96	6
NMTAP	43	192	7
NMTAP	43	288	7
EXTAP	44	0	6
EXTAP	44	0	7
EXTAP	44	144	0
EXTAP	44	144	7
EXTAP	44	288	0
EXTAP	44	288	1
EXTAP	45	0	0
NMHLD	45	0	1	192
NMTAP	45	192	2
NMSTR	45	288	3
NMSCR	45	288	3	96	96	6
EXTAP	46	288	6
NMHLD	47	0	6	96
NMHLD	47	0	7	96
NMHLD	47	192	4	96
NMHLD	47	192	5	96
NMSTR	48	0	5
NMSI_	48	0	5	96	96	0
NMSTR	48	192	1
NMSI_	48	192	1	96	96	4
NMSTR	49	0	6
NMSI_	49	0	6	96	96	3
BRHLD	49	192	2	384
NMTAP	50	96	4
NMTAP	50	192	3
NMTAP	50	288	2
NMHLD	50	336	2	96
NMTAP	51	48	3
NMTAP	51	144	3
NMTAP	51	144	4
NMTAP	51	240	4
NMHLD	51	240	5	240
NMTAP	52	96	3
NMTAP	52	192	4
NMTAP	52	288	6
NMHLD	52	336	6	96
NMTAP	53	48	4
NMTAP	53	144	3
NMTAP	53	144	4
NMHLD	53	240	1	336
NMTAP	53	240	3
NMTAP	54	96	4
NMTAP	54	192	3
NMTAP	54	288	2
NMTAP	54	336	2
NMTAP	55	48	1
NMTAP	55	48	3
NMTAP	55	192	2
NMTAP	55	288	1
NMSTR	56	0	0
NMSI_	56	0	0	96	96	4
NMSTR	56	192	6
NMSI_	56	192	6	96	96	3
NMSTR	57	0	2
NMSI_	57	0	2	96	96	7
NMTAP	57	192	6
NMHLD	58	0	6	96
NMHLD	58	0	7	96
NMHLD	58	144	6	96
NMHLD	58	144	7	96
NMHLD	58	288	4	96
NMHLD	58	288	5	96
NMTAP	59	48	4
NMHLD	59	48	5	240
NMTAP	59	192	3
NMTAP	59	288	2
EXHLD	60	0	2	96
EXHLD	60	0	3	96
NMTAP	60	144	3
NMSTR	60	144	4
NMSCR	60	144	4	96	144	7
NMTAP	61	96	0
NMTAP	61	96	7
NMTAP	61	192	1
NMTAP	61	192	6
NMTAP	61	288	2
NMTAP	61	288	5
NMTAP	62	0	3
NMTAP	62	96	2
NMTAP	62	96	4
NMTAP	62	144	2
NMTAP	62	144	4
NMTAP	62	240	1
NMTAP	62	240	3
NMTAP	62	336	0
NMTAP	62	336	2
NMTAP	63	48	1
NMSTR	63	144	0
NMSLL	63	144	0	96	336	3
NMSTR	63	144	7
NMSLR	63	144	7	96	336	4
NMTAP	65	0	2
NMTAP	65	0	5
NMTTP	65	192	0	C	0	M1
NMTAP	66	0	1
NMTAP	66	0	7
NMTAP	66	96	0
NMTAP	66	144	0
NMTAP	66	240	6
NMHLD	66	288	6	96
NMTAP	67	0	3
NMTAP	67	96	2
NMTAP	67	96	5
NMTAP	67	192	1
NMTAP	67	192	4
EXTAP	67	288	2
EXTAP	67	336	3
EXTAP	68	0	2
NMTAP	68	96	5
NMHLD	68	144	5	624
NMTAP	68	240	3
NMTAP	68	288	3
NMTAP	69	0	4
NMTAP	69	96	4
NMTAP	69	192	6
NMTAP	69	288	7
BRTAP	70	0	0
NMTAP	70	192	0
NMTAP	70	288	1
NMTAP	71	0	2
NMTAP	71	0	3
EXTAP	71	144	3
EXTAP	71	144	4
NMTAP	71	288	4
NMTAP	71	288	5
NMTAP	72	0	6
NMTAP	72	96	0
NMTAP	72	96	7
NMTAP	72	192	1
NMTAP	72	288	0
NMTAP	72	288	7
NMTAP	72	336	0
NMTAP	72	336	7
NMTTP	73	96	1	E	0	M1
NMTTP	73	96	7	E	0	M1
NMTTP	73	192	2	E	0	M1
NMTTP	73	192	6	E	0	M1
NMTTP	73	288	3	E	0	M1
NMTTP	73	288	5	E	0	M1
EXHLD	74	0	4	144
NMHLD	74	144	2	144
NMTAP	74	288	3
NMTAP	75	0	2
NMTAP	75	0	3
NMTAP	75	96	4
NMTAP	75	192	1
NMTAP	75	192	5
NMTAP	75	288	0
NMTAP	75	336	7
NMTAP	76	0	0
NMTAP	76	96	1
NMTAP	76	144	1
NMTAP	76	240	3
NMTAP	76	288	3
NMTAP	77	0	4
NMTAP	77	96	4
NMTAP	77	96	5
NMTTP	77	192	4	E	1	M1
NMTTP	77	192	6	E	0	M1
NMTTP	77	288	3	E	1	M1
NMTTP	77	288	7	E	0	M1
NMTTP	78	0	0	E	0	M1
NMTTP	78	0	2	E	1	M1
NMTAP	78	192	0
NMTAP	78	288	7
NMHLD	79	0	6	144
EXTAP	79	144	4
EXTAP	79	288	2
EXTAP	79	288	4
NMTAP	80	0	1
NMTAP	80	96	1
NMTAP	80	96	3
NMTAP	80	192	0
NMTAP	80	192	7
EXTAP	80	288	4
EXTAP	80	288	6
EXTAP	80	336	4
EXTAP	80	336	6
NMTAP	81	96	4
NMTAP	81	96	5
NMTAP	81	192	3
NMTAP	81	192	4
NMTAP	81	288	2
NMTAP	81	288	3
NMTAP	82	0	1
NMTAP	82	96	1
NMTAP	82	96	3
NMTAP	82	192	6
NMTAP	82	288	4
NMTAP	82	288	6
NMTAP	83	0	1
NMTAP	83	96	0
NMTAP	83	96	1
NMTAP	83	192	6
NMTAP	83	288	6
NMTAP	83	288	7
NMTAP	84	0	2
NMTAP	84	96	1
NMTAP	84	96	3
NMTAP	84	192	5
NMTAP	84	288	4
NMTAP	84	288	6
NMTAP	85	0	1
NMTAP	85	96	0
NMTAP	85	96	2
NMTAP	85	192	6
NMTAP	85	288	5
NMTAP	85	288	7
NMTAP	86	0	4
NMTAP	86	96	2
NMTAP	86	96	6
NMTAP	86	192	3
NMTAP	86	288	1
NMTAP	86	288	5
NMTAP	87	0	4
NMTAP	87	96	1
NMTAP	87	96	7
NMTAP	87	192	3
NMTAP	87	288	0
NMTAP	87	288	6
NMSTR	88	0	5
NMSCR	88	0	5	96	96	0
NMSTR	88	192	1
NMSCR	88	192	1	96	96	4
NMTAP	89	0	5
NMTAP	89	96	6
BRTAP	89	192	0
BRTAP	89	192	7
NMHLD	90	0	1	192
NMTAP	90	96	3
NMHLD	90	192	3	192
NMTAP	90	288	5
NMHLD	91	0	5	192
NMTAP	91	96	7
NMTAP	91	192	7
NMTAP	91	288	6
NMHLD	92	0	6	192
NMTAP	92	96	5
NMHLD	92	192	4	192
NMTAP	92	288	3
NMHLD	93	0	2	192
NMTAP	93	96	1
NMTAP	93	192	0
NMTAP	93	288	0
NMHLD	94	0	2	96
NMTAP	94	96	3
NMHLD	94	192	5	96
NMTAP	94	288	4
NMHLD	95	0	2	96
NMTAP	95	96	0
NMHLD	95	192	5	96
NMTAP	95	288	7
NMHLD	96	0	1	96
NMTTP	96	96	3	E	0	M1
NMHLD	96	192	5	96
NMTTP	96	288	4	E	0	M1
NMHLD	97	0	2	96
NMTTP	97	96	1	E	0	M1
NMHLD	97	192	6	96
NMTTP	97	288	0	C	0	M1
NMTAP	98	0	0
NMTAP	98	0	1
NMTAP	98	96	0
NMTAP	98	96	1
NMTAP	98	192	2
NMTAP	98	192	3
NMTAP	98	288	4
NMTAP	98	288	5
NMTAP	99	0	6
NMTAP	99	0	7
NMTAP	99	96	6
NMTAP	99	96	7
NMTAP	99	192	4
NMTAP	99	192	5
NMTAP	99	288	2
NMTAP	99	288	3
NMTAP	100	0	1
NMTAP	100	0	3
NMTAP	100	96	1
NMTAP	100	192	3
NMTAP	100	192	5
NMTAP	100	288	6
NMTAP	101	0	2
NMTAP	101	0	3
NMTAP	101	96	0
NMTAP	101	192	4
NMTAP	101	192	6
NMTAP	101	288	7
NMTAP	102	0	0
NMTAP	102	0	1
NMTAP	102	96	0
NMTAP	102	96	1
NMTAP	102	192	2
NMTAP	102	192	3
NMTAP	102	288	3
NMTAP	102	288	5
NMTAP	103	0	3
NMTAP	103	0	5
NMTAP	103	96	2
NMTAP	103	96	6
NMTAP	103	192	1
NMTAP	103	192	7
NMSTR	103	288	7
NMSXR	103	288	7	96	192	7
NMSTR	104	192	0
NMSI_	104	192	0	96	48	3
NMTAP	105	0	7
NMTAP	105	96	7
BRTAP	105	192	0
BRTAP	105	192	6
NMTAP	106	0	1
NMTAP	106	0	3
NMTAP	106	96	1
NMTAP	106	96	3
NMTAP	106	192	0
NMTAP	106	192	7
NMTAP	106	288	4
NMTAP	106	288	6
NMTAP	107	0	3
NMTAP	107	0	4
NMTAP	107	96	1
NMTAP	107	96	3
NMTAP	107	192	0
NMTAP	107	192	7
NMTAP	107	288	4
NMTAP	107	288	6
NMTAP	108	0	3
NMTAP	108	0	5
NMTAP	108	96	0
NMTAP	108	192	2
NMTAP	108	192	4
NMTAP	108	288	7
NMTAP	109	0	4
NMTAP	109	0	5
NMTAP	109	96	0
NMTAP	109	192	2
NMTAP	109	192	3
NMTAP	109	288	7
NMTAP	110	0	1
NMTAP	110	0	5
NMTAP	110	96	2
NMTAP	110	96	4
NMTAP	110	192	0
NMTAP	110	192	6
NMTAP	110	288	3
NMTAP	110	288	5
NMTAP	111	0	1
NMTAP	111	0	7
NMTAP	111	96	4
NMTAP	111	96	5
NMTAP	111	192	0
NMTAP	111	192	6
NMTAP	111	288	2
NMTAP	111	288	3
NMTAP	112	0	4
NMTAP	112	0	5
NMTAP	112	96	6
NMTAP	112	96	7
NMTAP	112	192	0
NMTAP	112	192	1
NMTAP	112	288	2
NMTAP	112	288	3
NMTAP	113	0	4
NMTAP	113	0	5
NMTAP	113	96	6
NMTAP	113	96	7
NMTAP	113	192	0
NMTAP	113	192	1
NMTAP	113	288	2
NMTAP	113	288	3
NMSTR	114	0	2
NMSCR	114	0	2	96	96	5
NMTAP	114	192	6
NMSTR	115	0	6
NMSI_	115	0	6	96	96	3
NMTAP	115	192	2
NMSTR	116	0	2
NMSCL	116	0	2	96	96	7
NMTAP	116	192	6
NMSTR	117	0	6
NMSV_	117	0	6	96	96	3
NMTAP	117	192	2
NMSTR	118	0	2
NMSI_	118	0	2	96	48	5
NMSTR	118	192	6
NMSI_	118	192	6	96	48	1
NMSTR	119	0	2
NMSCR	119	0	2	96	48	5
NMSTR	119	192	6
NMSCR	119	192	6	96	48	1
NMSTR	120	0	3
NMSI_	120	0	3	96	48	0
NMSTR	120	192	7
NMSI_	120	192	7	96	48	4
NMTAP	121	0	3
NMTAP	121	96	3
NMTAP	121	192	1
NMTAP	121	192	6
NMTAP	122	0	2
NMTAP	122	48	2
EXTAP	122	96	3
NMTAP	122	192	0
NMTAP	122	192	5
EXTAP	122	288	2
EXTAP	122	288	3
NMTAP	123	0	5
NMTAP	123	48	5
EXTAP	123	96	4
NMTAP	123	192	2
NMTAP	123	192	7
NMTAP	123	288	4
NMTAP	123	288	5
NMTAP	124	0	2
NMTAP	124	48	2
EXTAP	124	96	2
EXTAP	124	96	4
NMTAP	124	192	0
NMTAP	124	192	6
NMTAP	124	288	2
NMTAP	124	288	4
NMTAP	125	0	5
NMTAP	125	48	5
EXTAP	125	96	3
EXTAP	125	96	5
NMTAP	125	192	1
NMTAP	125	192	7
NMTAP	125	288	3
NMTAP	125	288	5
NMTAP	126	0	1
NMTAP	126	48	1
NMTAP	126	96	1
EXTAP	126	144	1
EXTAP	126	192	1
NMTAP	126	288	3
NMTAP	126	288	7
NMTAP	127	0	5
NMTAP	127	48	5
NMTAP	127	96	5
NMTAP	127	144	5
EXTAP	127	192	4
EXTAP	127	192	5
NMTAP	127	288	2
NMTAP	127	288	6
NMTAP	128	0	1
NMTAP	128	48	1
NMTAP	128	96	1
NMTAP	128	144	1
EXTAP	128	192	1
EXTAP	128	192	3
EXTAP	128	240	1
EXTAP	128	240	3
EXTAP	128	288	1
EXTAP	128	288	3
NMTAP	129	0	5
NMTAP	129	0	7
NMTAP	129	48	5
NMTAP	129	48	7
NMTAP	129	96	5
NMTAP	129	96	7
NMTAP	129	144	5
NMTAP	129	144	7
EXTAP	129	192	5
EXTAP	129	192	7
EXTAP	129	240	5
EXTAP	129	240	7
EXTAP	129	288	5
EXTAP	129	288	7
BXSTR	130	0	0
BRSLR	130	0	0	96	960	4
BXSTR	130	0	4
NMSLR	130	0	4	96	960	0
CNSV_	132	288	0	0	672	5
CNSV_	132	288	4	0	672	1

T_REC_TAP	421
T_REC_BRK	9
T_REC_XTP	53
T_REC_BXX	0
T_REC_HLD	53
T_REC_XHO	3
T_REC_BHO	1
T_REC_BXH	0
T_REC_STR	31
T_REC_BST	0
T_REC_XST	1
T_REC_XBS	2
T_REC_TTP	32
T_REC_THO	0
T_REC_SLD	33
T_REC_BSL	1
T_REC_ALL	640
T_NUM_TAP	538
T_NUM_BRK	13
T_NUM_HLD	56
T_NUM_SLD	33
T_NUM_ALL	640
T_JUDGE_TAP	549
T_JUDGE_HLD	108
T_JUDGE_SLD	34
T_JUDGE_ALL	691
TTM_EACHPAIRS	162
TTM_SCR_TAP	269000
TTM_SCR_BRK	33800
TTM_SCR_HLD	56000
TTM_SCR_SLD	49500
TTM_SCR_ALL	408300
TTM_SCR_S	394800
TTM_SCR_SS	407000
TTM_RAT_ACV	10031

