VERSION	0.00.00	1.04.00
FES_MODE	0
BPM_DEF	240.000	240.000	240.000	240.000
MET_DEF	4	4
RESOLUTION	384
CLK_DEF	384
COMPATIBLE_CODE	MA2

BPM	0	0	240.000
MET	0	0	4	4

NMTAP	2	0	2
NMTAP	2	96	2
NMTAP	2	192	2
NMTAP	3	0	1
NMTAP	3	96	1
NMTAP	3	192	1
NMTAP	4	0	0
NMTAP	4	96	0
NMTAP	4	192	0
NMTAP	5	0	6
NMTAP	5	0	7
NMTAP	5	192	6
NMTAP	5	192	7
NMTAP	6	0	5
NMTAP	6	96	5
NMTAP	6	192	5
NMTAP	7	0	6
NMTAP	7	96	6
NMTAP	7	192	6
NMTAP	8	0	7
NMTAP	8	96	7
NMTAP	8	192	7
NMTAP	9	0	0
NMTAP	9	0	1
NMTAP	9	192	0
NMTAP	9	192	1
NMTAP	10	0	1
NMTAP	10	96	1
NMTAP	10	192	1
NMTAP	11	0	2
NMTAP	11	96	2
NMTAP	11	192	2
NMTAP	12	0	3
NMTAP	12	96	3
NMTAP	12	192	3
NMTAP	13	0	4
NMTAP	13	0	5
NMTAP	13	192	4
NMTAP	13	192	5
NMTAP	14	0	6
NMTAP	14	96	6
NMTAP	14	192	6
NMTAP	15	0	5
NMTAP	15	96	5
NMTAP	15	192	5
NMTAP	16	0	4
NMTAP	16	96	4
NMTAP	16	192	4
NMTAP	17	0	2
NMTAP	17	0	3
NMTAP	17	192	2
NMTAP	17	192	3
NMHLD	18	0	2	384
NMHLD	19	0	3	384
NMHLD	20	0	4	384
NMTAP	21	0	5
NMHLD	22	0	5	384
NMHLD	23	0	4	384
NMHLD	24	0	3	384
NMTAP	25	0	2
NMHLD	26	0	1	384
NMHLD	27	0	2	384
NMHLD	28	0	3	384
NMTAP	29	0	4
NMHLD	30	0	6	384
NMHLD	31	0	5	384
NMHLD	32	0	4	384
NMTAP	33	0	3
NMTTP	34	0	1	B	0	L1
NMTTP	34	192	2	B	0	L1
NMTTP	35	0	3	B	0	L1
NMTTP	36	0	6	B	0	L1
NMTTP	36	192	5	B	0	L1
NMTTP	37	0	4	B	0	L1
NMTTP	38	0	2	E	0	L1
NMTTP	38	192	3	E	0	L1
NMTTP	39	0	4	E	0	L1
NMTTP	39	192	5	E	0	L1
NMTTP	40	0	6	E	0	L1
NMTTP	41	0	0	C	0	L1
NMTTP	42	0	3	B	0	L1
NMTTP	42	192	2	B	0	L1
NMTTP	43	0	0	B	0	L1
NMTTP	43	0	1	B	0	L1
NMTTP	44	0	4	B	0	L1
NMTTP	44	192	5	B	0	L1
NMTTP	45	0	6	B	0	L1
NMTTP	45	0	7	B	0	L1
NMTTP	46	0	2	E	0	L1
NMTTP	46	192	1	E	0	L1
NMTTP	47	0	0	E	0	L1
NMTTP	47	192	7	E	0	L1
NMTTP	48	0	6	E	0	L1
NMTTP	49	0	0	C	0	L1
NMSTR	50	0	1
NMSI_	50	0	1	96	288	4
NMSTR	52	0	5
NMSI_	52	0	5	96	288	0
NMSTR	54	0	1
NMSI_	54	0	1	96	288	5
NMTAP	56	0	6
NMTAP	56	0	7
NMTAP	56	192	6
NMTAP	56	192	7
NMTAP	57	0	6
NMTAP	57	0	7
NMSTR	58	0	6
NMSI_	58	0	6	96	288	3
NMSTR	60	0	2
NMSI_	60	0	2	96	288	7
NMSTR	62	0	6
NMSCL	62	0	6	96	480	1
BRTAP	64	0	0
BRTAP	64	0	7
NMTAP	66	0	1
NMTAP	66	96	1
NMTAP	66	192	0
NMTAP	66	192	1
NMTAP	67	0	0
NMTAP	67	96	0
NMTAP	67	192	0
NMTAP	67	192	7
NMTAP	68	0	6
NMTAP	68	96	6
NMTAP	68	192	6
NMTAP	68	192	7
NMTAP	69	0	4
NMTAP	69	0	5
NMTAP	69	192	4
NMTAP	69	192	5
NMTAP	70	0	6
NMTAP	70	96	6
NMTAP	70	192	6
NMTAP	70	192	7
NMTAP	71	0	7
NMTAP	71	96	7
NMTAP	71	192	0
NMTAP	71	192	7
NMTAP	72	0	1
NMTAP	72	96	1
NMTAP	72	192	0
NMTAP	72	192	1
NMTAP	73	0	2
NMTAP	73	0	3
NMTAP	73	192	2
NMTAP	73	192	3
NMTAP	74	0	2
NMTAP	74	96	2
NMTAP	74	192	2
NMTAP	74	192	3
NMTAP	75	0	1
NMTAP	75	96	1
NMTAP	75	192	0
NMTAP	75	192	1
NMTAP	76	0	7
NMTAP	76	96	7
NMTAP	76	192	6
NMTAP	76	192	7
NMTAP	77	0	4
NMTAP	77	0	5
NMTAP	77	192	4
NMTAP	77	192	5
NMTAP	78	0	5
NMTAP	78	96	5
NMTAP	78	192	4
NMTAP	78	192	5
NMTAP	79	0	6
NMTAP	79	96	6
NMTAP	79	192	6
NMTAP	79	192	7
NMTAP	80	0	0
NMTAP	80	96	0
NMTAP	80	192	0
NMTAP	80	192	1
NMTAP	81	0	2
NMTAP	81	0	3
NMTAP	81	192	2
NMTAP	81	192	3
NMTAP	82	0	2
NMTAP	82	96	2
NMTAP	82	192	1
NMTAP	82	288	1
NMTAP	83	0	0
NMTAP	83	96	0
NMTAP	83	192	6
NMTAP	83	192	7
NMTAP	84	0	5
NMTAP	84	96	5
NMTAP	84	192	6
NMTAP	84	288	6
NMTAP	85	0	7
NMTAP	85	96	7
NMTAP	85	192	0
NMTAP	85	192	1
NMTAP	86	0	1
NMTAP	86	96	1
NMTAP	86	192	2
NMTAP	86	288	2
NMTAP	87	0	3
NMTAP	87	96	3
NMTAP	87	192	4
NMTAP	87	192	5
NMTAP	88	0	6
NMTAP	88	96	6
NMTAP	88	192	5
NMTAP	88	288	5
NMTAP	89	0	4
NMTAP	89	96	4
NMTAP	89	192	2
NMTAP	89	192	3
NMTAP	90	0	2
NMTAP	90	96	2
NMTAP	90	192	0
NMTAP	90	192	1
NMTAP	90	288	0
NMTAP	90	288	1
NMTAP	91	0	7
NMTAP	91	96	7
NMTAP	91	192	6
NMTAP	91	192	7
NMTAP	92	0	5
NMTAP	92	96	5
NMTAP	92	192	6
NMTAP	92	192	7
NMTAP	92	288	6
NMTAP	92	288	7
NMTAP	93	0	0
NMTAP	93	96	0
NMTAP	93	192	0
NMTAP	93	192	1
NMTAP	94	0	1
NMTAP	94	96	1
NMTAP	94	192	2
NMTAP	94	192	3
NMTAP	94	288	2
NMTAP	94	288	3
NMTAP	95	0	4
NMTAP	95	96	4
NMTAP	95	192	4
NMTAP	95	192	5
NMTAP	96	0	6
NMTAP	96	96	6
NMTAP	96	192	4
NMTAP	96	192	5
NMTAP	96	288	4
NMTAP	96	288	5
NMTAP	97	0	3
NMTAP	97	96	3
EXTAP	97	192	2
EXTAP	97	192	3
NMTAP	98	0	2
NMTAP	98	96	2
NMTAP	98	192	2
NMTAP	98	288	2
NMTAP	99	0	1
NMTAP	99	96	1
NMTAP	99	192	1
NMTAP	99	288	1
NMTAP	100	0	0
NMTAP	100	96	0
NMTAP	100	192	0
NMTAP	100	288	0
NMTAP	101	0	6
NMTAP	101	0	7
NMTAP	101	96	6
NMTAP	101	96	7
NMTAP	101	192	6
NMTAP	101	192	7
NMTAP	102	0	5
NMTAP	102	96	5
NMTAP	102	192	5
NMTAP	102	288	5
NMTAP	103	0	6
NMTAP	103	96	6
NMTAP	103	192	6
NMTAP	103	288	6
NMTAP	104	0	7
NMTAP	104	96	7
NMTAP	104	192	7
NMTAP	104	288	7
NMTAP	105	0	0
NMTAP	105	0	1
NMTAP	105	96	0
NMTAP	105	96	1
NMTAP	105	192	0
NMTAP	105	192	1
NMTAP	106	0	2
NMTAP	106	96	2
NMTAP	106	192	2
NMTAP	106	192	3
NMTAP	106	288	2
NMTAP	106	288	3
NMTAP	107	0	1
NMTAP	107	96	1
NMTAP	107	192	0
NMTAP	107	192	1
NMTAP	107	288	0
NMTAP	107	288	1
NMTAP	108	0	7
NMTAP	108	96	7
NMTAP	108	192	6
NMTAP	108	192	7
NMTAP	108	288	6
NMTAP	108	288	7
NMTAP	109	0	4
NMTAP	109	0	5
NMTAP	109	96	4
NMTAP	109	96	5
NMTAP	109	192	4
NMTAP	109	192	5
NMTAP	110	0	5
NMTAP	110	96	5
NMTAP	110	192	4
NMTAP	110	192	5
NMTAP	110	288	4
NMTAP	110	288	5
NMTAP	111	0	6
NMTAP	111	96	6
NMTAP	111	192	6
NMTAP	111	192	7
NMTAP	111	288	6
NMTAP	111	288	7
NMTAP	112	0	0
NMTAP	112	96	0
NMTAP	112	192	0
NMTAP	112	192	1
NMTAP	112	288	0
NMTAP	112	288	1
NMTAP	113	0	2
NMTAP	113	0	3
NMTAP	113	96	2
NMTAP	113	96	3
EXTAP	113	192	2
EXTAP	113	192	3
NMSTR	114	0	1
NMSI_	114	0	1	96	288	4
NMSTR	116	0	6
NMSI_	116	0	6	96	288	3
NMSTR	118	0	1
NMSI_	118	0	1	96	288	5
NMSTR	120	0	6
NMSI_	120	0	6	96	288	2
NMTAP	122	0	1
NMTAP	122	96	2
NMTAP	122	192	3
NMTAP	122	288	4
NMTAP	123	0	5
NMTAP	123	96	6
NMTAP	123	192	7
NMTAP	123	288	0
NMTAP	124	0	1
NMTAP	124	96	2
NMTAP	124	192	3
NMTAP	124	288	4
NMTAP	125	0	5
NMTAP	125	96	6
NMTAP	125	192	0
NMTAP	125	192	7
NMTAP	126	0	6
NMTAP	126	96	5
NMTAP	126	192	4
NMTAP	126	288	3
NMTAP	127	0	2
NMTAP	127	96	1
NMTAP	127	192	0
NMTAP	127	288	7
NMTAP	128	0	6
NMTAP	128	96	5
NMTAP	128	192	4
NMTAP	128	288	3
NMTAP	129	0	2
NMTAP	129	96	1
NMTAP	129	192	0
NMTAP	129	192	7
NMTHO	130	0	0	1728	C	1	L1

T_REC_TAP	310
T_REC_BRK	2
T_REC_XTP	4
T_REC_BXX	0
T_REC_HLD	12
T_REC_XHO	0
T_REC_BHO	0
T_REC_BXH	0
T_REC_STR	10
T_REC_BST	0
T_REC_XST	0
T_REC_XBS	0
T_REC_TTP	26
T_REC_THO	1
T_REC_SLD	10
T_REC_BSL	0
T_REC_ALL	375
T_NUM_TAP	350
T_NUM_BRK	2
T_NUM_HLD	13
T_NUM_SLD	10
T_NUM_ALL	375
T_JUDGE_TAP	352
T_JUDGE_HLD	66
T_JUDGE_SLD	10
T_JUDGE_ALL	428
TTM_EACHPAIRS	74
TTM_SCR_TAP	175000
TTM_SCR_BRK	5200
TTM_SCR_HLD	13000
TTM_SCR_SLD	15000
TTM_SCR_ALL	208200
TTM_SCR_S	201800
TTM_SCR_SS	208000
TTM_RAT_ACV	10009

