VERSION	0.00.00	1.04.00
FES_MODE	0
BPM_DEF	180.000	180.000	180.000	180.000
MET_DEF	4	4
RESOLUTION	384
CLK_DEF	384
COMPATIBLE_CODE	MA2

BPM	0	0	180.000
MET	0	0	4	4

NMSTR	2	0	1
NMSXR	2	0	1	96	264	4
NMHLD	3	0	7	72
NMHLD	3	72	6	72
NMTAP	3	144	5
NMHLD	3	192	0	72
NMHLD	3	264	1	72
NMTAP	3	336	2
NMSTR	4	0	5
NMSUL	4	0	5	96	192	3
NMHLD	5	0	1	72
NMHLD	5	72	2	72
NMTAP	5	144	3
NMHLD	5	192	6	72
NMHLD	5	264	5	72
NMTAP	5	336	4
NMSTR	6	0	3
NMSXR	6	0	3	96	216	4
NMHLD	7	0	5	72
NMHLD	7	72	4	72
NMTAP	7	144	3
NMHLD	7	192	2	72
NMHLD	7	264	3	72
NMTAP	7	336	4
NMSTR	8	0	6
NMSCL	8	0	6	96	192	1
NMSTR	8	288	0
NMSI_	8	288	0	96	48	6
CNSI_	9	48	6	0	48	1
CNSI_	9	96	1	0	48	5
CNSI_	9	144	5	0	48	2
CNSI_	9	192	2	0	144	4
NMTAP	10	0	5
NMTAP	10	96	4
NMTAP	10	192	3
NMSTR	10	240	3
NMSLL	10	240	3	96	96	7
NMSTR	10	336	7
NMSLL	10	336	7	96	96	3
NMSTR	11	192	7
NMSLL	11	192	7	96	96	1
NMSTR	11	288	1
NMSI_	11	288	1	96	48	7
NMTAP	12	0	2
NMTAP	12	96	3
NMTAP	12	192	4
NMTAP	12	240	4
NMTAP	12	336	3
NMTAP	12	336	5
NMSTR	13	48	6
NMSV_	13	48	6	96	48	4
NMSTR	13	96	2
NMSV_	13	96	2	96	48	0
NMTAP	14	0	5
NMTAP	14	96	4
NMTAP	14	192	3
NMTAP	14	240	3
NMTAP	14	336	2
NMTAP	14	336	4
NMTAP	15	48	1
NMSTR	15	96	1
NMSCR	15	96	1	96	96	5
NMSTR	15	192	5
NMSCR	15	192	5	96	96	1
NMTAP	15	288	1
NMTAP	16	0	5
NMTAP	16	96	4
NMTAP	16	144	4
NMTAP	16	240	3
NMTAP	16	288	3
NMTAP	17	0	2
NMTAP	17	0	6
NMTAP	17	48	5
NMTAP	17	96	3
NMTAP	17	144	1
NMTAP	17	144	5
NMTAP	17	192	1
NMTAP	17	192	5
NMSTR	17	288	0
NMSCR	17	288	0	96	168	7
NMTAP	17	288	7
NMTTP	18	0	0	C	1	M1
NMTAP	18	192	5
NMTAP	18	240	5
NMTAP	18	288	4
NMTAP	18	288	6
NMHLD	19	0	0	96
NMTAP	19	96	2
NMHLD	19	144	1	96
NMTAP	19	240	3
NMHLD	19	288	2	96
NMHLD	20	0	4	96
NMTAP	20	96	3
NMHLD	20	144	5	96
NMTAP	20	240	4
NMHLD	20	288	6	96
NMTAP	21	0	5
NMTAP	21	48	4
NMTAP	21	96	3
NMTAP	21	96	6
NMTAP	21	192	2
NMTAP	21	216	3
NMTAP	21	240	2
NMTAP	21	288	1
NMSTR	21	288	4
NMSCR	21	288	4	96	168	3
NMTTP	22	0	0	C	1	M1
NMTAP	22	192	0
NMTAP	22	240	0
NMTAP	22	288	1
NMTAP	22	288	7
NMHLD	23	0	6	96
NMTAP	23	96	4
NMHLD	23	144	1	96
NMTAP	23	240	3
NMTAP	23	288	3
NMTAP	23	288	4
NMTAP	24	0	4
NMTAP	24	0	6
NMTAP	24	48	5
NMTAP	24	96	4
NMTAP	24	144	1
NMTAP	24	144	3
NMTAP	24	192	2
NMTAP	24	240	3
NMTAP	24	288	4
NMTAP	24	288	6
NMTAP	24	336	7
NMTAP	25	0	0
NMTAP	25	48	1
NMTAP	25	48	6
NMSTR	25	96	1
NMSI_	25	96	1	96	48	5
NMTAP	25	96	6
NMTAP	25	192	3
BRTAP	25	240	7
NMSTR	26	0	4
NMSCL	26	0	4	96	288	6
NMTAP	26	0	6
NMTAP	26	96	5
NMTAP	26	192	5
NMTAP	26	288	5
NMTAP	27	0	5
CNSCR	27	0	6	0	192	2
NMTAP	27	96	5
NMTAP	27	192	5
NMTAP	27	240	3
NMTAP	27	288	4
NMTAP	27	336	2
NMHLD	28	0	3	576
NMTAP	28	96	2
NMTAP	28	192	4
NMTAP	28	288	2
NMTAP	29	0	4
NMTAP	29	96	2
NMTAP	29	192	4
NMTAP	29	240	3
NMTAP	29	288	2
NMTAP	29	288	4
NMTAP	30	0	1
NMSTR	30	0	3
NMSCR	30	0	3	96	288	1
NMTAP	30	96	2
NMTAP	30	192	2
NMTAP	30	288	2
CNSCL	31	0	1	0	192	5
NMTAP	31	0	2
NMTAP	31	96	2
NMTAP	31	192	2
NMTAP	31	240	4
NMTAP	31	288	3
NMTAP	31	336	5
NMHLD	32	0	4	480
NMTAP	32	96	5
NMTAP	32	192	3
NMTAP	32	288	5
NMTAP	33	0	3
NMTAP	33	96	5
NMTTP	33	192	4	E	1	M1
NMTTP	33	240	6	E	1	M1
NMTTP	33	288	0	E	1	M1
NMTTP	33	336	2	E	1	M1
EXHLD	34	0	4	96
NMTAP	34	96	3
NMTAP	34	144	3
NMSTR	34	192	2
NMSI_	34	192	2	96	48	4
NMTAP	34	288	5
NMTAP	34	336	5
NMSTR	35	0	6
NMSI_	35	0	6	96	48	2
NMTAP	35	96	0
NMTAP	35	192	1
NMTAP	35	240	1
NMTAP	35	288	3
NMTAP	35	336	2
NMSTR	36	0	5
NMSCL	36	0	5	96	48	3
NMTAP	36	96	2
NMTAP	36	144	2
NMSTR	36	192	1
NMSUR	36	192	1	96	48	5
NMTAP	36	288	6
NMTAP	37	0	6
NMTAP	37	48	4
NMTAP	37	96	3
NMTAP	37	96	5
NMTAP	37	168	2
NMTAP	37	192	3
NMTAP	37	240	3
NMTAP	37	288	2
NMTAP	37	288	4
NMSTR	38	0	5
NMSI_	38	0	5	96	48	3
NMTAP	38	96	2
NMTAP	38	144	2
NMSTR	38	192	1
NMSI_	38	192	1	96	48	5
NMSTR	38	288	6
NMSCR	38	288	6	96	144	4
NMHLD	39	0	0	96
NMTAP	39	192	6
NMTAP	39	240	6
NMTAP	39	288	4
NMTAP	39	336	5
NMSTR	40	0	2
NMSCR	40	0	2	96	48	4
NMTAP	40	96	5
NMTAP	40	144	5
NMSTR	40	192	6
NMSUL	40	192	6	96	48	2
NMTAP	40	288	1
NMTAP	41	0	1
NMTAP	41	48	0
NMTAP	41	96	2
NMTAP	41	96	7
NMTAP	41	144	6
NMTAP	41	192	7
NMTAP	41	240	0
NMTAP	41	240	5
NMTAP	41	288	4
NMTAP	41	336	3
EXTAP	42	0	1
NMTAP	42	0	5
EXHLD	42	48	1	192
NMHLD	42	48	5	192
NMSTR	42	336	2
NMSI_	42	336	2	96	48	7
EXSTR	42	336	6
NMSI_	42	336	6	96	48	3
NMTAP	43	48	2
EXTAP	43	48	6
NMTHO	43	240	0	96	C	0	M1
NMTAP	44	0	2
EXTAP	44	0	6
NMHLD	44	48	2	192
EXHLD	44	48	6	192
EXSTR	44	336	1
NMSI_	44	336	1	96	48	5
NMHLD	44	336	5	96
EXTAP	45	48	1
NMTAP	45	96	6
NMTAP	45	144	6
NMTAP	45	192	2
NMTAP	45	240	2
NMTAP	45	288	3
NMSTR	45	288	4
NMSI_	45	288	4	96	48	7
NMHLD	46	0	0	96
NMHLD	46	144	1	96
NMTAP	46	288	2
NMSTR	46	288	3
NMSI_	46	288	3	96	48	0
NMHLD	47	0	7	96
NMHLD	47	144	6	96
NMTAP	47	288	4
NMTAP	47	288	5
NMTAP	48	0	0
NMTAP	48	0	4
NMTAP	48	48	1
NMTAP	48	48	3
NMTAP	48	144	3
NMTAP	48	144	7
NMTAP	48	192	4
NMTAP	48	192	6
NMTAP	48	288	0
NMTAP	48	288	7
NMTAP	48	336	1
NMTAP	48	336	6
NMTAP	49	48	1
NMTAP	49	48	3
NMTAP	49	96	5
NMTAP	49	120	4
NMTAP	49	144	6
BRTAP	49	192	1
BRTAP	49	192	5
NMSTR	50	0	0
NMSI_	50	0	0	96	48	2
NMTAP	50	0	6
NMTAP	50	96	0
NMSTR	50	96	5
NMSI_	50	96	5	96	48	3
NMTAP	50	192	3
NMSTR	50	240	1
NMSI_	50	240	1	96	48	5
CNSI_	50	240	3	0	48	6
NMTAP	50	336	7
NMTAP	51	48	6
NMTAP	51	48	7
NMTAP	51	96	0
NMTAP	51	96	5
NMTAP	51	192	0
NMHLD	51	192	1	72
NMHLD	51	264	3	72
NMTAP	51	336	4
NMTAP	52	0	1
NMSTR	52	0	7
NMSI_	52	0	7	96	48	5
NMSTR	52	96	2
NMSI_	52	96	2	96	48	4
NMTAP	52	96	7
NMTAP	52	192	4
CNSI_	52	240	4	0	48	1
NMSTR	52	240	6
NMSI_	52	240	6	96	48	2
NMTAP	52	336	0
NMTAP	53	48	0
NMTAP	53	48	1
NMSTR	53	96	2
NMSI_	53	96	2	96	48	6
NMSTR	53	96	7
NMSI_	53	96	7	96	48	3
NMTAP	53	192	2
NMTAP	53	192	7
BRTAP	53	288	0
BRTAP	53	288	4
NMTAP	54	0	3
NMSTR	54	0	5
NMSCL	54	0	5	96	48	2
NMSTR	54	96	1
NMSUR	54	96	1	96	72	6
NMTAP	54	96	5
NMTAP	54	192	0
NMHLD	54	240	0	96
NMSTR	54	336	7
NMSCL	54	336	7	96	120	0
NMTAP	55	192	4
NMTAP	55	240	2
NMHLD	55	240	6	96
NMTAP	55	336	7
NMTAP	56	0	0
NMTAP	56	0	5
NMTAP	56	96	0
NMTAP	56	96	1
NMTAP	56	144	2
NMTAP	56	144	7
NMTAP	56	240	5
NMTAP	56	288	4
NMTAP	56	336	3
NMTAP	57	0	2
NMTAP	57	0	6
NMTAP	57	48	2
NMTAP	57	48	6
NMSTR	57	96	1
NMSUR	57	96	1	96	48	5
NMSTR	57	96	5
NMSUR	57	96	5	96	48	1
NMTAP	57	144	1
NMTAP	57	144	5
NMTTP	57	192	0	C	1	M1
NMSTR	58	0	6
NMSI_	58	0	6	96	48	4
NMSTR	58	0	7
NMSI_	58	0	7	96	48	3
NMTAP	58	96	6
NMTAP	58	96	7
NMTAP	58	192	0
NMHLD	58	192	1	72
NMHLD	58	264	2	72
NMSTR	58	336	3
NMSXR	58	336	3	96	96	3
NMTAP	59	48	6
NMTAP	59	96	5
NMTAP	59	144	4
NMTAP	59	192	2
NMTAP	59	192	3
NMTAP	59	264	5
NMTAP	59	264	6
NMTAP	59	336	0
NMTAP	59	336	1
NMSTR	60	0	0
NMSI_	60	0	0	96	48	4
NMSTR	60	0	1
NMSI_	60	0	1	96	48	3
NMTAP	60	96	0
NMTAP	60	96	1
NMHLD	60	192	6	72
NMTAP	60	192	7
NMHLD	60	264	5	72
NMSTR	60	336	4
NMSXL	60	336	4	96	96	4
NMTAP	61	48	1
NMTAP	61	96	2
NMTAP	61	144	3
NMTAP	61	192	4
NMTAP	61	192	5
NMTAP	61	264	1
NMTAP	61	264	2
NMTAP	61	336	6
NMTAP	61	336	7
NMSTR	62	0	6
NMSCL	62	0	6	96	48	3
NMSTR	62	0	7
NMSLL	62	0	7	96	48	2
NMTAP	62	96	6
NMTAP	62	96	7
NMTAP	62	192	0
NMTAP	62	192	1
NMSTR	62	240	0
NMSLR	62	240	0	96	48	5
NMSTR	62	240	1
NMSCR	62	240	1	96	48	4
NMTAP	62	336	0
NMTAP	62	336	1
NMTAP	63	48	6
NMTAP	63	48	7
NMTAP	63	96	5
NMTAP	63	144	4
NMTAP	63	192	1
NMTAP	63	192	3
NMTAP	63	264	4
NMTAP	63	264	6
NMTAP	63	336	0
NMTAP	63	336	7
NMTAP	64	0	0
NMSTR	64	0	7
NMSCL	64	0	7	96	48	4
NMTAP	64	96	3
NMTAP	64	144	2
NMSTR	64	192	0
NMSCR	64	192	0	96	48	3
NMTAP	64	288	4
NMTAP	64	336	5
BRSTR	65	48	7
NMSI_	65	48	7	96	48	4
BRSTR	65	96	0
NMSI_	65	96	0	96	48	3
BRTAP	65	144	7
BRTAP	65	192	0
NMTAP	65	336	0
NMTAP	65	336	4
NMTAP	66	0	1
NMTAP	66	0	3
NMTAP	66	144	3
NMTAP	66	144	7
NMTAP	66	192	4
NMTAP	66	192	6
NMTAP	66	336	0
NMTAP	66	336	4
NMTAP	67	0	1
NMTAP	67	48	2
NMTAP	67	96	3
NMTAP	67	96	7
NMTAP	67	144	6
NMTAP	67	192	4
NMSTR	67	192	5
NMSI_	67	192	5	96	48	0
NMSTR	67	288	2
NMSI_	67	288	2	96	48	7
NMTAP	67	288	5
NMTAP	68	0	2
NMTAP	68	0	3
NMTAP	68	144	0
NMTAP	68	144	7
NMTAP	68	192	1
NMTAP	68	192	6
NMTAP	68	336	3
NMTAP	68	336	4
NMTAP	69	0	3
NMTAP	69	0	4
NMTAP	69	48	2
NMTAP	69	48	5
NMTAP	69	96	2
NMTAP	69	96	5
NMTAP	69	144	1
NMTAP	69	144	6
NMSTR	69	192	1
NMSCR	69	192	1	96	48	3
NMSTR	69	192	6
NMSCL	69	192	6	96	48	4
BRTAP	70	0	0
BRTAP	70	0	7
NMTAP	70	48	1
NMTAP	70	96	2
NMTAP	70	144	3
NMTAP	70	192	4
NMTAP	70	192	5
NMTAP	70	240	6
NMTAP	70	264	7
NMTAP	70	288	6
NMSTR	70	336	1
NMSI_	70	336	1	96	48	3
NMTAP	70	336	5
NMTAP	71	0	7
NMSTR	71	48	1
NMSI_	71	48	1	96	48	5
NMTAP	71	96	7
NMSTR	71	144	1
NMSI_	71	144	1	96	48	3
NMTAP	71	192	7
NMSTR	71	240	1
NMSI_	71	240	1	96	48	5
NMTAP	71	288	7
NMTAP	71	336	1
NMTAP	72	0	7
NMTAP	72	48	6
NMTAP	72	96	5
NMTAP	72	144	4
NMTAP	72	192	2
NMTAP	72	192	3
NMTAP	72	240	1
NMTAP	72	264	0
NMTAP	72	288	1
NMTAP	72	336	2
NMSTR	72	336	6
NMSI_	72	336	6	96	48	4
NMTAP	73	0	0
NMSTR	73	48	6
NMSI_	73	48	6	96	48	2
NMTAP	73	96	0
NMSTR	73	144	6
NMSI_	73	144	6	96	48	4
NMTAP	73	192	0
NMSTR	73	240	6
NMSI_	73	240	6	96	48	2
NMTAP	73	288	0
NMTAP	73	336	6
NMTAP	74	0	0
NMTAP	74	48	1
NMTAP	74	96	2
NMTAP	74	144	3
NMTAP	74	192	4
NMTAP	74	192	5
NMTAP	74	240	6
NMTAP	74	264	7
NMTAP	74	288	6
NMSTR	74	336	1
NMSI_	74	336	1	96	48	7
NMTAP	74	336	5
NMTAP	75	0	7
NMSTR	75	48	1
NMSI_	75	48	1	96	48	3
NMTAP	75	96	6
NMTAP	75	144	1
NMTAP	75	192	5
NMTAP	75	240	5
NMTAP	75	264	4
NMTAP	75	288	6
NMTAP	75	336	0
NMTAP	75	336	7
NMTAP	76	0	1
NMTAP	76	48	0
NMTAP	76	48	2
NMTAP	76	96	6
NMTAP	76	144	5
NMTAP	76	144	7
NMTAP	76	192	2
NMTAP	76	240	1
NMTAP	76	240	3
NMTAP	76	288	5
NMSTR	76	336	4
NMSI_	76	336	4	96	48	0
NMHLD	76	336	6	96
EXTAP	77	48	4
EXTAP	77	96	7
EXTAP	77	144	7
BRHLD	77	192	1	96
BRTAP	77	192	5
NMTAP	77	288	3
NMTAP	77	312	2
NMTAP	77	336	4
EXTAP	78	0	1
EXTAP	78	0	7
NMTAP	78	48	6
NMTAP	78	96	5
NMTAP	78	144	4
NMTAP	78	192	2
NMTAP	78	192	3
NMTAP	78	240	1
NMTAP	78	264	0
NMTAP	78	288	1
NMTAP	78	336	2
NMSTR	78	336	6
NMSI_	78	336	6	96	48	4
NMTAP	79	0	0
NMSTR	79	48	6
NMSI_	79	48	6	96	48	2
NMTAP	79	96	0
NMSTR	79	144	6
NMSI_	79	144	6	96	48	4
NMTAP	79	192	0
NMSTR	79	240	6
NMSI_	79	240	6	96	48	2
NMTAP	79	288	0
NMTAP	79	336	6
NMTAP	80	0	0
NMTAP	80	48	1
NMTAP	80	96	2
NMTAP	80	144	3
NMTAP	80	192	4
NMTAP	80	192	5
NMTAP	80	240	6
NMTAP	80	264	7
NMTAP	80	288	6
NMSTR	80	336	1
NMSI_	80	336	1	96	48	3
NMTAP	80	336	5
NMTAP	81	0	7
NMSTR	81	48	1
NMSI_	81	48	1	96	48	5
NMTAP	81	96	7
NMSTR	81	144	1
NMSI_	81	144	1	96	48	3
NMTAP	81	192	7
NMSTR	81	240	1
NMSI_	81	240	1	96	48	5
NMTAP	81	288	7
NMTAP	81	336	1
NMTAP	82	0	7
NMTAP	82	48	6
NMTAP	82	96	5
NMTAP	82	144	4
NMTAP	82	192	2
NMTAP	82	192	3
NMTAP	82	240	1
NMTAP	82	264	0
NMTAP	82	288	1
NMTAP	82	336	2
NMSTR	82	336	6
NMSI_	82	336	6	96	48	0
NMTAP	83	0	0
NMSTR	83	48	6
NMSI_	83	48	6	96	48	4
NMTAP	83	96	1
NMTAP	83	144	6
NMTAP	83	192	2
NMTAP	83	240	2
NMTAP	83	264	3
NMTAP	83	288	1
NMTAP	83	336	0
NMTAP	83	336	7
NMTAP	84	0	6
NMTAP	84	48	5
NMTAP	84	48	7
NMTAP	84	96	1
NMTAP	84	144	0
NMTAP	84	144	2
NMTAP	84	192	5
NMTAP	84	240	4
NMTAP	84	240	6
NMTAP	84	288	2
NMHLD	84	336	1	96
NMSTR	84	336	3
NMSI_	84	336	3	96	48	7
EXTAP	85	48	3
EXTAP	85	96	0
EXTAP	85	144	0
BRTAP	85	192	2
BRTAP	85	192	6
NMTAP	85	336	0
NMTAP	85	336	4
NMTAP	86	0	1
NMTAP	86	0	3
NMTAP	86	144	3
NMTAP	86	144	7
NMTAP	86	192	4
NMTAP	86	192	6
NMTAP	86	336	0
NMTAP	86	336	4
NMTAP	87	0	1
NMTAP	87	48	2
NMTAP	87	96	3
NMTAP	87	96	7
NMTAP	87	144	6
NMTAP	87	192	4
NMSTR	87	192	5
NMSI_	87	192	5	96	48	2
NMSTR	87	288	1
NMSI_	87	288	1	96	48	6
NMTAP	87	288	5
NMTAP	88	0	0
NMTAP	88	0	1
NMTAP	88	144	3
NMTAP	88	144	4
NMTAP	88	192	1
NMTAP	88	192	6
NMTAP	88	336	5
NMTAP	88	336	7
NMTAP	89	0	4
NMTAP	89	0	6
NMTAP	89	48	3
NMTAP	89	48	5
NMTAP	89	96	2
NMTAP	89	96	4
NMTAP	89	144	1
NMTAP	89	144	3
NMSTR	89	192	0
NMSF_	89	192	0	96	48	4
NMTAP	89	192	2
BRTAP	89	288	0
NMTTP	90	0	0	C	1	M1
NMTTP	90	0	2	B	0	M1
NMTTP	90	0	2	A	0	M1
NMTTP	90	0	6	B	0	M1
NMTTP	90	0	6	A	0	M1

T_REC_TAP	449
T_REC_BRK	13
T_REC_XTP	12
T_REC_HLD	41
T_REC_XHO	3
T_REC_STR	84
T_REC_BST	2
T_REC_XST	2
T_REC_TTP	12
T_REC_THO	1
T_REC_SLD	88
T_REC_ALL	707
T_NUM_TAP	559
T_NUM_BRK	15
T_NUM_HLD	45
T_NUM_SLD	88
T_NUM_ALL	707
T_JUDGE_TAP	574
T_JUDGE_HLD	116
T_JUDGE_SLD	88
T_JUDGE_ALL	778
TTM_EACHPAIRS	144
TTM_SCR_TAP	279500
TTM_SCR_BRK	39000
TTM_SCR_HLD	45000
TTM_SCR_SLD	132000
TTM_SCR_ALL	495500
TTM_SCR_S	479200
TTM_SCR_SS	494000
TTM_RAT_ACV	10030

