VERSION	0.00.00	1.04.00
FES_MODE	0
BPM_DEF	180.000	180.000	180.000	180.000
MET_DEF	4	4
RESOLUTION	384
CLK_DEF	384
COMPATIBLE_CODE	MA2

BPM	0	0	180.000
MET	0	0	4	4

BXHLD	2	0	1	384
BXTAP	2	0	6
EXTAP	3	0	3
EXHLD	3	64	3	128
EXTAP	3	192	4
EXHLD	3	256	4	128
BXHLD	4	0	6	384
EXTAP	5	0	4
EXHLD	5	64	4	128
EXTAP	5	192	3
EXHLD	5	256	3	128
BXHLD	6	0	1	384
EXTAP	7	0	3
EXHLD	7	64	3	128
EXTAP	7	192	4
EXHLD	7	256	4	128
BXHLD	8	0	6	288
NMTAP	8	288	1
EXSTR	9	0	3
NMSV_	9	0	3	96	192	0
EXSTR	9	0	4
NMSV_	9	0	4	96	192	7
NMTTP	10	0	3	B	0	M1
NMTTP	10	0	3	A	0	M1
NMTTP	10	0	4	B	0	M1
NMTTP	10	0	4	A	0	M1
NMTTP	11	0	6	B	0	M1
NMTTP	11	0	7	B	0	M1
NMTTP	11	0	7	D	0	M1
NMTTP	12	0	3	B	0	M1
NMTTP	12	0	3	A	0	M1
NMTTP	12	0	4	B	0	M1
NMTTP	12	0	4	A	0	M1
NMTTP	13	0	0	B	0	M1
NMTTP	13	0	0	A	0	M1
NMTTP	13	0	1	B	0	M1
NMTTP	13	0	1	E	0	M1
NMTTP	13	0	1	A	0	M1
NMTTP	14	0	2	B	0	M1
NMTTP	14	0	3	B	0	M1
NMTTP	14	0	4	B	0	M1
NMTTP	14	0	5	B	0	M1
NMTTP	15	0	0	B	0	M1
NMTTP	15	0	1	B	0	M1
NMTTP	15	0	6	B	0	M1
NMTTP	15	0	7	B	0	M1
NMTAP	16	0	4
NMTAP	16	0	5
NMTAP	16	192	2
NMTAP	16	192	3
NMSTR	17	0	3
NMSCL	17	0	3	96	96	0
NMSTR	17	0	4
NMSCR	17	0	4	96	96	7
EXTAP	17	288	0
EXTAP	17	288	7
EXSTR	18	0	0
NMSI_	18	0	0	96	96	4
NMTAP	18	192	5
NMTAP	18	288	6
NMHLD	19	0	7	144
NMTAP	19	96	1
NMHLD	19	144	1	144
NMTAP	19	240	3
NMTAP	19	288	3
NMHLD	20	0	0	144
NMTAP	20	96	6
NMHLD	20	144	6	144
NMTAP	20	240	4
NMTAP	20	288	4
NMSTR	21	0	3
NMSCL	21	0	3	96	96	0
NMSTR	21	0	7
NMSCL	21	0	7	96	96	4
NMTAP	21	288	1
NMTAP	21	288	5
EXTAP	22	0	3
EXSTR	22	0	7
NMSI_	22	0	7	96	96	3
NMTAP	22	192	2
NMTAP	22	288	1
NMHLD	23	0	0	144
NMTAP	23	96	6
NMHLD	23	144	6	144
NMTAP	23	240	4
NMTAP	23	288	4
NMTAP	24	0	3
NMTAP	24	0	5
NMTAP	24	96	2
NMTAP	24	96	4
NMTAP	24	144	2
NMTAP	24	144	4
NMTAP	24	240	3
NMTAP	24	240	5
NMTAP	24	288	3
NMTAP	24	288	5
NMTAP	25	0	6
NMTAP	25	48	6
NMTAP	25	96	0
NMTAP	25	192	1
NMTAP	25	192	5
BRTAP	25	240	1
BRTAP	25	240	5
NMHLD	26	0	2	1152
NMTAP	26	0	4
NMTAP	26	96	4
NMTAP	26	192	4
NMTAP	26	288	4
NMTAP	27	0	3
NMTAP	27	96	3
NMTAP	27	192	3
NMTAP	27	288	3
NMTAP	28	0	4
NMTAP	28	96	4
NMTAP	28	192	4
NMTAP	28	288	4
NMSTR	29	0	3
NMSI_	29	0	3	96	96	7
NMTAP	30	0	3
NMHLD	30	0	5	1152
NMTAP	30	96	3
NMTAP	30	192	3
NMTAP	30	288	3
NMTAP	31	0	4
NMTAP	31	96	4
NMTAP	31	192	4
NMTAP	31	288	4
NMTAP	32	0	3
NMTAP	32	96	3
NMTAP	32	192	3
NMTAP	32	288	3
NMSTR	33	0	4
NMSI_	33	0	4	96	96	1
NMTAP	33	288	0
NMTAP	33	288	7
EXTAP	34	0	6
NMTAP	34	96	6
NMTAP	34	192	5
NMTAP	34	240	5
NMTAP	34	288	4
NMTAP	35	0	3
NMTAP	35	96	2
NMTAP	35	192	1
NMTAP	35	240	1
NMTAP	35	288	0
NMTAP	36	0	7
NMTAP	36	96	6
NMTAP	36	192	5
NMTAP	36	240	5
NMTAP	36	288	4
NMTAP	37	0	3
NMTAP	37	0	5
NMTAP	37	96	3
NMTAP	37	96	5
NMTAP	37	192	2
NMTAP	37	192	4
NMTAP	37	288	2
NMTAP	37	288	4
EXTAP	38	0	1
NMTAP	38	96	1
NMTAP	38	192	2
NMTAP	38	240	2
NMTAP	38	288	3
NMTAP	39	0	4
NMTAP	39	96	5
NMTAP	39	192	6
NMTAP	39	240	6
NMTAP	39	288	7
NMTAP	40	0	0
NMTAP	40	96	1
NMTAP	40	192	2
NMTAP	40	240	2
NMTAP	40	288	3
NMTAP	41	0	4
NMTAP	41	96	4
NMTAP	41	192	3
NMTAP	41	192	5
NMTAP	41	288	3
NMTAP	41	288	5
EXTAP	42	0	6
EXTAP	42	0	7
EXTAP	42	48	6
EXTAP	42	48	7
NMSTR	42	336	4
NMSCL	42	336	4	96	144	1
NMSTR	42	336	5
NMSUL	42	336	5	96	144	0
EXTAP	44	0	2
EXTAP	44	0	3
EXTAP	44	48	2
EXTAP	44	48	3
NMSTR	44	336	0
NMSCL	44	336	0	96	144	5
NMSTR	44	336	1
NMSUL	44	336	1	96	144	4
NMHLD	46	0	3	384
NMTTP	46	192	3	E	0	M1
NMTTP	46	288	1	B	0	M1
NMHLD	47	0	7	288
NMTTP	47	192	6	B	0	M1
NMTTP	47	288	5	E	0	M1
EXTAP	48	0	0
EXTAP	48	0	6
EXTAP	48	48	0
EXTAP	48	48	6
EXTAP	48	144	1
EXTAP	48	144	7
EXTAP	48	192	1
EXTAP	48	192	7
EXTAP	48	288	0
EXTAP	48	288	6
EXTAP	48	336	0
EXTAP	48	336	6
NMTAP	49	48	3
NMTAP	49	48	4
NMTAP	49	144	1
NMTAP	49	144	6
BRTAP	49	192	1
BRTAP	49	192	6
EXTAP	50	0	6
EXTAP	50	0	7
NMTAP	50	96	3
NMTAP	50	96	4
NMTAP	50	192	0
NMTAP	50	192	1
NMTAP	50	240	0
NMTAP	50	240	1
NMTAP	50	336	2
NMTAP	50	336	7
NMTAP	51	48	3
NMTAP	51	48	4
NMTAP	51	96	3
NMTAP	51	96	4
NMHLD	51	192	5	72
NMHLD	51	264	6	72
NMTAP	51	336	7
NMTAP	52	0	7
NMTAP	52	96	0
NMTAP	52	96	1
NMTAP	52	192	2
NMTAP	52	192	3
NMTAP	52	240	2
NMTAP	52	240	3
NMTAP	52	336	4
NMTAP	52	336	5
NMTAP	53	48	6
NMTAP	53	48	7
NMSTR	53	96	6
NMSI_	53	96	6	96	96	2
NMSTR	53	96	7
NMSI_	53	96	7	96	96	3
EXTAP	54	0	0
EXTAP	54	0	1
NMTAP	54	96	3
NMTAP	54	96	4
NMTAP	54	192	6
NMTAP	54	192	7
NMTAP	54	240	6
NMTAP	54	240	7
NMTAP	54	336	0
NMTAP	54	336	5
NMTAP	55	48	3
NMTAP	55	48	4
NMSTR	55	96	3
NMSCL	55	96	3	96	96	0
NMSTR	55	96	4
NMSCR	55	96	4	96	96	7
NMTAP	56	0	1
NMTAP	56	0	5
NMTAP	56	96	2
NMTAP	56	96	3
NMTAP	56	144	2
NMTAP	56	144	3
NMTAP	56	240	4
NMTAP	56	240	5
NMTAP	56	288	4
NMTAP	56	288	5
NMTAP	57	0	6
NMTAP	57	48	6
NMTAP	57	96	0
BRTAP	57	192	1
BRTAP	57	192	5
EXTAP	58	0	2
EXTAP	58	0	3
NMTAP	58	96	0
NMTAP	58	96	7
NMTAP	58	192	4
NMTAP	58	192	5
NMTAP	58	240	4
NMTAP	58	240	5
NMTAP	58	336	3
NMTAP	58	336	6
NMTAP	59	48	0
NMTAP	59	48	7
NMTAP	59	96	0
NMTAP	59	96	7
NMHLD	59	192	1	72
NMHLD	59	264	2	72
NMTAP	59	336	3
EXTAP	60	0	3
NMTAP	60	96	4
NMTAP	60	96	5
NMTAP	60	192	6
NMTAP	60	192	7
NMTAP	60	240	6
NMTAP	60	240	7
NMTAP	60	336	0
NMTAP	60	336	1
NMTAP	61	48	2
NMTAP	61	48	3
NMSTR	61	96	2
NMSUL	61	96	2	96	96	5
NMSTR	61	96	3
NMSV_	61	96	3	96	96	4
EXTAP	62	0	0
EXTAP	62	0	7
NMTAP	62	96	2
NMTAP	62	96	3
NMTAP	62	192	4
NMTAP	62	192	5
NMTAP	62	240	4
NMTAP	62	240	5
NMTAP	62	336	3
NMTAP	62	336	6
NMTAP	63	48	0
NMTAP	63	48	7
NMTAP	63	96	0
NMTAP	63	96	7
NMHLD	63	192	1	72
NMHLD	63	264	2	72
NMTAP	63	336	3
EXTAP	64	0	3
NMTAP	64	96	5
NMTAP	64	144	5
NMTAP	64	192	4
NMTAP	64	288	6
NMTAP	64	288	7
NMSTR	64	336	6
BRSXR	64	336	6	96	144	6
NMSTR	64	336	7
BRSXL	64	336	7	96	144	7
EXTAP	65	336	2
EXTAP	66	0	1
EXTAP	66	0	3
EXTAP	66	144	5
EXTAP	66	192	4
EXTAP	66	192	6
NMTAP	66	336	1
NMTAP	67	0	1
NMTAP	67	48	0
NMTAP	67	96	0
NMTAP	67	192	2
NMTAP	67	192	7
EXTAP	67	288	3
EXTAP	67	288	4
EXTAP	68	0	0
EXTAP	68	0	6
EXTAP	68	144	2
EXTAP	68	192	1
EXTAP	68	192	3
NMTAP	68	336	6
NMTAP	69	0	6
NMTAP	69	48	7
NMTAP	69	96	7
NMTAP	69	192	0
NMTAP	69	192	5
BRTAP	69	288	3
BRTAP	69	288	4
EXTAP	70	0	1
EXTAP	70	0	7
NMTAP	70	96	1
NMTAP	70	96	7
NMTAP	70	192	0
NMTAP	70	192	6
NMTAP	70	288	0
NMTAP	70	288	6
NMTAP	71	0	1
NMTAP	71	0	7
NMTAP	71	96	0
NMTAP	71	96	6
NMTAP	71	192	1
NMTAP	71	192	7
NMTAP	71	288	0
NMTAP	71	288	6
NMTAP	72	0	2
NMTAP	72	0	4
NMTAP	72	96	2
NMTAP	72	96	4
NMTAP	72	192	3
NMTAP	72	192	5
NMTAP	72	288	3
NMTAP	72	288	5
NMTAP	73	0	2
NMTAP	73	0	4
NMTAP	73	96	3
NMTAP	73	96	5
NMTAP	73	192	2
NMTAP	73	192	4
NMTAP	73	288	3
NMTAP	73	288	5
EXTAP	74	0	0
EXTAP	74	0	6
NMTAP	74	96	0
NMTAP	74	96	6
NMTAP	74	192	1
NMTAP	74	192	7
NMTAP	74	288	1
NMTAP	74	288	7
NMTAP	75	0	0
NMTAP	75	0	6
NMTAP	75	96	1
NMTAP	75	96	7
NMTAP	75	192	0
NMTAP	75	192	6
NMTAP	75	288	1
NMTAP	75	288	7
NMTAP	76	0	0
NMTAP	76	0	5
NMTAP	76	96	1
NMTAP	76	96	6
NMTAP	76	192	2
NMTAP	76	192	7
NMTAP	76	288	1
NMTAP	76	288	6
NMTAP	77	0	4
NMTAP	77	48	4
NMTAP	77	96	3
BRTAP	77	192	2
BRTAP	77	192	5
EXTAP	78	0	6
EXTAP	78	0	7
NMTAP	78	96	6
NMTAP	78	96	7
NMTAP	78	192	0
NMTAP	78	192	1
NMTAP	78	288	0
NMTAP	78	288	1
NMTAP	79	0	6
NMTAP	79	0	7
NMTAP	79	96	0
NMTAP	79	96	1
NMTAP	79	192	6
NMTAP	79	192	7
NMTAP	79	288	0
NMTAP	79	288	1
NMTAP	80	0	4
NMTAP	80	0	5
NMTAP	80	96	4
NMTAP	80	96	5
NMTAP	80	192	2
NMTAP	80	192	3
NMTAP	80	288	2
NMTAP	80	288	3
NMTAP	81	0	4
NMTAP	81	0	5
NMTAP	81	96	2
NMTAP	81	96	3
NMTAP	81	192	4
NMTAP	81	192	5
NMTAP	81	288	2
NMTAP	81	288	3
EXTAP	82	0	0
EXTAP	82	0	1
NMTAP	82	96	0
NMTAP	82	96	1
NMTAP	82	192	6
NMTAP	82	192	7
NMTAP	82	288	6
NMTAP	82	288	7
NMTAP	83	0	0
NMTAP	83	0	1
NMTAP	83	96	6
NMTAP	83	96	7
NMTAP	83	192	0
NMTAP	83	192	1
NMTAP	83	288	6
NMTAP	83	288	7
NMTAP	84	0	2
NMTAP	84	0	3
NMTAP	84	96	3
NMTAP	84	96	4
NMTAP	84	192	4
NMTAP	84	192	5
NMTAP	84	288	3
NMTAP	84	288	4
NMTAP	85	0	3
NMTAP	85	48	3
NMTAP	85	96	4
BRTAP	85	192	1
BRTAP	85	192	6
EXTAP	85	336	6
EXTAP	86	0	5
EXTAP	86	0	7
EXTAP	86	144	1
EXTAP	86	192	0
EXTAP	86	192	2
NMTAP	86	336	5
NMTAP	87	0	5
NMTAP	87	48	4
NMTAP	87	96	4
NMTAP	87	192	3
NMTAP	87	192	6
EXTAP	87	288	0
EXTAP	87	288	1
EXTAP	88	0	2
EXTAP	88	0	7
EXTAP	88	144	6
EXTAP	88	192	5
EXTAP	88	192	7
NMTAP	88	336	1
NMTAP	89	0	1
NMTAP	89	48	0
NMTAP	89	96	0
NMTAP	89	192	2
NMTAP	89	192	7
EXTAP	89	288	3
EXTAP	89	288	4
BRTAP	90	0	1
BRTAP	90	0	6

T_REC_TAP	329
T_REC_BRK	14
T_REC_XTP	77
T_REC_BXX	1
T_REC_HLD	16
T_REC_XHO	6
T_REC_BHO	0
T_REC_BXH	4
T_REC_STR	18
T_REC_BST	0
T_REC_XST	4
T_REC_XBS	0
T_REC_TTP	28
T_REC_THO	0
T_REC_SLD	20
T_REC_BSL	2
T_REC_ALL	519
T_NUM_TAP	456
T_NUM_BRK	21
T_NUM_HLD	22
T_NUM_SLD	20
T_NUM_ALL	519
T_JUDGE_TAP	471
T_JUDGE_HLD	140
T_JUDGE_SLD	22
T_JUDGE_ALL	633
TTM_EACHPAIRS	163
TTM_SCR_TAP	228000
TTM_SCR_BRK	54600
TTM_SCR_HLD	22000
TTM_SCR_SLD	30000
TTM_SCR_ALL	334600
TTM_SCR_S	322550
TTM_SCR_SS	332500
TTM_RAT_ACV	10063

