VERSION	0.00.00	1.04.00
FES_MODE	0
BPM_DEF	186.000	186.000	186.000	186.000
MET_DEF	4	4
RESOLUTION	384
CLK_DEF	384
COMPATIBLE_CODE	MA2

BPM	0	0	186.000
MET	0	0	4	4

NMHLD	1	336	2	96
NMTAP	2	48	3
NMTAP	2	96	3
NMTAP	2	192	2
NMTAP	2	240	2
NMHLD	2	336	5	96
NMTAP	3	48	4
NMTAP	3	96	4
NMTAP	3	192	5
NMTAP	3	240	5
NMHLD	3	336	1	96
NMTAP	4	48	3
NMHLD	4	96	3	96
NMTAP	4	192	2
NMTAP	4	240	2
NMHLD	4	336	6	96
NMTAP	5	48	4
NMHLD	5	96	4	96
NMTAP	5	192	5
NMSTR	5	240	5
NMSCR	5	240	5	96	624	3
BRTAP	5	336	3
NMTAP	7	288	2
NMTAP	7	288	4
NMHLD	7	336	2	528
NMHLD	7	336	4	528
NMTAP	9	192	3
NMSTR	9	240	3
NMSCL	9	240	3	96	624	5
BRTAP	9	336	0
NMTTP	11	288	7	E	0	M1
NMTTP	11	304	6	B	0	M1
NMTTP	11	320	5	B	0	M1
EXHLD	11	336	3	480
NMTTP	11	336	5	E	0	M1
NMHLD	12	336	5	96
NMTAP	13	96	4
NMTAP	13	144	4
NMTAP	13	192	3
NMTAP	13	192	5
NMTAP	13	240	2
NMSTR	13	240	6
NMSI_	13	240	6	96	48	2
NMTAP	13	336	0
NMTAP	13	336	6
NMTAP	14	48	1
NMSTR	14	96	1
NMSI_	14	96	1	96	48	7
NMTAP	14	192	3
NMTAP	14	288	5
NMTAP	14	336	5
NMTAP	15	48	6
NMSTR	15	96	6
NMSI_	15	96	6	96	48	4
NMTAP	15	192	3
NMTAP	15	288	0
NMHLD	15	336	1	96
NMTAP	15	336	7
NMTAP	16	48	3
NMTAP	16	96	3
NMHLD	16	144	2	96
NMTAP	16	144	4
NMTAP	16	240	4
NMTAP	16	288	4
NMHLD	16	336	3	96
NMTAP	16	336	5
NMTAP	17	48	6
NMTAP	17	96	6
NMTAP	17	144	4
NMTAP	17	192	5
NMTAP	17	240	5
NMTAP	17	336	3
NMTAP	17	336	4
NMTAP	18	48	6
NMSTR	18	96	6
NMSI_	18	96	6	96	48	0
NMTAP	18	192	4
NMTAP	18	288	2
NMTAP	18	336	2
NMTAP	19	48	1
NMSTR	19	96	1
NMSI_	19	96	1	96	48	3
NMTAP	19	192	4
NMTAP	19	288	7
NMTAP	19	336	0
NMTAP	19	336	6
NMTAP	20	48	2
NMTAP	20	96	2
NMTAP	20	144	3
NMTAP	20	192	1
NMSTR	20	240	1
NMSCR	20	240	1	96	48	4
NMTAP	20	336	7
NMTAP	21	48	5
NMTAP	21	96	4
NMTAP	21	96	5
NMTAP	21	192	5
NMTAP	21	224	3
NMTAP	21	256	4
NMSTR	21	288	2
NMSUR	21	288	2	96	192	4
NMHLD	22	0	7	144
NMTAP	22	192	7
NMTAP	22	288	3
NMTAP	22	288	5
NMTAP	22	336	4
NMTAP	23	48	4
NMTAP	23	96	3
NMSTR	23	96	5
NMSCR	23	96	5	96	96	7
NMSTR	23	192	7
NMSCR	23	192	7	96	96	1
NMSTR	23	288	1
NMSCR	23	288	1	96	96	4
NMSTR	24	0	4
NMSCR	24	0	4	96	96	7
NMSTR	24	96	7
NMSCR	24	96	7	96	96	2
NMSTR	24	192	2
NMSLL	24	192	2	96	144	6
NMTAP	24	288	3
NMTAP	24	336	3
NMTAP	25	48	2
CNSI_	25	48	6	0	48	4
NMTAP	25	96	2
EXTAP	25	192	1
EXTAP	25	192	3
EXTAP	25	288	4
EXSTR	25	288	5
NMSUL	25	288	5	96	192	3
NMHLD	26	0	0	144
NMTAP	26	192	0
NMTAP	26	288	2
NMTAP	26	288	4
NMTAP	26	336	3
NMTAP	27	48	3
NMSTR	27	96	2
NMSCL	27	96	2	96	96	0
NMTAP	27	96	4
NMSTR	27	192	0
NMSCL	27	192	0	96	96	6
NMSTR	27	288	6
NMSCL	27	288	6	96	96	3
NMSTR	28	0	3
NMSCL	28	0	3	96	96	0
NMSTR	28	96	0
NMSCL	28	96	0	96	96	5
NMSTR	28	192	5
NMSLR	28	192	5	96	144	1
NMTAP	28	288	4
NMTAP	28	336	4
CNSI_	29	48	1	0	48	3
NMTAP	29	48	5
NMHLD	29	96	5	96
NMTAP	29	192	4
BRSTR	29	240	3
NMSXR	29	240	3	96	288	0
BRSTR	29	240	7
NMSXR	29	240	7	96	288	4
NMTAP	30	288	1
NMTAP	30	288	5
NMTAP	30	336	1
NMTAP	30	336	5
NMTAP	31	48	2
NMTAP	31	48	6
NMSTR	31	96	2
NMSCR	31	96	2	96	96	5
NMTAP	31	96	6
NMSTR	31	192	5
NMSCR	31	192	5	96	96	0
NMSTR	31	288	0
NMSCR	31	288	0	96	96	3
NMSTR	32	0	3
NMSCR	32	0	3	96	96	6
NMSTR	32	96	6
NMSCR	32	96	6	96	96	1
NMTAP	32	192	1
NMTAP	32	288	5
NMTAP	32	336	4
NMTAP	32	336	6
NMTAP	33	48	2
NMTAP	33	96	1
NMTAP	33	96	3
NMTAP	33	192	3
NMTAP	33	192	4
NMTAP	33	288	0
NMTAP	33	312	7
NMTAP	33	336	0
NMTAP	33	360	7
NMSTR	34	0	1
NMSI_	34	0	1	96	48	4
NMTAP	34	96	5
NMTAP	34	192	0
NMTAP	34	240	0
NMTAP	34	288	1
NMTAP	34	288	7
NMTAP	35	0	0
NMSTR	35	0	6
NMSI_	35	0	6	96	48	3
NMTAP	35	96	2
NMTAP	35	192	7
NMTAP	35	240	7
NMSTR	35	288	0
NMSCR	35	288	0	96	48	3
NMTAP	35	288	6
NMTAP	36	0	0
NMSTR	36	0	7
NMSCL	36	0	7	96	48	4
NMTAP	36	96	0
NMTAP	36	96	7
NMTAP	36	192	2
NMTAP	36	192	3
NMSTR	36	240	1
NMSI_	36	240	1	96	48	4
NMSTR	36	240	5
NMSI_	36	240	5	96	48	0
NMTAP	36	336	1
NMTAP	36	336	5
BRTAP	37	48	2
BXTAP	37	48	6
BXHLD	37	96	0	240
BRHLD	37	96	4	240
NMTTP	37	336	1	D	1	M1
NMTTP	37	336	5	D	0	M1
NMTTP	37	344	1	A	0	M1
NMTTP	37	344	5	A	0	M1
NMTTP	37	352	2	D	0	M1
NMTTP	37	352	6	D	0	M1
NMTTP	37	360	2	A	0	M1
NMTTP	37	360	6	A	0	M1
NMTTP	37	368	3	D	0	M1
NMTTP	37	368	7	D	1	M1
NMTAP	38	96	2
NMTAP	38	96	3
NMHLD	38	144	1	48
NMHLD	38	192	7	48
NMHLD	38	240	5	48
NMHLD	38	288	3	48
NMSTR	38	336	1
NMSUR	38	336	1	96	120	3
BRTAP	39	48	7
NMTAP	39	192	4
NMTAP	39	192	5
NMSTR	39	240	7
NMSF_	39	240	7	96	48	3
NMTAP	39	336	7
NMSTR	40	48	0
NMSI_	40	48	0	96	48	5
NMSTR	40	96	1
NMSI_	40	96	1	96	48	4
NMTAP	40	288	0
NMTAP	40	288	5
NMSTR	40	336	6
NMSI_	40	336	6	96	48	2
NMSTR	40	336	7
NMSI_	40	336	7	96	48	3
BRTAP	41	48	6
BRTAP	41	48	7
NMTAP	41	192	1
NMTAP	41	192	4
NMSTR	41	240	2
NMSCL	41	240	2	96	48	7
NMTAP	41	240	3
NMHLD	41	336	6	96
NMTAP	42	48	4
NMTAP	42	96	3
NMTAP	42	144	2
NMTAP	42	192	1
NMSTR	42	240	0
NMSI_	42	240	0	96	48	4
NMSTR	42	336	7
NMSI_	42	336	7	96	48	3
NMSTR	43	48	6
NMSI_	43	48	6	96	48	2
NMSTR	43	144	5
NMSI_	43	144	5	96	48	1
NMSTR	43	240	4
NMSI_	43	240	4	96	48	0
NMSTR	43	336	3
NMSI_	43	336	3	96	48	7
NMSTR	44	48	2
NMSCL	44	48	2	96	144	4
NMTAP	44	96	2
NMSTR	44	336	0
NMSI_	44	336	0	96	48	4
NMSTR	44	336	1
NMSI_	44	336	1	96	48	4
NMTAP	45	48	0
NMTAP	45	48	1
NMSTR	45	144	6
NMSI_	45	144	6	96	48	3
NMSTR	45	144	7
NMSI_	45	144	7	96	48	3
NMTAP	45	240	6
NMTAP	45	240	7
BRHLD	45	336	0	96
NMTAP	46	48	2
NMSTR	46	96	3
NMSCL	46	96	3	96	48	0
NMTAP	46	144	4
NMHLD	46	192	6	96
NMTAP	46	288	7
NMSTR	46	336	1
NMSI_	46	336	1	96	48	4
NMSTR	46	336	5
NMSI_	46	336	5	96	48	0
BRTAP	47	48	1
BRTAP	47	48	5
NMTAP	47	192	2
NMTAP	47	192	6
NMSTR	47	240	2
NMSI_	47	240	2	96	48	5
NMTAP	47	240	6
BRHLD	47	336	7	96
NMSTR	48	48	3
NMSCL	48	48	3	96	48	0
NMTAP	48	96	3
NMSTR	48	144	7
NMSCL	48	144	7	96	48	4
NMTAP	48	192	7
NMTAP	48	240	1
NMTAP	48	288	1
NMSTR	48	336	2
NMSI_	48	336	2	96	48	7
NMSTR	48	336	6
NMSI_	48	336	6	96	48	3
BRTAP	49	48	2
BRTAP	49	48	6
NMTAP	49	192	0
NMTAP	49	216	7
NMTAP	49	240	0
NMTAP	49	264	7
NMTAP	49	288	0
NMTAP	49	312	7
EXHLD	49	336	1	96
EXTAP	49	336	6
NMHLD	50	48	0	48
NMHLD	50	96	3	48
NMHLD	50	144	7	48
NMHLD	50	192	4	48
BRHLD	50	240	6	96
BRHLD	50	336	5	96
NMHLD	51	48	4	48
NMHLD	51	96	7	48
NMHLD	51	144	3	48
NMHLD	51	192	0	48
BRSTR	51	240	2
NMSCR	51	240	2	96	96	7
BRHLD	51	336	1	144
NMTAP	52	96	0
NMTAP	52	144	2
NMTAP	52	144	6
NMSTR	52	240	4
NMSI_	52	240	4	96	48	0
NMSTR	52	240	5
NMSI_	52	240	5	96	48	0
NMHLD	53	48	1	48
NMHLD	53	96	3	48
NMHLD	53	144	5	48
NMTAP	53	192	7
NMTAP	53	240	0
NMSTR	53	240	6
NMSUL	53	240	6	96	336	4
NMHLD	53	336	1	528
BRTAP	53	336	6
NMHLD	54	336	6	144
BRTAP	55	192	0
BRTAP	55	192	7
BRSTR	55	240	0
NMSSL	55	240	0	96	72	4
BRSTR	55	240	7
NMSSR	55	240	7	96	72	3
NMTTP	55	336	0	E	1	M1
EXSTR	56	96	2
NMSI_	56	96	2	96	48	5
EXSTR	56	96	6
NMSI_	56	96	6	96	48	1
EXTAP	56	144	1
EXTAP	56	144	5
NMTAP	56	288	6
NMTAP	56	288	7
NMSTR	56	336	0
BRSI_	56	336	0	96	48	4
NMSTR	56	336	1
BRSI_	56	336	1	96	48	4
EXTAP	57	48	0
EXTAP	57	48	1
NMTAP	57	192	2
NMTAP	57	192	3
NMTAP	57	240	4
NMSTR	57	240	5
NMSCR	57	240	5	96	48	0
NMHLD	57	336	1	96
NMTAP	58	48	3
NMTAP	58	96	2
NMTAP	58	96	4
NMTAP	58	144	5
NMTAP	58	192	4
NMTAP	58	192	6
NMTAP	58	240	3
NMSTR	58	240	7
NMSI_	58	240	7	96	48	3
NMSTR	58	336	0
NMSI_	58	336	0	96	48	4
NMSTR	59	48	1
NMSI_	59	48	1	96	48	5
NMSTR	59	144	2
NMSI_	59	144	2	96	48	6
NMSTR	59	240	3
NMSI_	59	240	3	96	48	7
NMSTR	59	336	4
NMSI_	59	336	4	96	48	0
NMSTR	60	48	5
NMSCR	60	48	5	96	144	3
NMTAP	60	96	5
NMSTR	60	336	6
NMSI_	60	336	6	96	48	2
NMSTR	60	336	7
NMSI_	60	336	7	96	48	2
NMTAP	61	48	6
NMTAP	61	48	7
NMSTR	61	144	0
NMSI_	61	144	0	96	48	5
NMSTR	61	144	1
NMSI_	61	144	1	96	48	5
NMTAP	61	240	0
NMTAP	61	240	1
BRHLD	61	336	3	96
NMTAP	62	48	2
NMSTR	62	96	1
NMSCR	62	96	1	96	48	4
NMTAP	62	144	0
NMHLD	62	192	6	96
NMTAP	62	288	7
NMSTR	62	336	1
NMSI_	62	336	1	96	48	4
NMSTR	62	336	5
NMSV_	62	336	5	96	48	0
BRTAP	63	48	1
BRTAP	63	48	5
NMTAP	63	192	2
NMTAP	63	192	6
NMSTR	63	240	2
NMSV_	63	240	2	96	48	7
NMSTR	63	240	6
NMSI_	63	240	6	96	48	3
BRTAP	63	336	2
BRTAP	63	336	6
NMSTR	64	48	0
NMSI_	64	48	0	96	48	4
NMSTR	64	96	7
NMSI_	64	96	7	96	48	5
NMSTR	64	144	0
NMSI_	64	144	0	96	48	2
NMSTR	64	192	7
NMSI_	64	192	7	96	48	3
NMTAP	64	240	0
NMTAP	64	288	7
EXSTR	64	336	1
NMSCL	64	336	1	96	96	3
BRTAP	65	48	1
BRTAP	65	48	5
NMTAP	65	192	1
NMTAP	65	216	0
NMTAP	65	240	1
NMTAP	65	264	0
NMTAP	65	288	1
NMTAP	65	312	0
EXHLD	65	336	2	96
EXTAP	65	336	7
NMTAP	66	48	3
EXTAP	66	96	2
NMTAP	66	96	3
NMTAP	66	144	5
EXTAP	66	192	4
NMTAP	66	192	5
NMTAP	66	240	6
NMTAP	66	288	6
EXTAP	66	288	7
EXTAP	66	336	0
EXHLD	66	336	5	96
NMTAP	67	48	4
NMTAP	67	96	4
EXTAP	67	96	5
NMTAP	67	144	2
NMTAP	67	192	2
EXTAP	67	192	3
NMTAP	67	240	1
EXTAP	67	288	0
NMTAP	67	288	1
EXTAP	67	336	2
EXSTR	67	336	6
NMSI_	67	336	6	96	48	2
NMTAP	68	96	0
NMSTR	68	144	1
NMSI_	68	144	1	96	48	5
NMTAP	68	144	7
NMTAP	68	240	1
NMSTR	68	240	4
NMSCL	68	240	4	96	48	2
NMSTR	68	336	0
NMSCL	68	336	0	96	48	6
CNSI_	69	0	2	0	48	0
CNSI_	69	96	6	0	48	4
EXTAP	69	192	2
EXTAP	69	192	3
EXHLD	69	240	1	816
EXHLD	69	240	5	816
BRTAP	71	336	2
BRTAP	71	336	6
NMTAP	72	48	5
NMTAP	72	96	4
NMTAP	72	144	6
NMTAP	72	192	0
NMTAP	72	240	1
NMTAP	72	288	3
NMSTR	72	336	2
NMSCR	72	336	2	96	48	5
NMHLD	73	48	6	96
NMTAP	73	144	7
NMTAP	73	192	6
NMSTR	73	240	4
NMSI_	73	240	4	96	48	0
NMSTR	73	240	5
NMSI_	73	240	5	96	48	0
NMTAP	73	336	4
NMTAP	73	336	5
NMTAP	74	48	1
NMTAP	74	96	3
NMTAP	74	144	2
NMTAP	74	192	7
NMTAP	74	240	6
NMTAP	74	288	4
NMSTR	74	336	5
NMSCL	74	336	5	96	48	2
NMHLD	75	48	1	96
NMTAP	75	144	0
NMTAP	75	192	1
NMSTR	75	240	2
NMSI_	75	240	2	96	48	7
NMSTR	75	240	3
NMSI_	75	240	3	96	48	7
NMTAP	75	336	2
NMTAP	75	336	3
NMTAP	76	48	6
NMTAP	76	96	4
NMTAP	76	144	5
NMTAP	76	192	0
NMSTR	76	240	1
NMSI_	76	240	1	96	48	5
NMTAP	76	288	3
NMSTR	76	336	2
NMSI_	76	336	2	96	48	6
NMSTR	77	48	3
NMSI_	77	48	3	96	48	7
NMSTR	77	144	4
NMSI_	77	144	4	96	48	0
NMSTR	77	240	5
NMSI_	77	240	5	96	48	1
NMSTR	77	336	6
NMSXR	77	336	6	96	240	2
NMTAP	78	48	0
NMTAP	78	96	0
NMHLD	78	336	1	96
NMHLD	79	48	3	48
NMHLD	79	96	2	48
NMHLD	79	144	0	48
NMHLD	79	192	4	48
NMHLD	79	240	7	48
NMHLD	79	288	5	48
BRTAP	79	336	6
NMTAP	80	48	0
NMTAP	80	48	4
NMTAP	80	96	1
NMTAP	80	144	5
NMTAP	80	192	6
NMTAP	80	192	7
NMSTR	80	240	0
NMSI_	80	240	0	96	48	4
NMSTR	80	240	4
NMSI_	80	240	4	96	48	6
NMTAP	81	48	3
NMTAP	81	48	7
NMTAP	81	96	6
NMTAP	81	144	2
NMTAP	81	192	0
NMTAP	81	192	1
NMSTR	81	240	3
NMSI_	81	240	3	96	48	1
NMSTR	81	240	7
NMSI_	81	240	7	96	48	3
NMTAP	82	48	0
NMTAP	82	48	4
NMTAP	82	96	1
NMTAP	82	144	5
NMTAP	82	192	6
NMTAP	82	192	7
NMTAP	82	240	6
NMSTR	82	240	7
NMSCR	82	240	7	96	48	2
NMSTR	82	336	4
NMSI_	82	336	4	96	48	0
BRTAP	82	336	7
NMSTR	83	48	1
NMSCR	83	48	1	96	48	4
BRTAP	83	48	4
BRTAP	83	144	1
NMSTR	83	144	7
NMSF_	83	144	7	96	48	3
BRTAP	83	240	7
NMTAP	83	336	1
NMHLD	83	336	5	96
NMTAP	84	48	7
EXTAP	84	96	6
NMTAP	84	96	7
NMTAP	84	144	1
EXTAP	84	192	0
NMTAP	84	192	1
NMTAP	84	240	2
NMSTR	84	240	7
NMSCL	84	240	7	96	48	4
NMHLD	84	336	1	96
NMTAP	84	336	7
NMTAP	85	48	3
EXTAP	85	96	2
NMTAP	85	96	3
NMTAP	85	144	5
EXTAP	85	192	4
NMTAP	85	192	5
NMSTR	85	240	3
NMSCL	85	240	3	96	48	0
NMTAP	85	240	6
NMTAP	85	336	3
NMHLD	85	336	7	96
NMTAP	86	48	0
EXTAP	86	96	1
EXTAP	86	96	6
NMTAP	86	144	2
NMTAP	86	144	5
EXTAP	86	192	3
EXTAP	86	192	4
NMSTR	86	240	1
NMSI_	86	240	1	96	48	5
NMSTR	86	240	6
NMSI_	86	240	6	96	48	2
NMTTP	86	336	0	C	1	M1
NMTAP	87	192	0
NMTAP	87	192	7
NMSTR	87	240	2
NMSXR	87	240	2	96	1464	3
NMSTR	87	240	6
NMSXR	87	240	6	96	1464	7
BRTAP	87	336	2
BRTAP	87	336	6
BRTAP	91	288	0
BRTAP	91	288	4
BRTAP	91	336	2
BRTAP	91	336	6

T_REC_TAP	270
T_REC_BRK	32
T_REC_XTP	27
T_REC_BXX	1
T_REC_HLD	48
T_REC_XHO	6
T_REC_BHO	7
T_REC_BXH	1
T_REC_STR	113
T_REC_BST	5
T_REC_XST	5
T_REC_XBS	0
T_REC_TTP	16
T_REC_THO	0
T_REC_SLD	121
T_REC_BSL	2
T_REC_ALL	654
T_NUM_TAP	431
T_NUM_BRK	48
T_NUM_HLD	54
T_NUM_SLD	121
T_NUM_ALL	654
T_JUDGE_TAP	469
T_JUDGE_HLD	178
T_JUDGE_SLD	123
T_JUDGE_ALL	770
TTM_EACHPAIRS	127
TTM_SCR_TAP	215500
TTM_SCR_BRK	124800
TTM_SCR_HLD	54000
TTM_SCR_SLD	181500
TTM_SCR_ALL	575800
TTM_SCR_S	553900
TTM_SCR_SS	571000
TTM_RAT_ACV	10084

