VERSION	0.00.00	1.04.00
FES_MODE	0
BPM_DEF	186.000	186.000	186.000	186.000
MET_DEF	4	4
RESOLUTION	384
CLK_DEF	384
COMPATIBLE_CODE	MA2

BPM	0	0	186.000
MET	0	0	4	4

EXHLD	1	336	3	240
NMTAP	2	192	4
NMHLD	2	336	5	240
NMTAP	3	192	4
NMHLD	3	336	2	240
NMTAP	4	192	3
NMHLD	4	336	4	240
NMTAP	5	192	3
NMSTR	5	240	3
NMSCL	5	240	3	96	624	5
NMTTP	5	336	0	C	1	M1
NMTAP	7	288	4
NMTAP	7	336	4
NMTAP	9	192	4
NMSTR	9	240	4
NMSCR	9	240	4	96	624	2
NMTTP	9	336	0	C	1	M1
NMHLD	11	336	3	384
NMHLD	12	336	4	240
NMTAP	13	192	5
NMTAP	14	0	3
EXHLD	14	0	6	672
NMTAP	14	96	3
NMTAP	14	192	4
NMTAP	14	288	4
NMTAP	15	0	5
NMTAP	15	96	5
NMTAP	15	192	7
NMTAP	15	288	7
NMTAP	16	0	6
NMTAP	16	0	7
NMTAP	16	96	6
NMTAP	16	96	7
NMTAP	16	192	4
NMTAP	16	192	5
NMTAP	16	288	4
NMTAP	16	288	5
NMTAP	17	0	3
NMTAP	17	0	6
NMTAP	17	96	3
NMTAP	17	96	6
NMTAP	17	192	2
NMTAP	17	192	5
NMTAP	17	288	1
NMTAP	17	288	4
NMHLD	18	0	1	672
NMTAP	18	0	4
NMTAP	18	96	4
NMTAP	18	192	3
NMTAP	18	288	3
NMTAP	19	0	2
NMTAP	19	96	2
NMTAP	19	192	0
NMTAP	19	288	0
NMTAP	20	0	0
NMTAP	20	0	1
NMTAP	20	96	0
NMTAP	20	96	1
NMTAP	20	192	2
NMTAP	20	192	3
NMTAP	20	288	2
NMTAP	20	288	3
NMTAP	21	0	4
NMTAP	21	0	5
NMTAP	21	96	4
NMTAP	21	96	5
BRTAP	21	192	3
BRTAP	21	192	6
NMSTR	22	0	1
NMSCR	22	0	1	96	96	4
NMSTR	22	192	5
NMSCR	22	192	5	96	96	0
NMSTR	23	0	1
NMSCR	23	0	1	96	96	4
NMTAP	23	192	5
NMTAP	23	288	5
NMSTR	24	0	6
NMSCL	24	0	6	96	96	3
NMSTR	24	192	2
NMSXR	24	192	2	96	288	7
EXTAP	25	192	6
NMSTR	26	0	6
NMSCL	26	0	6	96	96	3
NMSTR	26	192	2
NMSCL	26	192	2	96	96	7
NMSTR	27	0	6
NMSI_	27	0	6	96	96	2
EXTAP	27	192	1
EXTAP	27	288	1
NMSTR	28	0	0
NMSUR	28	0	0	96	96	4
NMSTR	28	192	5
NMSLR	28	192	5	96	192	3
BXTAP	29	192	2
BXTAP	29	192	4
NMSTR	30	0	1
NMSUR	30	0	1	96	96	5
NMSTR	30	192	6
NMSUL	30	192	6	96	96	2
NMSTR	31	0	1
NMSUR	31	0	1	96	96	5
NMTAP	31	192	7
NMTAP	31	288	7
NMSTR	32	0	6
NMSLL	32	0	6	96	144	2
NMSTR	33	0	1
NMSI_	33	0	1	96	96	4
NMTAP	33	192	5
NMTAP	33	288	2
NMTAP	33	288	6
NMHLD	34	0	1	96
NMTAP	34	96	0
NMTAP	34	192	6
NMTAP	34	240	6
NMTAP	34	288	7
NMHLD	35	0	1	96
NMTAP	35	96	3
NMTAP	35	192	6
NMTAP	35	240	6
NMTAP	35	288	4
NMTAP	36	0	5
NMTAP	36	96	3
NMTAP	36	192	0
NMTAP	36	192	1
NMTAP	36	240	0
NMTAP	36	240	1
EXTAP	36	336	2
EXTAP	36	336	6
NMTAP	37	192	0
NMTAP	37	192	1
BRSTR	37	240	0
NMSI_	37	240	0	96	48	4
BRSTR	37	240	1
NMSI_	37	240	1	96	48	4
EXTAP	38	96	6
EXTAP	38	96	7
NMTAP	38	192	0
NMTAP	38	192	1
NMTAP	38	288	2
NMTAP	38	288	3
NMTAP	38	336	2
NMTAP	38	336	3
EXTAP	39	48	0
EXTAP	39	48	5
NMTAP	39	192	6
NMTAP	39	192	7
BRSTR	39	240	6
NMSI_	39	240	6	96	48	3
BRSTR	39	240	7
NMSI_	39	240	7	96	48	3
NMTAP	40	96	0
NMTAP	40	96	1
NMTAP	40	192	6
NMTAP	40	192	7
NMTAP	40	288	4
NMTAP	40	288	5
NMTAP	40	336	4
NMTAP	40	336	5
EXTAP	41	48	2
EXTAP	41	48	7
NMTAP	41	192	1
NMTAP	41	240	1
NMTAP	41	336	2
NMTAP	41	336	3
NMTAP	42	48	4
NMTAP	42	96	4
NMTAP	42	192	3
NMTAP	42	192	5
NMTAP	42	240	3
NMTAP	42	240	5
NMTAP	42	336	2
NMTAP	42	336	3
NMTAP	43	48	0
NMTAP	43	48	1
NMTAP	43	144	6
NMTAP	43	144	7
NMTAP	43	240	4
NMTAP	43	240	5
NMTAP	43	336	2
NMTAP	43	336	3
NMTAP	44	48	0
NMTAP	44	48	1
NMTAP	44	96	0
NMHLD	44	96	1	144
NMTAP	44	192	3
NMTAP	44	240	3
EXSTR	44	336	2
NMSI_	44	336	2	96	48	7
EXTAP	44	336	4
EXTAP	45	144	3
EXSTR	45	144	5
NMSI_	45	144	5	96	48	0
NMTAP	45	336	1
NMTAP	46	48	2
NMTAP	46	48	3
NMTAP	46	96	2
NMTAP	46	96	3
NMTAP	46	192	4
NMTAP	46	192	5
NMTAP	46	288	6
NMTAP	46	288	7
NMTAP	46	336	6
NMTAP	46	336	7
NMTAP	47	48	1
NMTAP	47	48	4
NMTAP	47	192	2
NMTAP	47	192	3
NMTAP	47	240	2
NMTAP	47	240	3
NMTAP	47	336	0
NMTAP	47	336	1
NMTAP	48	48	6
NMTAP	48	48	7
NMTAP	48	96	6
NMTAP	48	96	7
NMTAP	48	192	3
NMTAP	48	192	5
NMTAP	48	288	2
NMTAP	48	288	4
NMTAP	48	336	2
NMTAP	48	336	4
BRTAP	49	48	0
BRTAP	49	48	6
NMTAP	49	192	7
NMTAP	49	240	7
NMTAP	49	336	4
NMTAP	49	336	6
NMTAP	50	48	5
NMTAP	50	96	5
NMTAP	50	144	4
NMTAP	50	192	4
NMTAP	50	240	6
NMTAP	50	336	0
NMTAP	50	336	7
NMTAP	51	48	2
NMTAP	51	96	2
NMTAP	51	144	3
NMTAP	51	192	3
NMTAP	51	240	1
NMHLD	51	336	0	96
NMHLD	51	336	6	96
NMTAP	52	96	2
NMTAP	52	96	4
NMTAP	52	144	2
NMTAP	52	144	4
NMTAP	52	240	1
NMTAP	52	240	5
NMTTP	52	336	0	C	1	M1
NMTAP	53	192	2
NMTAP	53	192	6
NMSTR	53	240	2
NMSXR	53	240	2	96	432	3
NMSTR	53	240	6
NMSXR	53	240	6	96	432	7
BXTAP	55	192	4
BXTAP	55	192	5
BXSTR	55	240	4
BRSI_	55	240	4	96	48	0
BXSTR	55	240	5
BRSI_	55	240	5	96	48	1
EXTAP	56	96	6
EXTAP	56	96	7
NMTAP	56	192	4
NMTAP	56	192	5
NMTAP	56	288	2
NMTAP	56	288	3
NMTAP	56	336	2
NMTAP	56	336	3
BRTAP	57	48	1
BRTAP	57	48	4
NMTAP	57	192	0
NMTAP	57	240	0
NMTAP	57	336	1
NMTAP	57	336	3
NMTAP	58	48	5
NMTAP	58	96	5
NMTAP	58	192	4
NMTAP	58	192	6
NMTAP	58	240	4
NMTAP	58	240	6
NMTAP	58	336	2
NMTAP	58	336	3
NMTAP	59	48	0
NMTAP	59	48	1
NMTAP	59	144	6
NMTAP	59	144	7
NMTAP	59	240	4
NMTAP	59	240	5
NMTAP	59	336	2
NMTAP	59	336	3
NMTAP	60	48	0
NMTAP	60	48	1
NMTAP	60	96	0
NMHLD	60	96	1	144
NMTAP	60	192	3
NMTAP	60	240	3
NMSTR	60	336	2
BRSI_	60	336	2	96	48	7
NMSTR	60	336	3
BRSI_	60	336	3	96	48	7
NMSTR	61	144	4
BRSI_	61	144	4	96	48	0
NMSTR	61	144	5
BRSI_	61	144	5	96	48	0
NMTAP	61	336	1
NMTAP	61	336	3
NMTAP	62	48	2
NMTAP	62	48	3
NMTAP	62	96	2
NMTAP	62	96	3
NMTAP	62	192	4
NMTAP	62	192	5
NMTAP	62	288	6
NMTAP	62	288	7
NMTAP	62	336	6
NMTAP	62	336	7
NMTAP	63	48	0
NMTAP	63	48	5
NMTAP	63	192	1
NMTAP	63	240	1
NMTAP	63	336	0
NMTAP	63	336	1
NMTAP	64	48	6
NMTAP	64	48	7
NMTAP	64	96	6
NMTAP	64	96	7
NMTAP	64	192	3
NMTAP	64	192	5
NMTAP	64	288	2
NMTAP	64	288	4
NMTAP	64	336	2
NMTAP	64	336	4
BXTAP	65	48	0
BXTAP	65	48	6
NMTAP	65	192	7
NMTAP	65	240	7
NMTAP	65	336	3
NMTAP	65	336	5
NMTAP	66	48	2
NMTAP	66	96	2
NMTAP	66	144	3
NMTAP	66	192	3
NMTAP	66	240	1
NMTAP	66	336	0
NMTAP	66	336	7
NMTAP	67	48	5
NMTAP	67	96	5
NMTAP	67	144	4
NMTAP	67	192	4
NMTAP	67	240	6
NMHLD	67	336	1	96
NMHLD	67	336	7	96
NMTAP	68	96	2
NMTAP	68	96	6
NMTAP	68	144	2
NMTAP	68	144	6
NMTAP	68	240	0
NMTAP	68	240	7
EXHLD	68	336	1	192
EXTAP	68	336	5
NMTAP	69	144	2
NMTAP	69	192	2
NMSTR	69	240	2
NMSCL	69	240	2	96	528	5
NMHLD	71	336	1	144
NMTAP	72	48	3
NMTAP	72	96	3
NMTAP	72	192	2
NMTAP	72	192	4
NMTAP	72	288	5
NMTAP	72	336	5
NMTAP	73	48	4
NMTAP	73	48	6
NMTAP	73	144	6
NMTAP	73	192	6
NMTAP	73	240	7
NMHLD	73	336	5	144
NMTAP	74	48	4
NMTAP	74	96	4
NMTAP	74	192	4
NMTAP	74	192	6
NMTAP	74	288	3
NMTAP	74	288	4
NMTAP	74	336	3
NMTAP	74	336	4
NMTAP	75	48	1
NMTAP	75	48	3
NMTAP	75	144	2
NMTAP	75	192	2
NMTAP	75	240	3
NMTAP	75	336	2
NMTAP	75	336	4
NMTAP	76	48	3
NMTAP	76	48	5
NMTAP	76	96	3
NMTAP	76	96	5
NMTAP	76	192	6
NMTAP	76	240	6
NMTAP	76	288	7
NMTAP	76	336	7
NMHLD	77	48	6	96
NMHLD	77	144	4	96
NMHLD	77	240	3	96
NMHLD	77	336	1	288
NMTAP	78	48	5
NMHLD	78	96	5	144
NMTAP	78	336	2
NMTAP	78	336	4
NMTAP	79	48	1
NMTAP	79	96	1
NMTAP	79	144	7
NMTAP	79	192	7
NMTAP	79	240	0
NMTAP	79	288	0
EXTAP	79	336	7
NMTAP	80	48	0
NMTAP	80	48	6
NMTAP	80	96	0
NMTAP	80	96	6
NMTAP	80	192	1
NMTAP	80	192	7
NMTAP	80	240	1
NMTAP	80	240	7
NMTAP	80	336	4
NMTAP	80	336	5
NMTAP	81	48	1
NMTAP	81	48	7
NMTAP	81	96	1
NMTAP	81	96	7
NMTAP	81	192	0
NMTAP	81	192	6
NMTAP	81	240	0
NMTAP	81	240	6
NMTAP	81	336	2
NMTAP	81	336	4
NMTAP	82	48	6
NMTAP	82	48	7
NMTAP	82	96	6
NMTAP	82	96	7
NMTAP	82	192	0
NMTAP	82	192	1
NMTAP	82	240	0
NMTAP	82	240	1
NMTTP	82	336	2	A	0	M1
NMTTP	82	336	3	E	1	M1
NMTTP	82	336	3	A	0	M1
NMTTP	83	48	0	A	0	M1
NMTTP	83	48	1	E	1	M1
NMTTP	83	48	1	A	0	M1
NMTTP	83	144	6	A	0	M1
NMTTP	83	144	7	E	1	M1
NMTTP	83	144	7	A	0	M1
NMTTP	83	240	4	A	0	M1
NMTTP	83	240	5	E	1	M1
NMTTP	83	240	5	A	0	M1
NMTAP	83	336	2
NMTAP	83	336	3
NMTAP	84	48	1
NMTAP	84	96	1
NMTAP	84	144	3
NMTAP	84	192	3
NMTAP	84	240	2
NMTAP	84	336	3
NMTAP	84	336	4
NMTAP	85	48	5
NMTAP	85	96	5
NMTAP	85	144	4
NMTAP	85	192	4
NMTAP	85	240	6
NMTAP	85	336	0
NMTAP	85	336	7
NMTAP	86	48	1
NMTAP	86	96	0
NMTAP	86	144	7
NMTAP	86	192	6
NMTAP	86	240	5
NMTAP	86	336	4
NMHLD	86	336	6	1776
NMTAP	87	192	2
NMSTR	87	240	2
BRSUR	87	240	2	96	624	3
CNSCR	89	192	3	0	768	2
BRTAP	91	288	3
BRTAP	91	288	5
BRTAP	91	336	3
BRTAP	91	336	5

T_REC_TAP	346
T_REC_BRK	10
T_REC_XTP	17
T_REC_BXX	6
T_REC_HLD	22
T_REC_XHO	3
T_REC_BHO	0
T_REC_BXH	0
T_REC_STR	25
T_REC_BST	4
T_REC_XST	2
T_REC_XBS	2
T_REC_TTP	15
T_REC_THO	0
T_REC_SLD	26
T_REC_BSL	7
T_REC_ALL	485
T_NUM_TAP	405
T_NUM_BRK	29
T_NUM_HLD	25
T_NUM_SLD	26
T_NUM_ALL	485
T_JUDGE_TAP	427
T_JUDGE_HLD	141
T_JUDGE_SLD	33
T_JUDGE_ALL	601
TTM_EACHPAIRS	141
TTM_SCR_TAP	202500
TTM_SCR_BRK	75400
TTM_SCR_HLD	25000
TTM_SCR_SLD	39000
TTM_SCR_ALL	341900
TTM_SCR_S	328850
TTM_SCR_SS	339000
TTM_RAT_ACV	10085

