VERSION	0.00.00	1.04.00
FES_MODE	0
BPM_DEF	175.000	175.000	175.000	175.000
MET_DEF	4	4
RESOLUTION	384
CLK_DEF	384
COMPATIBLE_CODE	MA2

BPM	0	0	175.000
MET	0	0	4	4

NMTHO	2	0	0	1152	C	0	M1
EXSTR	2	0	7
NMSCL	2	0	7	96	480	2
NMSTR	4	0	3
NMSCR	4	0	3	96	480	7
EXSTR	6	0	0
NMSCR	6	0	0	96	480	5
NMTHO	6	0	0	1152	C	0	M1
NMSTR	8	0	4
NMSCL	8	0	4	96	480	0
EXTAP	9	288	0
NMSTR	10	0	1
NMSXL	10	0	1	96	192	4
NMTAP	10	96	7
NMTAP	10	144	7
NMTAP	10	240	0
NMTAP	10	288	0
NMSTR	11	0	3
NMSI_	11	0	3	96	72	1
EXTAP	11	0	7
CNSI_	11	168	1	0	48	4
CNSI_	11	216	4	0	72	0
NMTAP	12	0	2
NMSTR	12	0	6
NMSXR	12	0	6	96	192	3
NMTAP	12	96	1
NMTAP	12	144	1
NMTAP	12	240	0
NMTAP	12	288	0
NMTAP	13	0	3
NMSTR	13	0	7
NMSI_	13	0	7	96	72	5
NMTAP	13	96	4
CNSI_	13	168	5	0	48	1
CNSI_	13	216	1	0	72	3
NMSTR	14	0	5
NMSXR	14	0	5	96	192	2
NMTAP	14	96	0
NMTAP	14	144	0
NMTAP	14	240	7
NMTAP	14	288	7
EXTAP	15	0	0
EXTAP	15	32	1
EXTAP	15	64	2
EXTAP	15	96	3
EXTAP	15	128	4
EXTAP	15	160	5
EXTAP	15	192	6
EXTAP	15	224	7
EXTAP	15	256	0
EXTAP	15	288	1
EXTAP	15	320	2
EXTAP	15	352	3
EXTAP	16	0	0
EXTAP	16	0	4
NMTAP	16	96	3
NMTAP	16	96	6
NMTAP	16	144	3
NMTAP	16	144	6
NMTAP	16	240	1
NMTAP	16	240	5
NMTAP	16	288	1
NMTAP	16	288	5
NMTAP	17	0	0
NMTAP	17	0	6
NMTAP	17	48	0
NMTAP	17	48	6
NMTTP	17	144	3	B	0	M1
NMTTP	17	144	4	E	0	M1
NMTTP	17	192	1	B	0	M1
NMTTP	17	192	2	E	0	M1
NMTTP	17	240	5	B	0	M1
NMTTP	17	240	6	E	0	M1
NMTTP	17	288	0	C	0	M1
NMSTR	18	0	7
NMSCL	18	0	7	96	48	4
NMSTR	18	144	2
NMSCL	18	144	2	96	48	7
NMSTR	18	288	5
NMSCL	18	288	5	96	48	2
NMSTR	19	48	0
NMSCL	19	48	0	96	48	5
NMTTP	19	192	0	C	0	M1
NMTTP	19	288	3	B	0	M1
NMTTP	19	288	3	E	0	M1
NMTTP	19	288	4	B	0	M1
NMTTP	19	288	4	E	1	M1
NMTTP	19	288	5	E	0	M1
NMSTR	20	0	1
NMSI_	20	0	1	96	48	4
NMTAP	20	96	0
NMTAP	20	96	1
NMSTR	20	144	0
NMSI_	20	144	0	96	48	5
NMTAP	20	240	0
NMTAP	20	240	7
NMTAP	20	288	7
NMSTR	21	0	6
NMSI_	21	0	6	96	48	3
NMTAP	21	96	6
NMTAP	21	96	7
NMSTR	21	144	7
NMSI_	21	144	7	96	48	2
NMTAP	21	240	0
NMTAP	21	240	7
NMTAP	21	288	0
NMSTR	22	0	1
NMSI_	22	0	1	96	48	5
NMTAP	22	96	1
NMTAP	22	96	3
NMSTR	22	144	3
NMSCL	22	144	3	96	48	0
NMTAP	22	240	3
NMTAP	22	240	4
NMTAP	22	288	4
NMSTR	23	0	6
NMSI_	23	0	6	96	48	2
NMTAP	23	96	4
NMTAP	23	96	6
NMSTR	23	144	4
NMSCR	23	144	4	96	48	7
NMTAP	23	240	3
NMTAP	23	240	4
NMTAP	23	288	3
NMHLD	24	0	0	48
NMHLD	24	0	1	48
NMHLD	24	96	0	48
NMHLD	24	96	1	48
NMHLD	24	192	2	48
NMHLD	24	192	3	48
NMHLD	24	288	2	48
NMHLD	24	288	3	48
NMHLD	25	0	4	48
NMHLD	25	0	5	48
NMHLD	25	96	4	48
NMHLD	25	96	5	48
NMHLD	25	192	6	48
NMHLD	25	192	7	48
NMHLD	25	288	6	48
NMHLD	25	288	7	48
NMTAP	26	0	0
NMTAP	26	48	0
NMTAP	26	96	1
NMTAP	26	96	7
NMTAP	26	144	1
NMTAP	26	144	7
NMTAP	26	192	2
NMTAP	26	192	6
NMTAP	26	240	2
NMTAP	26	240	6
NMTAP	26	288	3
NMTAP	26	288	5
NMTAP	26	336	3
NMTAP	26	336	5
NMTAP	27	0	6
NMTAP	27	24	4
NMTAP	27	48	6
NMTAP	27	72	4
NMSTR	27	96	7
NMSI_	27	96	7	96	48	3
NMTAP	27	120	5
NMTAP	27	144	7
NMTAP	27	168	5
NMTAP	27	192	7
NMTAP	27	288	2
NMTAP	27	288	4
EXSTR	28	0	1
NMSI_	28	0	1	96	48	4
EXSTR	28	0	3
NMSI_	28	0	3	96	48	7
NMSTR	28	192	3
NMSI_	28	192	3	96	48	1
NMSTR	28	192	6
NMSI_	28	192	6	96	48	0
NMTAP	29	0	0
NMTAP	29	24	1
NMTAP	29	72	2
NMTAP	29	72	7
NMTAP	29	120	1
NMTAP	29	144	0
NMHLD	29	192	2	48
NMHLD	29	192	7	48
NMTAP	29	264	0
NMTAP	29	264	5
NMTAP	29	312	6
NMTAP	29	336	7
NMSTR	30	0	0
NMSI_	30	0	0	96	48	4
NMSTR	30	0	5
NMSI_	30	0	5	96	48	7
NMSTR	30	192	2
NMSI_	30	192	2	96	48	0
NMSTR	30	192	6
NMSI_	30	192	6	96	48	3
NMTTP	31	0	1	E	0	M1
NMTTP	31	32	2	E	0	M1
NMTTP	31	64	3	E	0	M1
NMTTP	31	96	5	E	0	M1
NMTTP	31	128	6	E	0	M1
NMTTP	31	160	7	E	0	M1
NMTTP	31	192	1	A	0	M1
NMTTP	31	224	2	A	0	M1
NMTTP	31	256	3	A	0	M1
NMTTP	31	288	5	A	0	M1
NMTTP	31	320	6	A	0	M1
NMTTP	31	352	7	A	0	M1
EXSTR	32	0	0
NMSI_	32	0	0	96	48	4
EXSTR	32	0	2
NMSI_	32	0	2	96	48	7
NMSTR	32	192	0
NMSI_	32	192	0	96	48	2
NMSTR	32	192	5
NMSI_	32	192	5	96	48	3
NMTAP	33	0	3
NMTAP	33	24	2
NMTAP	33	72	1
NMTAP	33	72	4
NMTAP	33	120	2
NMTAP	33	144	3
NMHLD	33	192	1	48
NMHLD	33	192	4	48
NMTAP	33	264	3
NMTAP	33	264	6
NMTAP	33	312	5
NMTAP	33	336	4
NMSTR	34	0	3
NMSCL	34	0	3	96	48	0
NMSTR	34	0	6
NMSCL	34	0	6	96	48	3
NMSTR	34	192	3
NMSI_	34	192	3	96	48	0
NMSI_	34	192	3	96	48	6
NMTAP	35	0	1
NMTAP	35	32	7
NMTAP	35	64	1
NMTAP	35	96	5
NMTAP	35	128	7
NMTAP	35	160	5
NMTAP	35	192	2
NMTAP	35	224	4
NMTAP	35	256	0
BRTAP	35	288	6
NMSTR	36	0	1
NMSI_	36	0	1	96	48	5
NMTAP	36	0	5
NMSTR	36	96	0
NMSLL	36	96	0	96	96	2
NMTAP	36	96	1
NMTAP	36	192	4
NMTAP	36	240	4
NMSTR	36	288	4
NMSI_	36	288	4	96	48	0
NMTAP	37	0	4
NMSTR	37	0	6
NMSI_	37	0	6	96	48	2
NMTAP	37	96	6
NMSTR	37	96	7
NMSLR	37	96	7	96	96	5
NMTAP	37	192	3
NMTAP	37	240	3
NMSTR	37	288	3
NMSI_	37	288	3	96	48	7
NMSTR	38	0	0
NMSI_	38	0	0	96	48	4
NMTAP	38	0	3
NMSTR	38	96	0
NMSCR	38	96	0	96	48	3
NMTAP	38	96	6
NMTAP	38	192	7
NMTAP	38	240	6
NMTAP	38	288	1
NMTAP	38	288	5
NMSTR	39	0	0
NMSI_	39	0	0	96	48	2
NMSTR	39	48	7
NMSI_	39	48	7	96	48	5
NMSTR	39	96	0
NMSI_	39	96	0	96	48	4
NMTAP	39	144	7
NMTAP	39	192	0
NMTAP	39	288	2
NMTAP	39	288	6
NMSTR	40	0	1
NMSCR	40	0	1	96	48	4
NMSTR	40	48	5
NMSCR	40	48	5	96	48	0
NMSTR	40	96	1
NMSI_	40	96	1	96	48	5
NMTAP	40	144	5
NMTAP	40	192	1
NMTAP	40	288	4
NMTAP	40	288	7
NMSTR	41	0	6
NMSCL	41	0	6	96	48	3
NMSTR	41	48	2
NMSCL	41	48	2	96	48	7
NMSTR	41	96	6
NMSI_	41	96	6	96	48	2
NMTAP	41	144	2
NMTAP	41	192	6
NMTAP	41	288	0
NMTAP	41	288	3
NMSTR	42	0	1
NMSI_	42	0	1	96	48	6
NMSTR	42	48	5
NMSI_	42	48	5	96	48	2
NMSTR	42	96	1
BRSCL	42	96	1	96	96	3
NMTAP	42	144	5
NMTAP	42	192	1
NMTAP	43	0	1
NMTAP	43	32	2
NMTAP	43	64	3
NMTAP	43	96	5
NMTAP	43	128	6
NMTAP	43	160	7
NMTAP	43	192	2
NMTAP	43	224	1
NMTAP	43	256	0
NMTAP	43	288	4
NMTAP	43	320	5
NMTAP	43	352	6
NMTHO	44	0	0	576	C	0	M1
NMTAP	44	0	7
NMTTP	46	0	7	E	0	M1
NMTTP	46	96	6	E	0	M1
NMTTP	46	192	5	E	0	M1
NMTTP	46	288	4	E	0	M1
NMTTP	47	0	3	E	0	M1
NMTTP	47	96	2	E	0	M1
NMTTP	47	192	0	C	0	M1
NMTTP	47	192	1	E	0	M1
NMHLD	48	0	7	48
NMHLD	48	96	4	48
NMHLD	48	96	6	48
NMHLD	48	192	3	48
NMHLD	48	192	5	48
NMTAP	48	288	2
NMTAP	48	312	4
NMTAP	48	336	2
NMTAP	48	360	4
NMHLD	49	0	1	48
NMHLD	49	96	2	48
NMHLD	49	96	3	48
NMHLD	49	192	3	48
NMHLD	49	192	4	48
NMTAP	49	288	5
NMTAP	49	312	4
NMTAP	49	336	5
NMTAP	49	360	4
NMTAP	50	0	6
NMTAP	50	48	6
NMTAP	50	96	0
NMTAP	50	120	7
NMTAP	50	144	0
NMTAP	50	168	7
NMTAP	50	192	1
NMTAP	50	240	1
NMTAP	50	288	7
NMTAP	50	312	0
NMTAP	50	336	7
NMTAP	50	360	0
NMTAP	51	0	6
NMTAP	51	24	0
NMTAP	51	48	6
NMTAP	51	72	0
NMTAP	51	96	7
NMTAP	51	120	1
NMTAP	51	144	7
NMTAP	51	168	1
NMTAP	51	192	7
NMTAP	51	204	6
NMTAP	51	216	5
NMTAP	51	228	4
NMTAP	51	240	3
NMTAP	51	252	2
NMTAP	51	264	1
NMTAP	51	276	0
BRTAP	51	288	7
NMHLD	52	0	4	96
NMHLD	52	0	6	240
NMHLD	52	144	0	240
NMHLD	52	288	2	192
NMHLD	53	48	4	192
NMTAP	53	192	6
NMTAP	53	240	6
BRTAP	53	288	3
BRTAP	53	288	7
NMSTR	54	0	0
NMSI_	54	0	0	96	48	5
NMSTR	54	0	1
NMSI_	54	0	1	96	48	5
NMTAP	54	96	0
NMSTR	54	96	1
NMSCR	54	96	1	96	48	3
NMTAP	54	192	1
NMTAP	54	192	7
CNSI_	54	240	3	0	48	7
NMTAP	54	240	6
NMSTR	54	288	5
NMSI_	54	288	5	96	48	1
NMSTR	55	0	0
NMSI_	55	0	0	96	48	4
NMTAP	55	0	5
NMTAP	55	96	0
NMSTR	55	96	3
NMSI_	55	96	3	96	48	7
NMTAP	55	240	4
CNSI_	55	240	7	0	48	5
NMTAP	55	288	4
NMSTR	56	0	6
NMSI_	56	0	6	96	48	2
NMSTR	56	0	7
NMSI_	56	0	7	96	48	2
NMSTR	56	96	6
NMSCL	56	96	6	96	48	4
NMTAP	56	96	7
NMTAP	56	192	0
NMTAP	56	192	6
NMTAP	56	240	1
CNSI_	56	240	4	0	48	0
NMSTR	56	288	2
NMSCL	56	288	2	96	96	4
NMTAP	57	0	2
NMHLD	57	0	7	96
NMTTP	57	144	3	B	0	M1
NMTTP	57	144	4	E	0	M1
NMTTP	57	192	6	B	0	M1
NMTTP	57	192	6	E	0	M1
BRTAP	57	288	2
BRTAP	57	288	7
NMSTR	58	0	0
NMSUR	58	0	0	96	48	4
NMSTR	58	0	1
NMSI_	58	0	1	96	48	4
NMSTR	58	96	0
NMSLL	58	96	0	96	96	3
NMTAP	58	96	1
NMTAP	58	192	0
NMTAP	58	192	3
NMTAP	58	240	2
NMSTR	58	288	1
NMSI_	58	288	1	96	48	5
NMTAP	59	0	1
NMSTR	59	0	3
NMSI_	59	0	3	96	48	7
NMTAP	59	96	3
NMSTR	59	96	7
NMSLL	59	96	7	96	96	0
NMTAP	59	240	1
NMTAP	59	288	1
NMSTR	60	0	2
NMSI_	60	0	2	96	48	0
NMSTR	60	0	7
NMSI_	60	0	7	96	48	3
NMTAP	60	96	2
NMSTR	60	96	7
NMSCL	60	96	7	96	48	4
NMTAP	60	192	1
NMTAP	60	192	7
NMTAP	60	240	2
CNSI_	60	240	4	0	48	0
NMTAP	60	288	3
NMSTR	61	0	4
NMSSL	61	0	4	96	96	0
NMTAP	61	0	7
BXTAP	61	192	5
NMTAP	61	288	3
NMTAP	61	288	4
NMSTR	62	0	0
NMSCR	62	0	0	96	96	4
NMSTR	62	0	7
NMSUR	62	0	7	96	96	5
NMTAP	62	96	0
NMTAP	62	96	7
NMTAP	62	288	4
NMTAP	62	288	6
NMSTR	62	336	3
NMSCL	62	336	3	96	96	7
NMSTR	63	48	7
NMSLL	63	48	7	96	96	3
NMSTR	63	144	3
NMSCL	63	144	3	96	96	7
NMTAP	63	240	7
NMTAP	63	288	5
NMTAP	63	336	3
EXHLD	64	0	3	288
NMTAP	64	144	6
NMSTR	64	192	6
NMSI_	64	192	6	96	48	1
NMSTR	65	0	3
NMSI_	65	0	3	96	48	7
NMTAP	65	48	4
NMSTR	65	96	2
NMSI_	65	96	2	96	48	6
NMTAP	65	144	1
NMTAP	65	192	4
BRTAP	65	288	0
BRTAP	65	288	5
NMSTR	66	0	2
NMSCL	66	0	2	96	48	0
NMSTR	66	0	7
NMSCL	66	0	7	96	48	4
NMTAP	66	96	2
NMSTR	66	96	7
NMSF_	66	96	7	96	48	3
BRTAP	66	192	7
NMTAP	66	288	1
NMTAP	66	288	5
NMTAP	66	336	1
NMTAP	66	336	5
NMTAP	67	0	2
NMTAP	67	48	3
NMHLD	67	96	4	192
NMTTP	67	144	5	E	0	M1
NMTTP	67	192	6	E	0	M1
NMTAP	67	288	7
NMTAP	67	336	7
NMTAP	68	0	0
NMSTR	68	0	4
NMSCR	68	0	4	96	48	7
NMTAP	68	96	0
NMSTR	68	144	1
NMSCR	68	144	1	96	48	3
NMTAP	68	240	5
NMSTR	68	288	6
NMSI_	68	288	6	96	48	0
NMTAP	69	0	3
CNSI_	69	48	0	0	48	5
NMTAP	69	48	3
CNSI_	69	96	5	0	96	1
NMTAP	69	144	4
NMTAP	69	192	4
BRTAP	69	288	0
BRTAP	69	288	7
NMTAP	70	0	5
NMTAP	70	24	4
NMTAP	70	48	6
NMTAP	70	96	0
NMTAP	70	96	7
NMTAP	70	144	2
NMTAP	70	168	3
NMTAP	70	192	1
NMSTR	70	240	6
NMSUL	70	240	6	96	48	2
NMTAP	70	240	7
NMTAP	70	288	0
NMTAP	70	288	5
BRTAP	70	336	6
BRTAP	70	336	7
NMTAP	71	48	1
NMTAP	71	72	3
NMTAP	71	96	1
NMTAP	71	144	6
NMTAP	71	168	4
NMTAP	71	192	6
NMSTR	71	240	3
NMSV_	71	240	3	96	48	0
NMSTR	71	240	7
NMSV_	71	240	7	96	48	4
NMTAP	71	288	2
NMTAP	71	288	6
BRTAP	71	336	3
BRTAP	71	336	7
NMTAP	72	48	5
NMTAP	72	72	7
NMTAP	72	96	6
NMTAP	72	144	1
NMTAP	72	168	0
NMTAP	72	192	1
NMTAP	72	240	2
NMTAP	72	240	7
NMTAP	72	288	3
NMTAP	72	288	6
NMTAP	72	336	4
NMTAP	72	336	5
NMSTR	73	0	6
NMSI_	73	0	6	96	48	3
NMSTR	73	48	7
NMSI_	73	48	7	96	48	2
NMTAP	73	96	6
NMTAP	73	144	7
NMSTR	73	192	5
NMSI_	73	192	5	96	48	0
NMSTR	73	240	4
NMSI_	73	240	4	96	48	1
NMTAP	73	288	5
BRTAP	73	336	4
NMTAP	74	48	7
NMTAP	74	96	2
NMSTR	74	96	6
NMSI_	74	96	6	96	48	2
NMSTR	74	144	2
NMSI_	74	144	2	96	48	6
NMTAP	74	144	6
NMSTR	74	288	4
NMSI_	74	288	4	96	48	0
NMTAP	74	336	4
NMSTR	75	0	4
NMSI_	75	0	4	96	48	6
NMSI_	75	0	4	96	48	7
NMSTR	75	96	4
NMSI_	75	96	4	96	48	1
NMSI_	75	96	4	96	48	2
NMTAP	75	192	4
EXTAP	75	288	0
NMTAP	75	336	0
NMTAP	76	0	1
NMTAP	76	0	7
NMTAP	76	48	2
NMTAP	76	72	3
NMTAP	76	96	2
NMTAP	76	144	5
NMTAP	76	168	4
NMTAP	76	192	6
NMTAP	76	240	2
NMTAP	76	264	3
NMTAP	76	288	1
NMTAP	76	336	7
NMTAP	76	360	0
NMSTR	77	0	6
NMSUR	77	0	6	96	96	3
NMTAP	77	96	2
NMTAP	77	144	1
EXTAP	77	192	0
EXTAP	77	240	0
NMTTP	77	288	0	C	1	M1
NMTTP	77	288	2	B	0	M1
NMTTP	77	288	2	A	0	M1
NMTTP	77	288	5	B	0	M1
NMTTP	77	288	5	A	0	M1
NMSTR	78	0	0
BRSLL	78	0	0	96	72	1
NMTAP	78	48	0
NMSTR	78	144	4
BRSLL	78	144	4	96	72	5
NMTAP	78	192	4
NMSTR	78	288	1
BRSI_	78	288	1	96	24	4
NMTAP	78	336	1
CNSI_	79	24	4	0	48	0
NMSTR	79	48	6
NMSUR	79	48	6	96	48	2
CNSCR	79	192	2	0	48	5
NMTAP	79	288	0
NMTAP	79	288	4
NMSTR	80	0	2
BRSLL	80	0	2	96	72	4
NMTAP	80	48	2
NMSTR	80	144	7
BRSI_	80	144	7	96	48	3
NMTAP	80	192	7
NMSTR	80	288	2
NMSCL	80	288	2	96	48	0
CNSI_	80	288	3	0	48	6
NMTAP	80	336	2
CNSUR	81	48	0	0	48	4
EXTAP	81	144	4
NMTAP	81	144	5
NMTAP	81	192	4
EXTAP	81	192	5
NMTAP	81	240	5
EXTAP	81	240	6
NMTAP	81	288	6
EXTAP	81	288	7
EXTAP	81	336	0
NMTAP	81	336	7
NMTAP	82	0	1
NMTAP	82	24	3
NMTAP	82	48	2
NMTAP	82	96	3
NMTAP	82	96	4
NMTAP	82	144	5
NMTAP	82	168	4
NMTAP	82	192	6
NMTAP	82	240	0
NMTAP	82	240	7
NMTAP	82	288	2
NMTAP	82	288	5
NMTAP	83	0	1
NMTAP	83	32	1
NMTAP	83	64	1
NMTAP	83	96	3
NMTAP	83	128	3
NMTAP	83	160	3
EXTAP	83	192	4
NMTAP	83	224	4
NMTAP	83	256	4
BRTAP	83	288	4
BRTAP	83	288	6
NMTAP	84	0	1
NMTAP	84	24	0
NMTAP	84	48	1
NMTAP	84	72	0
NMTAP	84	96	2
NMTAP	84	120	7
NMTAP	84	144	2
NMTAP	84	168	7
NMTAP	84	192	3
NMTAP	84	216	6
NMTAP	84	240	3
NMTAP	84	264	6
NMTAP	84	288	4
NMTAP	84	288	5
NMTAP	84	336	3
NMTTP	85	0	0	E	0	M1
NMHLD	85	0	2	48
NMHLD	85	72	1	48
NMTTP	85	72	6	E	0	M1
NMTAP	85	144	0
NMTTP	85	144	4	E	0	M1
NMSTR	85	192	0
BRSCR	85	192	0	96	72	3
NMTTP	85	192	3	E	0	M1
NMTAP	85	240	0
NMTAP	85	288	0
NMTAP	85	288	7
NMTAP	85	312	6
NMTAP	85	336	5
NMTAP	85	360	4

T_REC_TAP	345
T_REC_BRK	18
T_REC_XTP	25
T_REC_BXX	1
T_REC_HLD	39
T_REC_XHO	1
T_REC_BHO	0
T_REC_BXH	0
T_REC_STR	106
T_REC_BST	0
T_REC_XST	6
T_REC_XBS	0
T_REC_TTP	48
T_REC_THO	3
T_REC_SLD	108
T_REC_BSL	7
T_REC_ALL	707
T_NUM_TAP	530
T_NUM_BRK	26
T_NUM_HLD	43
T_NUM_SLD	108
T_NUM_ALL	707
T_JUDGE_TAP	549
T_JUDGE_HLD	124
T_JUDGE_SLD	115
T_JUDGE_ALL	788
TTM_EACHPAIRS	117
TTM_SCR_TAP	265000
TTM_SCR_BRK	67600
TTM_SCR_HLD	43000
TTM_SCR_SLD	162000
TTM_SCR_ALL	537600
TTM_SCR_S	518950
TTM_SCR_SS	535000
TTM_RAT_ACV	10048

