VERSION	0.00.00	1.04.00
FES_MODE	0
BPM_DEF	175.000	175.000	175.000	175.000
MET_DEF	4	4
RESOLUTION	384
CLK_DEF	384
COMPATIBLE_CODE	MA2

BPM	0	0	175.000
MET	0	0	4	4

NMTHO	2	0	0	1344	C	0	M1
NMTTP	2	0	3	B	0	M1
NMTTP	2	0	4	B	0	M1
NMTTP	2	0	4	E	1	M1
NMTTP	6	0	1	B	0	M1
NMTTP	6	0	1	A	0	M1
NMTTP	6	144	2	B	0	M1
NMTTP	6	144	2	A	0	M1
NMTTP	6	288	3	B	0	M1
NMTTP	6	288	3	A	0	M1
NMTHO	7	48	0	144	C	0	M1
NMTTP	7	48	4	B	0	M1
NMTTP	7	48	4	A	0	M1
NMTTP	8	0	7	B	0	M1
NMTTP	8	0	7	A	0	M1
NMTTP	8	144	6	B	0	M1
NMTTP	8	144	6	A	0	M1
NMTTP	8	288	5	B	0	M1
NMTTP	8	288	5	A	0	M1
NMTTP	9	48	0	C	0	M1
NMTTP	9	48	4	B	0	M1
NMTTP	9	48	4	A	0	M1
NMTAP	9	192	0
NMTAP	9	192	7
BXTAP	9	288	0
BXTAP	9	288	7
NMHLD	10	0	0	96
NMHLD	10	0	1	96
NMHLD	10	144	0	96
NMHLD	10	144	1	96
NMTAP	10	288	0
NMSTR	10	288	1
NMSI_	10	288	1	96	96	5
CNSI_	11	96	5	0	96	2
CNSI_	11	192	2	0	96	4
NMHLD	12	0	4	96
NMHLD	12	0	5	96
NMHLD	12	144	4	96
NMHLD	12	144	5	96
NMTAP	12	288	4
NMSTR	12	288	5
NMSI_	12	288	5	96	96	7
CNSI_	13	96	7	0	96	4
CNSI_	13	192	4	0	96	2
NMHLD	14	0	0	96
NMHLD	14	0	1	96
NMHLD	14	144	0	96
NMHLD	14	144	1	96
NMSTR	14	288	2
NMSUR	14	288	2	96	192	4
NMTAP	14	288	7
CNSCR	15	192	4	0	96	6
NMHLD	16	0	7	96
NMHLD	16	144	7	96
NMTAP	16	288	0
NMTAP	16	288	6
NMTAP	17	0	1
NMTAP	17	0	5
NMTAP	17	48	1
NMTAP	17	48	5
NMTAP	17	144	2
NMTAP	17	144	4
NMTAP	17	192	2
NMTAP	17	192	4
EXTAP	17	288	3
EXTAP	17	288	5
NMHLD	18	0	6	144
NMHLD	18	144	4	144
NMHLD	18	288	3	144
NMHLD	19	48	1	144
NMTAP	19	192	0
EXTAP	19	288	0
NMTAP	20	0	1
NMTAP	20	0	7
NMTAP	20	96	6
NMTAP	20	144	6
NMTAP	20	192	4
NMTAP	20	288	3
NMTAP	20	288	5
NMTAP	21	0	0
NMTAP	21	0	6
NMTAP	21	96	1
NMTAP	21	144	1
NMTAP	21	192	3
NMTAP	21	288	2
NMTAP	21	288	4
NMTAP	22	0	3
NMTAP	22	0	5
NMTAP	22	96	6
NMTAP	22	144	6
NMTAP	22	192	4
NMTAP	22	288	1
NMTAP	22	336	1
NMTAP	23	0	3
NMTAP	23	96	5
NMTAP	23	144	5
NMTAP	23	192	4
NMTAP	23	288	2
NMTAP	23	336	2
NMTAP	24	0	3
NMTAP	24	96	0
NMTAP	24	96	2
NMTAP	24	192	1
NMTAP	24	192	7
NMTAP	24	288	0
NMTAP	24	288	6
NMTAP	25	0	5
NMTAP	25	0	7
NMTAP	25	96	5
NMTAP	25	96	7
NMTAP	25	192	0
NMTAP	25	192	6
NMTAP	25	288	1
NMTAP	25	288	7
NMTAP	26	0	0
NMTAP	26	48	0
NMTAP	26	96	0
NMTAP	26	144	0
NMTAP	26	192	1
NMTAP	26	192	7
NMTAP	26	240	1
NMTAP	26	240	7
NMTAP	26	288	1
NMSTR	26	288	7
NMSI_	26	288	7	96	192	4
NMSSR	26	288	7	96	192	3
BRTAP	27	288	2
BRTAP	27	288	5
NMSTR	28	0	1
NMSI_	28	0	1	96	48	5
NMSTR	28	192	6
NMSI_	28	192	6	96	48	2
NMHLD	29	0	1	72
NMHLD	29	72	3	72
NMTAP	29	144	2
EXTAP	29	192	2
NMTAP	29	288	3
NMTAP	29	288	5
NMSTR	30	0	6
NMSI_	30	0	6	96	48	2
NMSTR	30	192	0
NMSI_	30	192	0	96	48	4
NMSTR	31	0	5
NMSUL	31	0	5	96	192	3
NMSTR	32	0	2
NMSI_	32	0	2	96	48	7
NMSTR	32	192	6
NMSI_	32	192	6	96	48	3
NMHLD	33	0	1	72
NMHLD	33	72	3	72
NMTAP	33	144	2
NMTAP	33	192	2
NMTAP	33	288	3
NMTAP	33	288	5
NMSTR	34	0	6
NMSI_	34	0	6	96	48	1
NMSTR	34	192	2
NMSI_	34	192	2	96	48	5
NMSTR	35	0	7
NMSCL	35	0	7	96	96	4
NMSCR	35	0	7	96	96	2
BXTAP	35	288	1
BXTAP	35	288	5
NMTAP	36	48	6
NMTAP	36	48	7
NMHLD	36	96	6	96
NMTAP	36	96	7
NMTAP	36	192	4
NMTAP	36	288	3
NMTAP	36	288	5
NMTAP	36	336	3
NMTAP	36	336	5
NMTAP	37	48	0
NMTAP	37	48	1
NMTAP	37	96	0
NMHLD	37	96	1	96
NMTAP	37	192	3
NMTAP	37	288	2
NMTAP	37	288	4
NMTAP	37	336	2
NMTAP	37	336	4
NMTAP	38	48	3
NMTAP	38	48	5
NMHLD	38	96	3	96
NMTAP	38	96	5
NMTAP	38	192	0
NMTAP	38	288	1
NMTAP	38	288	7
NMTAP	38	336	1
NMTAP	38	336	7
NMTAP	39	48	6
NMTAP	39	96	6
NMTAP	39	144	0
NMTAP	39	192	0
NMTAP	39	240	7
NMTAP	39	288	7
NMHLD	39	336	1	96
NMTAP	40	48	3
NMTAP	40	96	3
NMTAP	40	192	5
NMTAP	40	192	7
NMTAP	40	288	6
NMHLD	40	336	6	96
NMTAP	41	48	4
NMTAP	41	96	4
NMTAP	41	192	0
NMTAP	41	192	2
NMTAP	41	288	1
NMHLD	41	336	1	96
NMTAP	42	48	3
NMTAP	42	96	3
NMTAP	42	192	5
NMTAP	42	192	7
NMTAP	42	288	0
NMTAP	42	288	1
NMTAP	42	336	0
NMTAP	42	336	1
NMTAP	43	48	4
NMTAP	43	48	5
NMTAP	43	96	4
NMTAP	43	96	5
NMTAP	43	192	6
NMTAP	43	192	7
NMTAP	43	240	0
NMTAP	43	240	5
NMSTR	43	288	0
NMSI_	43	288	0	96	48	3
NMSTR	43	288	5
NMSI_	43	288	5	96	48	2
NMTHO	46	0	0	384	C	0	M1
NMTTP	48	0	1	E	0	M1
NMTTP	48	96	0	C	0	M1
NMTTP	48	192	5	E	0	M1
NMTTP	48	288	6	E	0	M1
NMTTP	49	0	7	E	0	M1
NMTTP	49	96	0	C	0	M1
NMTTP	49	192	3	E	0	M1
NMTTP	49	288	2	E	0	M1
NMTTP	50	0	0	B	0	M1
NMTTP	50	0	1	E	0	M1
NMTTP	50	96	6	B	0	M1
NMTTP	50	96	7	E	0	M1
NMTTP	50	192	2	B	0	M1
NMTTP	50	192	3	E	0	M1
NMTTP	50	288	4	B	0	M1
NMTTP	50	288	5	E	0	M1
NMSTR	51	0	0
NMSCR	51	0	0	96	192	7
NMHLD	52	0	0	96
NMHLD	52	144	0	96
NMHLD	52	288	1	96
NMHLD	52	288	7	96
NMTAP	53	48	2
NMTAP	53	48	6
NMTAP	53	96	2
NMTAP	53	96	6
NMTAP	53	192	3
NMTAP	53	192	4
BRTAP	53	288	0
BRTAP	53	288	7
NMTAP	54	0	1
NMSTR	54	48	1
NMSI_	54	48	1	96	48	4
NMTAP	54	144	5
NMSTR	54	192	5
NMSI_	54	192	5	96	48	0
NMTAP	54	288	3
NMTAP	54	336	3
NMTAP	55	48	0
NMTAP	55	48	2
NMTAP	55	144	1
NMTAP	55	144	3
NMSTR	55	192	1
NMSI_	55	192	1	96	48	4
NMSTR	55	192	3
NMSI_	55	192	3	96	48	7
NMTAP	56	0	6
NMHLD	56	48	6	96
NMTAP	56	144	4
NMHLD	56	192	4	96
NMTAP	56	288	2
NMSTR	56	336	2
BRSI_	56	336	2	96	48	6
EXTAP	57	144	0
EXTAP	57	192	0
NMTAP	57	288	2
NMTAP	57	288	4
NMTAP	58	0	5
NMSTR	58	48	5
NMSI_	58	48	5	96	48	2
NMTAP	58	144	1
NMSTR	58	192	1
NMSI_	58	192	1	96	48	6
NMTAP	58	288	3
NMTAP	58	336	3
NMTAP	59	48	5
NMTAP	59	48	7
NMTAP	59	144	4
NMTAP	59	144	6
NMSTR	59	192	4
NMSI_	59	192	4	96	48	0
NMSTR	59	192	6
NMSI_	59	192	6	96	48	3
NMTAP	60	0	1
NMHLD	60	48	1	96
NMTAP	60	144	3
NMTAP	60	192	3
NMSTR	60	288	4
NMSXR	60	288	4	96	216	1
NMSTR	60	288	5
NMSXL	60	288	5	96	216	0
BRTAP	61	288	2
BRTAP	61	288	7
NMTAP	62	0	1
NMTAP	62	0	6
NMTAP	62	96	3
NMTAP	62	96	4
NMTAP	62	144	3
NMHLD	62	144	4	96
NMTAP	62	240	0
NMTAP	62	288	1
NMHLD	62	336	2	96
NMTAP	63	48	0
NMTAP	63	96	7
NMTAP	63	144	6
NMTAP	63	192	5
NMTAP	63	240	4
NMTAP	63	288	3
NMTAP	63	336	1
NMTAP	63	336	2
NMTAP	64	0	1
NMTAP	64	0	2
NMTAP	64	96	6
NMTAP	64	96	7
NMSTR	64	144	6
NMSI_	64	144	6	96	48	3
NMTAP	64	144	7
NMTAP	64	240	0
NMTAP	64	288	0
NMTAP	65	0	1
NMTAP	65	0	2
NMTAP	65	48	1
NMTAP	65	48	2
NMTAP	65	96	1
NMTAP	65	96	2
NMTAP	65	192	4
NMTAP	65	192	5
EXTAP	65	288	3
EXTAP	65	288	7
EXTAP	66	0	0
EXTAP	66	0	5
EXTAP	66	96	2
EXTAP	66	96	3
NMTAP	66	192	1
NMTAP	66	240	3
NMTAP	66	288	1
NMTAP	66	336	7
NMTAP	67	0	4
NMTAP	67	0	6
NMTAP	67	48	4
NMTAP	67	48	6
EXTAP	67	144	2
EXTAP	67	144	3
EXSTR	67	192	2
NMSI_	67	192	2	96	48	7
EXSTR	67	192	3
NMSI_	67	192	3	96	48	7
EXTAP	68	0	0
EXTAP	68	0	6
NMTAP	68	96	4
NMTAP	68	96	5
NMTAP	68	144	4
NMTAP	68	144	5
NMTAP	68	240	2
NMTAP	68	240	3
NMSTR	68	288	2
NMSI_	68	288	2	96	48	0
NMTAP	68	288	3
NMSTR	69	0	7
NMSI_	69	0	7	96	48	5
NMSTR	69	96	4
NMSI_	69	96	4	96	48	0
NMTAP	69	192	7
BRTAP	69	288	1
BRTAP	69	288	6
NMTAP	70	0	4
NMTAP	70	0	5
NMTAP	70	48	4
NMTAP	70	48	5
NMSTR	70	96	4
NMSUR	70	96	4	96	96	1
NMSTR	70	96	5
NMSCR	70	96	5	96	96	0
NMTAP	71	0	2
NMTAP	71	0	3
NMTAP	71	48	2
NMTAP	71	48	3
NMSTR	71	96	2
NMSUR	71	96	2	96	96	7
NMSTR	71	96	3
NMSCR	71	96	3	96	96	6
NMTAP	72	0	0
NMTAP	72	0	1
NMTAP	72	48	0
NMTAP	72	48	1
NMSTR	72	96	0
NMSCL	72	96	0	96	96	5
NMSTR	72	96	1
NMSUL	72	96	1	96	96	4
NMTAP	73	0	2
NMTAP	73	0	3
NMTAP	73	48	2
NMTAP	73	48	3
NMSTR	73	96	2
NMSCL	73	96	2	96	96	7
NMSTR	73	96	3
NMSUL	73	96	3	96	96	6
NMTAP	74	0	4
NMTAP	74	0	5
NMTAP	74	48	4
NMTAP	74	48	5
NMTAP	74	96	4
NMTAP	74	96	5
NMTAP	74	192	2
NMTAP	74	192	7
NMTAP	74	288	0
NMTAP	74	288	4
NMSTR	75	0	1
NMSI_	75	0	1	96	48	5
NMSTR	75	0	2
NMSI_	75	0	2	96	48	6
BRTAP	75	192	4
BRTAP	75	192	7
NMTAP	75	288	3
NMTAP	75	288	6
NMTAP	76	0	5
NMTAP	76	48	4
NMTAP	76	96	3
NMHLD	76	144	2	96
NMTAP	76	240	0
NMSTR	76	288	0
NMSXL	76	288	0	96	192	4
NMSXR	76	288	0	96	192	4
BRTAP	77	288	3
BRTAP	77	288	5
NMHLD	78	0	1	96
NMTAP	78	96	0
NMSTR	78	192	0
NMSI_	78	192	0	96	48	4
NMTAP	78	192	6
NMTAP	78	288	4
NMHLD	79	0	6	96
NMTAP	79	96	7
NMTAP	79	192	1
NMSTR	79	192	7
NMSI_	79	192	7	96	48	2
NMTAP	79	288	3
NMTAP	80	0	1
NMTAP	80	0	4
NMTAP	80	48	1
NMTAP	80	48	4
NMTAP	80	144	3
NMTAP	80	144	6
NMSTR	80	192	3
NMSI_	80	192	3	96	48	0
NMTAP	80	192	6
NMSTR	80	288	7
NMSI_	80	288	7	96	48	2
NMSI_	80	288	7	96	48	4
EXTAP	81	144	1
EXTAP	81	144	5
EXTAP	81	192	1
EXTAP	81	192	5
NMTAP	81	240	0
NMTAP	81	288	7
NMTAP	81	336	6
NMTAP	82	0	0
NMTAP	82	0	5
NMTAP	82	48	0
NMTAP	82	48	5
NMTAP	82	144	2
NMTAP	82	144	7
NMTAP	82	192	2
NMSTR	82	192	7
NMSI_	82	192	7	96	48	3
NMSTR	82	288	1
NMSCL	82	288	1	96	192	4
BRTAP	83	288	2
BRTAP	83	288	6
NMTAP	84	0	1
NMTAP	84	48	0
NMTAP	84	48	2
NMTAP	84	144	6
NMTAP	84	192	5
NMTAP	84	192	7
NMTAP	84	288	3
NMTAP	84	288	4
BXTAP	85	0	1
BXTAP	85	0	2
BXTAP	85	72	0
BXTAP	85	72	7
BXTAP	85	144	5
BXTAP	85	144	6
BXSTR	85	192	5
BRSI_	85	192	5	96	48	0
BXSTR	85	192	6
BRSI_	85	192	6	96	48	3

T_REC_TAP	269
T_REC_BRK	14
T_REC_XTP	20
T_REC_BXX	10
T_REC_HLD	40
T_REC_XHO	0
T_REC_BHO	0
T_REC_BXH	0
T_REC_STR	49
T_REC_BST	0
T_REC_XST	2
T_REC_XBS	2
T_REC_TTP	36
T_REC_THO	3
T_REC_SLD	54
T_REC_BSL	3
T_REC_ALL	502
T_NUM_TAP	376
T_NUM_BRK	29
T_NUM_HLD	43
T_NUM_SLD	54
T_NUM_ALL	502
T_JUDGE_TAP	402
T_JUDGE_HLD	123
T_JUDGE_SLD	57
T_JUDGE_ALL	582
TTM_EACHPAIRS	137
TTM_SCR_TAP	188000
TTM_SCR_BRK	75400
TTM_SCR_HLD	43000
TTM_SCR_SLD	81000
TTM_SCR_ALL	387400
TTM_SCR_S	373000
TTM_SCR_SS	384500
TTM_RAT_ACV	10075

