VERSION	0.00.00	1.04.00
FES_MODE	0
BPM_DEF	175.000	175.000	175.000	175.000
MET_DEF	4	4
RESOLUTION	384
CLK_DEF	384
COMPATIBLE_CODE	MA2

BPM	0	0	175.000
MET	0	0	4	4

NMSTR	6	0	1
NMSUR	6	0	1	96	480	4
NMSTR	8	0	6
NMSUL	8	0	6	96	480	3
NMTAP	10	0	2
NMTAP	10	96	2
NMTAP	10	192	2
NMTAP	10	192	3
NMTAP	11	0	1
NMTAP	11	96	1
NMTAP	11	192	0
NMTAP	11	192	1
NMTAP	12	0	7
NMTAP	12	96	7
NMTAP	12	192	6
NMTAP	12	192	7
NMTAP	13	0	4
NMTAP	13	0	5
NMTAP	13	96	4
NMTAP	13	96	5
NMTAP	13	192	4
NMTAP	13	192	5
NMTAP	14	0	5
NMTAP	14	96	5
NMTAP	14	192	4
NMTAP	14	192	5
NMTAP	15	0	6
NMTAP	15	96	6
NMTAP	15	192	6
NMTAP	15	192	7
NMTAP	16	0	0
NMTAP	16	96	0
NMTAP	16	192	0
NMTAP	16	192	1
NMTAP	17	0	2
NMTAP	17	0	3
NMTAP	17	96	2
NMTAP	17	96	3
NMTAP	17	192	2
NMTAP	17	192	3
NMTAP	18	0	4
NMTAP	18	96	4
NMTAP	18	192	4
NMTAP	18	192	5
NMTAP	19	0	3
NMTAP	19	96	3
NMTAP	19	192	2
NMTAP	19	192	3
NMTTP	20	0	1	B	0	L1
NMTTP	20	96	2	B	0	L1
NMTTP	20	192	3	B	0	L1
NMTTP	21	0	6	B	0	L1
NMTTP	21	96	5	B	0	L1
NMTTP	21	192	4	B	0	L1
NMTTP	22	0	1	B	0	L1
NMTTP	22	96	2	B	0	L1
NMTTP	22	192	3	B	0	L1
NMTTP	22	288	4	B	0	L1
NMTTP	23	0	5	B	0	L1
NMTTP	23	96	6	B	0	L1
NMTTP	23	192	0	C	0	L1
NMTTP	24	0	7	B	0	L1
NMTTP	24	96	6	B	0	L1
NMTTP	24	192	4	B	0	L1
NMTTP	24	192	5	B	0	L1
NMTTP	25	0	0	B	0	L1
NMTTP	25	96	1	B	0	L1
NMTTP	25	192	2	B	0	L1
NMTTP	25	192	3	B	0	L1
NMTTP	26	0	6	B	0	L1
NMTTP	26	96	5	B	0	L1
NMTTP	26	192	4	B	0	L1
NMTTP	26	288	3	B	0	L1
NMTTP	27	0	2	B	0	L1
NMTTP	27	96	1	B	0	L1
NMTTP	27	192	0	C	0	L1
NMHLD	28	0	6	192
NMHLD	28	192	7	192
NMHLD	29	0	0	192
NMTAP	29	192	1
NMHLD	30	0	1	192
NMHLD	30	192	0	192
NMHLD	31	0	7	192
NMTAP	31	192	6
NMHLD	32	0	5	192
NMHLD	32	192	4	192
NMHLD	33	0	3	192
NMTAP	33	192	2
NMHLD	34	0	2	192
NMHLD	34	192	3	192
NMHLD	35	0	4	192
NMTAP	35	192	5
NMTAP	36	0	5
NMTAP	36	96	5
NMTAP	36	192	6
NMTAP	36	288	6
NMTAP	37	0	7
NMTAP	37	96	7
NMTAP	37	192	0
NMTAP	37	192	1
NMTAP	38	0	2
NMTAP	38	96	2
NMTAP	38	192	1
NMTAP	38	288	1
NMTAP	39	0	0
NMTAP	39	96	0
NMTAP	39	192	6
NMTAP	39	192	7
NMTAP	40	0	6
NMTAP	40	96	6
NMTAP	40	192	5
NMTAP	40	288	5
NMTAP	41	0	4
NMTAP	41	96	4
NMTAP	41	192	2
NMTAP	41	192	3
NMTAP	42	0	1
NMTAP	42	96	1
NMTAP	42	192	2
NMTAP	42	288	2
NMTAP	43	0	3
NMTAP	43	96	3
BRTAP	43	192	4
BRTAP	43	192	5
NMSTR	44	0	6
NMSI_	44	0	6	96	192	3
NMSTR	45	0	1
NMSI_	45	0	1	96	192	4
NMSTR	46	0	6
NMSI_	46	0	6	96	192	2
NMSTR	47	0	0
NMSI_	47	0	0	96	192	4
NMSTR	48	0	6
NMSI_	48	0	6	96	192	3
NMSTR	49	0	2
NMSI_	49	0	2	96	192	7
NMSTR	50	0	6
NMSI_	50	0	6	96	192	2
NMSTR	51	0	1
NMSI_	51	0	1	96	192	5
NMHLD	52	0	6	192
NMTAP	52	192	7
NMHLD	53	0	1	192
NMTAP	53	192	0
NMTAP	54	0	2
NMTAP	54	96	2
NMTAP	54	192	0
NMTAP	54	192	1
NMTAP	54	288	0
NMTAP	54	288	1
NMTAP	55	0	7
NMTAP	55	96	7
NMTAP	55	192	6
NMTAP	55	192	7
NMTAP	56	0	5
NMTAP	56	96	5
NMTAP	56	192	6
NMTAP	56	192	7
NMTAP	56	288	6
NMTAP	56	288	7
NMTAP	57	0	0
NMTAP	57	96	0
NMTAP	57	192	0
NMTAP	57	192	1
NMTAP	58	0	1
NMTAP	58	96	1
NMTAP	58	192	2
NMTAP	58	192	3
NMTAP	58	288	2
NMTAP	58	288	3
NMTAP	59	0	4
NMTAP	59	96	4
NMTAP	59	192	4
NMTAP	59	192	5
NMTAP	60	0	6
NMTAP	60	96	6
NMTAP	60	192	4
NMTAP	60	192	5
NMTAP	60	288	4
NMTAP	60	288	5
NMTAP	61	0	3
NMTAP	61	96	3
NMTAP	61	192	2
NMTAP	61	192	3
NMTAP	62	0	1
NMTAP	62	96	1
NMTAP	62	192	1
NMTAP	62	288	0
NMTAP	62	288	1
NMTAP	63	0	2
NMTAP	63	96	2
NMTAP	63	192	2
NMTAP	63	288	2
NMTAP	63	288	3
NMTAP	64	0	4
NMTAP	64	96	4
NMTAP	64	192	4
NMTAP	64	288	4
NMTAP	64	288	5
NMTAP	65	0	6
NMTAP	65	0	7
NMTAP	65	96	6
NMTAP	65	96	7
NMTAP	65	192	6
NMTAP	65	192	7
NMTAP	66	0	6
NMTAP	66	96	6
NMTAP	66	192	6
NMTAP	66	288	6
NMTAP	66	288	7
NMTAP	67	0	5
NMTAP	67	96	5
NMTAP	67	192	5
NMTAP	67	288	4
NMTAP	67	288	5
NMTAP	68	0	3
NMTAP	68	96	3
NMTAP	68	192	3
NMTAP	68	288	2
NMTAP	68	288	3
NMTAP	69	0	0
NMTAP	69	0	1
NMTAP	69	96	0
NMTAP	69	96	1
NMTAP	69	192	0
NMTAP	69	192	1
NMTAP	70	0	2
NMTAP	70	48	2
NMTAP	70	96	2
NMTAP	70	192	0
NMTAP	70	192	1
NMTAP	70	288	0
NMTAP	70	288	1
NMTAP	71	0	7
NMTAP	71	48	7
NMTAP	71	96	7
NMTAP	71	192	6
NMTAP	71	192	7
NMTAP	72	0	5
NMTAP	72	48	5
NMTAP	72	96	5
NMTAP	72	192	6
NMTAP	72	192	7
NMTAP	72	288	6
NMTAP	72	288	7
NMTAP	73	0	0
NMTAP	73	48	0
NMTAP	73	96	0
NMTAP	73	192	0
NMTAP	73	192	1
NMTAP	74	0	1
NMTAP	74	48	1
NMTAP	74	96	1
NMTAP	74	192	2
NMTAP	74	192	3
NMTAP	74	288	2
NMTAP	74	288	3
NMTAP	75	0	4
NMTAP	75	48	4
NMTAP	75	96	4
NMTAP	75	192	4
NMTAP	75	192	5
NMTAP	76	0	6
NMTAP	76	48	6
NMTAP	76	96	6
NMTAP	76	192	4
NMTAP	76	192	5
NMTAP	76	288	4
NMTAP	76	288	5
NMTAP	77	0	3
NMTAP	77	48	3
NMTAP	77	96	3
NMTAP	77	192	2
NMTAP	77	192	3
NMTAP	78	0	1
NMTAP	78	96	2
NMTAP	78	192	3
NMTAP	78	288	4
NMTAP	79	0	5
NMTAP	79	96	6
NMTAP	79	192	0
NMTAP	79	192	7
NMTAP	80	0	6
NMTAP	80	96	5
NMTAP	80	192	4
NMTAP	80	288	3
NMTAP	81	0	2
NMTAP	81	96	1
NMTAP	81	192	0
NMTAP	81	192	7
NMTAP	82	0	0
NMTAP	82	96	1
NMTAP	82	192	2
NMTAP	82	288	3
NMTAP	83	0	4
NMTAP	83	96	5
NMTAP	83	192	6
NMTAP	83	288	7
NMTAP	84	0	0
NMTAP	84	96	1
NMTAP	84	192	2
NMTAP	84	288	3
NMTAP	85	0	3
NMTAP	85	0	4
NMTAP	85	96	3
NMTAP	85	96	4
NMHLD	85	192	2	144
NMHLD	85	192	5	144

T_REC_TAP	242
T_REC_BRK	2
T_REC_XTP	0
T_REC_BXX	0
T_REC_HLD	16
T_REC_XHO	0
T_REC_BHO	0
T_REC_BXH	0
T_REC_STR	10
T_REC_BST	0
T_REC_XST	0
T_REC_XBS	0
T_REC_TTP	28
T_REC_THO	0
T_REC_SLD	10
T_REC_BSL	0
T_REC_ALL	308
T_NUM_TAP	280
T_NUM_BRK	2
T_NUM_HLD	16
T_NUM_SLD	10
T_NUM_ALL	308
T_JUDGE_TAP	282
T_JUDGE_HLD	62
T_JUDGE_SLD	10
T_JUDGE_ALL	354
TTM_EACHPAIRS	59
TTM_SCR_TAP	140000
TTM_SCR_BRK	5200
TTM_SCR_HLD	16000
TTM_SCR_SLD	15000
TTM_SCR_ALL	176200
TTM_SCR_S	170750
TTM_SCR_SS	176000
TTM_RAT_ACV	10011

