VERSION	0.00.00	1.04.00
FES_MODE	0
BPM_DEF	175.000	175.000	175.000	175.000
MET_DEF	4	4
RESOLUTION	384
CLK_DEF	384
COMPATIBLE_CODE	MA2

BPM	0	0	175.000
MET	0	0	4	4

NMTAP	10	0	0
NMTAP	10	192	0
NMTAP	11	0	1
NMTAP	12	0	2
NMTAP	12	192	2
NMTAP	13	0	3
NMTAP	14	0	4
NMTAP	14	192	4
NMTAP	15	0	5
NMTAP	16	0	6
NMTAP	16	192	6
NMTAP	17	0	7
NMTAP	18	0	0
NMTAP	18	0	7
EXTAP	19	0	0
EXTAP	19	0	7
NMTAP	20	0	7
NMTAP	20	192	7
NMTAP	21	0	6
NMTAP	21	192	6
NMTAP	22	0	5
NMTAP	22	192	5
NMTAP	23	0	4
NMTAP	23	0	5
NMTAP	24	0	3
NMTAP	24	192	3
NMTAP	25	0	2
NMTAP	25	192	2
NMTAP	26	0	1
NMTAP	26	192	1
BRTAP	27	0	0
BRTAP	27	0	1
NMHLD	28	0	0	384
NMHLD	28	0	1	384
NMHLD	30	0	2	384
NMHLD	30	0	3	384
NMHLD	32	0	4	384
NMHLD	32	0	5	384
NMHLD	34	0	6	384
NMHLD	34	0	7	384
NMTAP	36	0	7
NMTAP	36	192	7
NMTAP	37	0	6
NMTAP	37	192	6
NMTAP	38	0	5
NMTAP	38	192	5
NMTAP	39	0	3
NMTAP	39	0	4
NMTAP	39	192	3
NMTAP	39	192	4
NMTAP	40	0	3
NMTAP	40	192	3
NMTAP	41	0	2
NMTAP	41	192	2
NMTAP	42	0	1
NMTAP	42	192	1
NMTAP	43	0	0
NMTAP	43	0	7
NMSTR	44	0	0
NMSI_	44	0	0	96	288	4
NMSTR	46	0	7
NMSI_	46	0	7	96	288	3
NMSTR	48	0	1
NMSI_	48	0	1	96	288	5
NMSTR	50	0	6
NMSI_	50	0	6	96	288	2
NMHLD	52	0	0	384
BXTAP	54	0	0
NMTAP	54	96	0
NMTAP	54	192	0
NMTAP	55	0	1
NMTAP	55	96	1
NMTAP	55	192	1
NMTAP	56	0	2
NMTAP	56	96	2
NMTAP	56	192	2
NMTAP	57	0	2
NMTAP	57	0	3
NMTAP	57	192	2
NMTAP	57	192	3
NMTAP	58	0	4
NMTAP	58	96	4
NMTAP	58	192	4
NMTAP	59	0	5
NMTAP	59	96	5
NMTAP	59	192	5
NMTAP	60	0	6
NMTAP	60	96	6
NMTAP	60	192	6
NMTAP	61	0	6
NMTAP	61	0	7
NMTAP	61	192	6
NMTAP	61	192	7
BRTAP	62	0	7
NMTAP	62	96	7
NMTAP	62	192	7
NMTAP	63	0	6
NMTAP	63	96	6
NMTAP	63	192	6
NMTAP	64	0	5
NMTAP	64	96	5
NMTAP	64	192	5
NMTAP	65	0	4
NMTAP	65	96	4
NMTAP	65	192	3
NMTAP	65	192	4
NMTAP	66	0	3
NMTAP	66	96	3
NMTAP	66	192	3
NMTAP	67	0	2
NMTAP	67	96	2
NMTAP	67	192	2
NMTAP	68	0	1
NMTAP	68	96	1
NMTAP	68	192	1
NMTAP	69	0	0
NMTAP	69	96	0
NMTAP	69	192	0
NMTAP	69	192	7
BXTAP	70	0	0
NMTAP	70	96	0
NMTAP	70	192	0
NMTAP	70	288	0
NMTAP	71	0	1
NMTAP	71	96	1
NMTAP	71	192	0
NMTAP	71	192	1
NMTAP	72	0	2
NMTAP	72	96	2
NMTAP	72	192	2
NMTAP	72	288	2
NMTAP	73	0	3
NMTAP	73	96	3
NMTAP	73	192	3
NMTAP	73	192	4
NMTAP	74	0	4
NMTAP	74	96	4
NMTAP	74	192	4
NMTAP	74	288	4
NMTAP	75	0	5
NMTAP	75	96	5
NMTAP	75	192	4
NMTAP	75	192	5
NMTAP	76	0	6
NMTAP	76	96	6
NMTAP	76	192	6
NMTAP	76	288	6
BRTAP	77	0	0
BRTAP	77	0	7
NMTTP	78	0	0	B	0	L1
NMTTP	78	0	7	B	0	L1
NMTTP	79	0	1	B	0	L1
NMTTP	79	0	6	B	0	L1
NMTTP	80	0	2	B	0	L1
NMTTP	80	0	5	B	0	L1
NMTTP	81	0	3	B	0	L1
NMTTP	81	0	4	B	0	L1
NMTTP	82	0	2	B	0	L1
NMTTP	82	0	5	B	0	L1
NMTTP	83	0	1	B	0	L1
NMTTP	83	0	6	B	0	L1
NMTTP	84	0	0	B	0	L1
NMTTP	84	0	7	B	0	L1
NMTHO	85	0	0	360	C	0	L1
NMTTP	85	0	1	B	0	L1
NMTTP	85	0	6	B	0	L1

T_REC_TAP	123
T_REC_BRK	5
T_REC_XTP	2
T_REC_BXX	2
T_REC_HLD	9
T_REC_XHO	0
T_REC_BHO	0
T_REC_BXH	0
T_REC_STR	4
T_REC_BST	0
T_REC_XST	0
T_REC_XBS	0
T_REC_TTP	16
T_REC_THO	1
T_REC_SLD	4
T_REC_BSL	0
T_REC_ALL	166
T_NUM_TAP	145
T_NUM_BRK	7
T_NUM_HLD	10
T_NUM_SLD	4
T_NUM_ALL	166
T_JUDGE_TAP	152
T_JUDGE_HLD	80
T_JUDGE_SLD	4
T_JUDGE_ALL	236
TTM_EACHPAIRS	21
TTM_SCR_TAP	72500
TTM_SCR_BRK	18200
TTM_SCR_HLD	10000
TTM_SCR_SLD	6000
TTM_SCR_ALL	106700
TTM_SCR_S	102850
TTM_SCR_SS	106000
TTM_RAT_ACV	10066

