VERSION	0.00.00	1.04.00
FES_MODE	0
BPM_DEF	175.000	175.000	175.000	175.000
MET_DEF	4	4
RESOLUTION	384
CLK_DEF	384
COMPATIBLE_CODE	MA2

BPM	0	0	175.000
MET	0	0	4	4

NMTAP	1	0	4
NMTAP	1	72	5
NMHLD	1	144	6	384
NMTTP	1	240	4	E	0	M1
NMTAP	2	0	4
NMTAP	2	72	3
NMHLD	2	144	2	384
NMTTP	2	240	4	E	0	M1
NMTAP	3	0	4
NMTAP	3	72	5
NMHLD	3	144	6	384
NMTTP	3	240	4	E	0	M1
NMTAP	4	0	4
NMTAP	4	72	3
NMHLD	4	144	2	96
EXTAP	4	240	4
EXTAP	4	288	4
NMTAP	5	0	3
NMTAP	5	72	2
NMTAP	5	144	1
NMHLD	5	192	1	336
NMTAP	5	288	3
NMTAP	6	0	3
NMTAP	6	72	4
NMTAP	6	144	5
NMHLD	6	192	5	336
NMTAP	6	288	3
NMTAP	7	0	3
NMTAP	7	72	2
NMTAP	7	144	1
NMHLD	7	192	1	336
NMTAP	7	288	3
NMTAP	8	0	3
NMTAP	8	72	4
NMTAP	8	144	5
NMHLD	8	192	5	96
NMTAP	8	288	3
NMHLD	9	0	4	96
NMTAP	9	0	5
NMTAP	9	96	6
NMHLD	9	192	4	96
NMTAP	9	192	5
NMTAP	9	288	6
NMTAP	10	0	4
NMHLD	10	0	5	96
NMTAP	10	96	3
NMHLD	10	192	2	96
NMTAP	10	192	6
NMTAP	10	288	4
NMTAP	11	0	2
NMHLD	11	0	3	96
NMTAP	11	96	1
NMTAP	11	192	2
NMHLD	11	192	3	96
NMHLD	11	288	1	96
NMTHO	12	0	0	1440	C	0	M1
NMTTP	12	0	4	B	0	M1
NMTTP	12	0	5	B	0	M1
EXTAP	12	192	1
EXTAP	12	288	1
NMTAP	13	0	2
NMTAP	13	96	2
NMTAP	13	192	2
NMTAP	13	288	2
NMTAP	14	0	1
NMTAP	14	96	1
NMTAP	14	192	1
NMTAP	14	288	1
NMTAP	15	0	0
NMTAP	15	48	0
NMTAP	15	96	0
NMTAP	15	144	0
NMTAP	15	192	0
NMTAP	15	240	0
NMTAP	15	288	0
NMTAP	15	336	0
BXHLD	16	0	0	72
EXTAP	16	72	7
EXTAP	16	144	1
EXTAP	16	144	6
EXTAP	16	192	3
EXSTR	16	192	4
BRSI_	16	192	4	96	48	1
BRSI_	16	192	4	96	48	7
BRTAP	16	288	4
NMHLD	17	0	0	72
NMHLD	17	72	1	72
NMSTR	17	144	2
NMSV_	17	144	2	96	96	4
NMTAP	17	240	6
NMTAP	17	288	6
NMHLD	18	0	7	72
NMHLD	18	72	6	72
NMSTR	18	144	5
NMSV_	18	144	5	96	96	3
NMTAP	18	240	1
NMTAP	18	288	1
NMHLD	19	0	1	72
NMHLD	19	72	2	72
NMSTR	19	144	3
NMSCR	19	144	3	96	12	4
NMTAP	19	240	6
CNSI_	19	252	4	0	60	0
NMHLD	19	288	6	96
NMTAP	20	0	0
NMTAP	20	72	1
NMTAP	20	72	7
NMTAP	20	144	1
NMHLD	20	144	7	192
NMTTP	20	240	1	E	0	M1
NMTTP	20	264	0	E	0	M1
NMTTP	20	288	7	E	0	M1
NMTTP	20	312	6	E	0	M1
NMTTP	20	336	5	E	0	M1
EXHLD	21	0	3	72
NMHLD	21	72	2	72
NMSTR	21	144	1
NMSV_	21	144	1	96	96	7
NMTAP	21	240	5
NMTAP	21	288	5
NMHLD	22	0	4	72
NMHLD	22	72	5	72
NMSTR	22	144	6
NMSV_	22	144	6	96	48	0
NMTAP	22	240	2
NMTAP	22	288	2
NMHLD	23	0	2	72
NMHLD	23	72	1	72
NMSTR	23	144	0
NMSCL	23	144	0	96	12	7
NMTAP	23	240	6
CNSI_	23	252	7	0	60	3
NMHLD	23	288	6	96
NMTTP	24	0	5	E	0	M1
NMTTP	24	0	5	D	0	M1
NMTTP	24	72	1	E	0	M1
NMTTP	24	72	1	D	0	M1
NMTTP	24	144	3	E	0	M1
NMTTP	24	144	3	D	0	M1
NMTTP	24	216	7	E	0	M1
NMTTP	24	216	7	D	0	M1
NMTTP	24	288	4	B	0	M1
NMTTP	24	288	5	B	0	M1
NMTTP	24	288	5	E	1	M1
NMTAP	25	0	1
NMTAP	25	48	1
NMTAP	25	96	1
NMTAP	25	96	3
NMTAP	25	192	6
NMTAP	25	240	6
NMTAP	25	288	4
NMTAP	25	288	6
NMTAP	26	0	2
NMTAP	26	48	2
NMHLD	26	72	3	72
NMTAP	26	144	4
NMTAP	26	192	5
NMTAP	26	240	6
NMTAP	26	288	4
NMTAP	26	288	7
NMTAP	27	0	1
NMTAP	27	48	1
NMTAP	27	96	0
NMTAP	27	96	1
NMTAP	27	192	6
NMTAP	27	240	6
NMTAP	27	288	6
NMTAP	27	288	7
NMTAP	28	0	5
NMTAP	28	48	5
NMHLD	28	72	4	72
NMTAP	28	144	3
NMTAP	28	192	2
EXTAP	28	240	1
EXTAP	28	256	3
EXTAP	28	272	1
EXTAP	28	288	3
NMTAP	29	0	0
NMTAP	29	48	0
NMTAP	29	96	3
NMTAP	29	96	5
NMTAP	29	192	7
NMTAP	29	240	7
NMTAP	29	288	2
NMTAP	29	288	4
NMTAP	30	0	1
NMTAP	30	48	1
NMHLD	30	72	0	72
NMTAP	30	144	7
NMTAP	30	192	6
NMTAP	30	240	5
NMTAP	30	288	4
NMTAP	30	288	7
NMTAP	31	0	3
NMTAP	31	48	3
NMTAP	31	96	0
NMTAP	31	96	6
NMTAP	31	192	4
NMTAP	31	240	4
NMTAP	31	288	1
NMTAP	31	288	7
NMTAP	32	0	0
NMTAP	32	0	1
NMTAP	32	48	2
NMTAP	32	72	3
NMTAP	32	144	1
NMTAP	32	144	4
NMTAP	32	192	1
NMTAP	32	192	4
NMTAP	32	240	5
NMTAP	32	256	3
NMTAP	32	272	5
NMSTR	32	288	3
NMSCL	32	288	3	96	384	5
NMTTP	33	0	0	C	1	M1
NMTAP	34	0	3
CNSCR	34	0	5	0	384	3
NMTAP	34	96	3
NMTAP	34	192	4
NMSTR	34	288	4
NMSCR	34	288	4	96	384	2
EXTAP	35	0	4
CNSCL	36	0	2	0	384	4
NMTAP	36	0	4
NMTAP	36	96	3
NMTAP	36	192	2
NMTAP	36	288	1
NMSTR	37	0	1
NMSLR	37	0	1	96	192	7
NMSTR	37	144	4
NMSI_	37	144	4	96	48	6
NMSTR	38	0	6
NMSLL	38	0	6	96	192	0
NMSTR	38	144	3
NMSI_	38	144	3	96	48	1
NMSTR	39	0	1
NMSCR	39	0	1	96	48	3
NMSTR	39	0	6
NMSCL	39	0	6	96	48	4
CNSI_	39	144	3	0	48	0
CNSI_	39	144	4	0	48	7
EXTAP	39	288	0
EXTAP	39	288	7
NMHLD	40	0	6	96
NMHLD	40	96	4	96
NMHLD	40	192	2	96
NMSTR	40	288	0
NMSXL	40	288	0	96	336	5
NMHLD	41	0	6	288
CNSCL	41	336	5	0	336	0
NMTAP	42	0	7
NMTAP	42	48	7
NMTAP	42	96	7
NMTAP	42	144	7
NMTAP	42	192	7
NMTAP	42	240	7
NMTAP	42	288	7
NMTAP	42	336	7
NMTTP	43	0	0	E	0	M1
NMTTP	43	24	1	E	0	M1
NMTTP	43	48	2	E	0	M1
NMTTP	43	72	3	E	0	M1
NMTTP	43	96	4	E	0	M1
NMTTP	43	120	5	E	0	M1
NMTTP	43	144	6	E	0	M1
NMTTP	43	168	7	E	0	M1
NMTTP	43	192	0	A	0	M1
NMTTP	43	204	1	A	0	M1
NMTTP	43	216	2	A	0	M1
NMTTP	43	228	3	A	0	M1
NMTTP	43	240	4	A	0	M1
NMTTP	43	252	5	A	0	M1
NMTTP	43	264	6	A	0	M1
NMTTP	43	276	7	A	0	M1
NMTTP	43	288	0	A	0	M1
NMTTP	43	300	1	A	0	M1
NMTTP	43	312	2	A	0	M1
NMTTP	43	324	3	A	0	M1
NMTTP	43	336	4	A	0	M1
NMTTP	43	348	5	A	0	M1
NMTTP	43	360	6	A	0	M1
NMTTP	43	372	7	A	0	M1
EXSTR	44	0	0
BRSI_	44	0	0	96	48	3
BRSTR	44	96	0
BRSI_	44	96	0	96	48	5
BRTAP	44	192	0
BXTAP	44	288	1
BXTAP	44	288	7
BRSTR	45	0	2
NMSLL	45	0	2	96	72	4
BRTAP	45	0	3
NMTAP	45	48	1
NMTAP	45	72	3
NMTAP	45	96	2
NMTAP	45	144	5
NMSTR	45	192	5
NMSLR	45	192	5	96	72	3
NMTAP	45	240	6
NMTAP	45	264	4
NMTAP	45	288	5
NMTAP	45	336	2
NMSTR	46	0	2
NMSLL	46	0	2	96	72	4
NMTAP	46	48	1
NMTAP	46	72	3
NMTAP	46	96	2
NMTAP	46	144	5
NMTAP	46	192	6
NMSTR	46	240	7
NMSCL	46	240	7	96	48	3
NMTAP	46	256	3
NMTAP	46	272	7
NMTAP	46	288	3
BRTAP	46	336	1
EXTAP	47	48	0
EXTAP	47	48	1
NMTAP	47	144	3
NMTAP	47	144	7
NMTAP	47	192	3
NMTAP	47	192	7
NMTAP	47	240	7
NMTAP	47	264	6
NMTAP	47	288	4
NMTAP	47	288	5
NMTAP	47	336	0
NMTAP	47	360	1
NMSTR	48	0	2
NMSI_	48	0	2	96	48	6
NMSTR	48	0	3
NMSI_	48	0	3	96	48	7
NMSTR	48	96	2
NMSI_	48	96	2	96	48	0
NMSTR	48	96	3
NMSI_	48	96	3	96	48	5
NMTAP	48	192	2
NMTAP	48	192	3
NMTAP	48	288	6
NMTAP	48	288	7
BRTAP	49	0	4
BRSTR	49	0	5
NMSLR	49	0	5	96	72	3
NMTAP	49	48	6
NMTAP	49	72	4
NMTAP	49	96	5
NMTAP	49	144	2
NMSTR	49	192	2
NMSLL	49	192	2	96	72	4
NMTAP	49	240	1
NMTAP	49	264	3
NMTAP	49	288	2
NMTAP	49	336	5
NMSTR	50	0	5
NMSLR	50	0	5	96	72	3
NMTAP	50	48	6
NMTAP	50	72	4
NMTAP	50	96	5
NMTAP	50	144	2
NMTAP	50	192	1
NMSTR	50	240	0
NMSCR	50	240	0	96	48	4
NMTAP	50	256	4
NMTAP	50	272	0
NMTAP	50	288	4
BRTAP	50	336	6
EXTAP	51	48	6
EXTAP	51	48	7
NMTAP	51	144	0
NMTAP	51	144	7
NMTAP	51	192	0
NMTAP	51	192	7
NMTAP	51	240	1
NMTAP	51	264	0
NMTAP	51	288	3
NMTAP	51	336	6
NMTAP	51	360	7
NMSTR	52	0	4
BRSI_	52	0	4	96	48	2
BRSI_	52	0	4	96	48	6
NMSTR	52	96	4
BRSI_	52	96	4	96	48	0
BRSI_	52	96	4	96	48	7
BRTAP	52	288	1
BRTAP	52	288	5
BRSTR	53	0	2
NMSLL	53	0	2	96	72	4
BRTAP	53	0	3
NMTAP	53	48	1
NMTAP	53	72	3
NMTAP	53	96	2
NMTAP	53	144	5
NMSTR	53	192	5
NMSLR	53	192	5	96	72	3
NMTAP	53	240	6
NMTAP	53	264	4
NMTAP	53	288	5
NMTAP	53	336	2
NMSTR	54	0	2
NMSLL	54	0	2	96	72	4
NMTAP	54	48	1
NMTAP	54	72	3
NMTAP	54	96	2
NMTAP	54	144	5
NMTAP	54	192	6
NMSTR	54	240	7
NMSCL	54	240	7	96	48	3
NMTAP	54	256	3
NMTAP	54	272	7
NMTAP	54	288	3
BRTAP	54	336	1
EXTAP	55	48	0
EXTAP	55	48	1
NMTAP	55	144	3
NMTAP	55	144	7
NMTAP	55	192	3
NMTAP	55	192	7
NMTAP	55	240	7
NMTAP	55	264	6
NMTAP	55	288	4
NMTAP	55	288	5
NMTAP	55	336	0
NMTAP	55	360	1
NMSTR	56	0	2
NMSUR	56	0	2	96	96	3
NMSTR	56	0	3
NMSCR	56	0	3	96	96	2
NMTTP	56	96	4	E	0	M1
NMTTP	56	112	5	E	0	M1
NMTTP	56	128	6	E	0	M1
NMTTP	56	144	7	E	0	M1
NMTTP	56	160	0	E	0	M1
NMTTP	56	176	1	E	0	M1
NMTTP	56	192	2	E	0	M1
NMTAP	56	288	3
NMTAP	56	288	4
BRTAP	57	0	4
BRSTR	57	0	5
NMSLR	57	0	5	96	72	3
NMTAP	57	48	6
NMTAP	57	72	4
NMTAP	57	96	5
NMTAP	57	144	2
NMSTR	57	192	2
NMSLL	57	192	2	96	72	4
NMTAP	57	240	1
NMTAP	57	264	3
NMTAP	57	288	2
NMTAP	57	336	5
NMSTR	58	0	5
NMSLR	58	0	5	96	72	3
NMTAP	58	48	6
NMTAP	58	72	4
NMTAP	58	96	5
NMTAP	58	144	2
NMTAP	58	192	1
NMSTR	58	240	0
NMSCR	58	240	0	96	48	4
NMTAP	58	256	4
NMTAP	58	272	0
NMTAP	58	288	4
BRTAP	58	336	6
EXTAP	59	48	6
EXTAP	59	48	7
NMTAP	59	144	0
NMTAP	59	144	6
NMTAP	59	192	0
NMTAP	59	192	6
EXTAP	59	240	1
NMHLD	59	240	7	48
EXTAP	59	256	2
EXTAP	59	272	3
EXTAP	59	288	4
NMHLD	59	336	0	48
EXTAP	59	336	6
EXTAP	59	352	5
EXTAP	59	368	4
EXSTR	60	0	3
NMSI_	60	0	3	96	48	7
NMSTR	60	96	0
NMSI_	60	96	0	96	48	4
NMTAP	60	96	3
NMTAP	60	192	0
NMSTR	60	192	6
NMSI_	60	192	6	96	48	1
NMSTR	60	288	3
BRSCL	60	288	3	96	192	5
NMTAP	60	288	6
BRTAP	61	0	3
BRTAP	61	0	7
CNSUL	61	192	5	0	192	4
NMTTP	62	0	0	C	0	M1
NMSTR	63	0	0
NMSCR	63	0	0	96	96	3
NMTTP	63	96	4	B	0	M1
NMTTP	63	96	5	B	0	M1
NMSTR	63	192	7
NMSCL	63	192	7	96	96	4
NMTTP	63	288	2	B	0	M1
NMTTP	63	288	3	B	0	M1
NMSTR	64	0	0
NMSCR	64	0	0	96	96	3
NMTTP	64	96	5	B	0	M1
NMTTP	64	96	6	B	0	M1
NMSTR	64	192	7
NMSCL	64	192	7	96	96	4
NMTTP	64	288	2	B	0	M1
NMTTP	64	288	3	B	0	M1
NMTAP	65	0	1
NMHLD	65	48	1	96
NMTAP	65	144	3
NMHLD	65	192	3	96
NMSTR	65	288	4
NMSXL	65	288	4	96	192	3
NMTAP	66	288	2
NMTAP	66	288	4
NMSTR	67	0	0
NMSSL	67	0	0	96	96	4
NMTTP	67	96	5	A	0	M1
NMTTP	67	96	6	D	0	M1
NMSTR	67	192	7
NMSSR	67	192	7	96	96	3
NMTTP	67	288	2	A	0	M1
NMTTP	67	288	2	D	0	M1
NMSTR	68	0	0
NMSSL	68	0	0	96	96	4
NMTTP	68	96	6	A	0	M1
NMTTP	68	96	6	D	0	M1
NMSTR	68	192	7
NMSSR	68	192	7	96	96	3
NMTTP	68	288	1	A	0	M1
NMTTP	68	288	2	D	0	M1
NMTAP	69	0	0
NMHLD	69	48	0	96
NMTAP	69	144	4
NMTAP	69	192	5
NMSTR	69	288	3
NMSI_	69	288	3	96	48	7
NMTAP	69	288	7
NMTAP	70	0	3
NMSTR	70	0	5
NMSI_	70	0	5	96	48	0
NMSTR	70	96	2
NMSI_	70	96	2	96	48	7
NMTAP	70	96	5
NMTAP	70	192	2
NMTAP	70	192	4
BXTAP	70	288	1
BXTAP	70	288	6
BXSTR	71	0	6
NMSLL	71	0	6	96	72	0
BXTAP	71	0	7
NMTAP	71	48	5
NMTAP	71	72	7
NMTAP	71	96	6
NMTAP	71	144	1
NMSTR	71	192	1
NMSLR	71	192	1	96	72	7
NMTAP	71	240	2
NMTAP	71	264	0
NMTAP	71	288	1
NMTAP	71	336	6
NMSTR	72	0	6
NMSLL	72	0	6	96	72	0
NMTAP	72	48	5
NMTAP	72	72	7
NMTAP	72	96	6
NMTAP	72	144	1
NMTAP	72	192	2
NMSTR	72	240	3
NMSCL	72	240	3	96	48	7
NMTAP	72	256	7
NMTAP	72	272	3
NMTAP	72	288	7
BRTAP	72	336	5
EXTAP	73	48	4
EXTAP	73	48	5
NMTAP	73	144	0
NMTAP	73	144	7
NMTAP	73	192	0
NMTAP	73	192	7
NMTAP	73	240	5
NMTAP	73	264	4
NMTAP	73	288	7
NMTAP	73	336	2
NMTAP	73	360	3
NMSTR	74	0	0
NMSCL	74	0	0	96	48	5
NMSCR	74	0	0	96	48	3
NMSTR	74	96	0
NMSF_	74	96	0	96	48	4
NMTAP	74	192	0
BRTAP	74	288	2
BRTAP	74	288	6
BXTAP	75	0	0
BXSTR	75	0	1
NMSLR	75	0	1	96	96	7
NMTAP	75	48	2
NMTAP	75	72	0
NMTAP	75	96	1
NMTAP	75	144	6
NMSTR	75	192	6
NMSLL	75	192	6	96	96	0
NMTAP	75	240	5
NMTAP	75	264	7
NMTAP	75	288	6
NMTAP	75	336	1
NMSTR	76	0	1
NMSLR	76	0	1	96	96	7
NMTAP	76	48	2
NMTAP	76	72	0
NMTAP	76	96	1
NMTAP	76	144	6
NMTAP	76	192	5
NMSTR	76	240	4
NMSCR	76	240	4	96	48	0
NMTAP	76	256	0
NMTAP	76	272	4
NMTAP	76	288	0
BRTAP	76	336	2
EXTAP	77	48	2
EXTAP	77	48	3
NMTAP	77	144	3
NMTAP	77	144	4
NMTAP	77	192	3
NMTAP	77	192	4
EXTAP	77	240	3
EXTAP	77	240	4
EXTAP	77	256	2
EXTAP	77	256	5
EXTAP	77	272	1
EXTAP	77	272	6
EXTAP	77	288	0
EXTAP	77	288	7
EXTAP	77	336	0
EXTAP	77	336	7
EXTAP	77	352	1
EXTAP	77	352	6
EXTAP	77	368	2
EXTAP	77	368	5
EXSTR	78	0	3
NMSI_	78	0	3	96	48	7
EXSTR	78	0	4
NMSI_	78	0	4	96	48	0
NMSTR	78	96	3
NMSI_	78	96	3	96	48	6
NMSTR	78	96	4
NMSI_	78	96	4	96	48	1
NMTAP	78	192	3
NMTAP	78	192	4
BXSTR	78	288	1
BRSXR	78	288	1	96	456	4
BXSTR	78	288	6
BRSXL	78	288	6	96	456	3
BRTAP	79	0	1
BRTAP	79	0	6
CNSCL	80	72	3	0	216	4
CNSCR	80	72	4	0	216	3
NMTAP	81	0	3
NMTAP	81	0	4
NMTAP	81	96	3
NMTAP	81	96	4
NMTAP	81	192	3
NMTAP	81	192	4
NMTAP	81	240	3
NMTAP	81	264	3
NMTAP	81	288	4
NMTTP	82	0	0	B	0	M1
NMTTP	82	0	1	B	0	M1
NMTTP	82	0	2	B	0	M1
NMTTP	82	0	3	B	0	M1
NMTTP	82	0	4	B	0	M1
NMTTP	82	0	5	B	0	M1
NMTTP	82	0	6	B	0	M1
NMTTP	82	0	7	B	0	M1

T_REC_TAP	316
T_REC_BRK	20
T_REC_XTP	48
T_REC_BXX	6
T_REC_HLD	41
T_REC_XHO	1
T_REC_BHO	0
T_REC_BXH	1
T_REC_STR	60
T_REC_BST	5
T_REC_XST	5
T_REC_XBS	4
T_REC_TTP	78
T_REC_THO	1
T_REC_SLD	67
T_REC_BSL	11
T_REC_ALL	664
T_NUM_TAP	507
T_NUM_BRK	47
T_NUM_HLD	43
T_NUM_SLD	67
T_NUM_ALL	664
T_JUDGE_TAP	542
T_JUDGE_HLD	153
T_JUDGE_SLD	78
T_JUDGE_ALL	773
TTM_EACHPAIRS	87
TTM_SCR_TAP	253500
TTM_SCR_BRK	122200
TTM_SCR_HLD	43000
TTM_SCR_SLD	100500
TTM_SCR_ALL	519200
TTM_SCR_S	499100
TTM_SCR_SS	514500
TTM_RAT_ACV	10091

