VERSION	0.00.00	1.04.00
FES_MODE	0
BPM_DEF	175.000	175.000	175.000	175.000
MET_DEF	4	4
RESOLUTION	384
CLK_DEF	384
COMPATIBLE_CODE	MA2

BPM	0	0	175.000
MET	0	0	4	4

EXHLD	1	0	2	72
EXHLD	1	0	4	144
EXHLD	2	0	3	144
EXHLD	2	0	5	72
EXHLD	3	0	2	72
EXHLD	3	0	3	144
EXHLD	4	0	4	144
EXHLD	4	0	5	72
NMHLD	5	0	2	72
NMHLD	5	0	4	144
NMTAP	5	288	2
NMTAP	5	288	4
NMHLD	6	0	3	144
NMHLD	6	0	5	72
NMTAP	6	288	3
NMTAP	6	288	5
NMHLD	7	0	1	72
NMHLD	7	0	3	144
NMTAP	7	288	2
NMTAP	7	288	4
NMHLD	8	0	4	144
NMHLD	8	0	6	72
NMTAP	8	288	3
NMTAP	8	288	4
NMTAP	9	0	2
NMTAP	9	96	2
NMTAP	9	192	3
NMTAP	9	288	3
NMTAP	10	0	1
NMTAP	10	96	1
NMTAP	10	192	1
NMTAP	10	192	3
NMTAP	10	288	4
NMTAP	11	0	5
NMTAP	11	96	5
NMTAP	11	192	4
NMTAP	11	288	4
NMTAP	12	0	6
NMTAP	12	96	6
NMTAP	12	192	4
NMTAP	12	192	6
NMTAP	12	288	7
NMTAP	13	0	0
NMTAP	13	96	0
NMTAP	13	192	1
NMTAP	13	192	3
NMTAP	13	288	1
NMTAP	13	288	3
NMTAP	14	0	2
NMTAP	14	96	2
NMTAP	14	192	1
NMTAP	14	192	3
NMTAP	14	288	3
NMTAP	14	288	4
NMTAP	15	0	5
NMTAP	15	96	5
NMTAP	15	192	4
NMTAP	15	192	6
NMTAP	15	288	4
NMTAP	15	288	6
NMTAP	16	0	7
NMTAP	16	48	7
NMTAP	16	96	0
NMTAP	16	144	0
NMTAP	16	192	7
BRTAP	16	288	1
BRTAP	16	288	6
EXHLD	17	0	0	72
EXHLD	17	72	1	72
EXTAP	17	144	2
NMTAP	17	240	3
NMTAP	17	240	4
NMTAP	17	288	3
NMTAP	17	288	4
NMHLD	18	0	4	72
NMHLD	18	72	5	72
NMTAP	18	144	6
NMTAP	18	240	6
NMTAP	18	240	7
NMTAP	18	288	6
NMTAP	18	288	7
NMHLD	19	0	0	72
NMHLD	19	72	1	72
NMTAP	19	144	2
NMTAP	19	240	2
NMTAP	19	240	3
NMTAP	19	288	2
NMTAP	19	288	3
NMHLD	20	0	4	72
NMHLD	20	72	5	72
NMTAP	20	144	6
EXTAP	20	240	7
EXTAP	20	288	7
EXTAP	20	336	0
NMHLD	21	0	6	72
NMHLD	21	72	5	72
NMTAP	21	144	4
NMTAP	21	240	3
NMTAP	21	288	2
NMTAP	21	288	4
NMHLD	22	0	2	72
NMHLD	22	72	1	72
NMTAP	22	144	0
NMTAP	22	240	7
NMTAP	22	288	0
NMTAP	22	288	6
NMHLD	23	0	6	72
NMHLD	23	72	5	72
NMTAP	23	144	4
NMTAP	23	240	4
NMSTR	23	288	3
NMSUR	23	288	3	96	288	4
NMTAP	23	288	5
NMTAP	25	0	5
NMTAP	25	96	4
NMTAP	25	96	5
NMTAP	25	192	2
NMTAP	25	288	2
NMTAP	25	288	3
NMTAP	26	0	6
NMSTR	26	96	4
NMSI_	26	96	4	96	96	0
NMTAP	26	96	6
NMTAP	27	0	2
NMTAP	27	96	2
NMTAP	27	96	3
NMTAP	27	192	5
NMTAP	27	288	4
NMTAP	27	288	5
NMTAP	28	0	1
NMTAP	28	96	1
NMSTR	28	96	3
NMSI_	28	96	3	96	96	7
EXTAP	29	0	6
EXTAP	29	96	4
EXTAP	29	96	6
NMTAP	29	192	1
NMTAP	29	288	1
NMTAP	29	288	3
NMTAP	30	0	7
NMSTR	30	96	5
NMSI_	30	96	5	96	96	1
NMTAP	30	96	7
NMTAP	31	0	2
NMTAP	31	96	2
NMTAP	31	96	3
NMTAP	31	192	5
NMTAP	31	288	4
NMTAP	31	288	5
NMTAP	32	0	3
NMTAP	32	0	6
NMTAP	32	96	2
NMTAP	32	96	7
NMTAP	32	192	0
NMTAP	32	192	1
NMTAP	32	288	3
NMTAP	32	288	4
NMSTR	33	0	1
NMSCR	33	0	1	96	288	5
NMTAP	33	0	5
NMSTR	34	0	6
NMSCL	34	0	6	96	288	2
NMSTR	35	0	1
NMSLR	35	0	1	96	288	5
NMTAP	36	0	6
NMTAP	36	192	6
NMTAP	36	192	7
NMTAP	36	288	0
NMTAP	36	288	7
NMSTR	37	0	1
NMSUR	37	0	1	96	288	4
NMSTR	38	0	5
NMSUR	38	0	5	96	288	0
NMSTR	39	0	1
NMSXL	39	0	1	96	288	4
NMSTR	40	0	5
NMSLL	40	0	5	96	192	7
NMTAP	41	0	0
NMTAP	41	96	1
NMTAP	41	192	2
NMTAP	41	288	3
NMTAP	42	0	4
NMTAP	42	96	5
NMTAP	42	192	6
NMTAP	42	288	7
NMTAP	43	0	0
NMTAP	43	48	0
NMTAP	43	96	6
NMTAP	43	144	6
NMTAP	43	192	1
NMTAP	43	240	1
NMTAP	43	288	7
NMTAP	43	336	7
EXTAP	44	0	0
EXTAP	44	0	7
NMTAP	44	96	2
NMTAP	44	96	3
NMTAP	44	192	4
NMTAP	44	192	5
NMTAP	44	288	2
NMTAP	44	288	6
BXTAP	45	0	0
BXSTR	45	0	1
NMSI_	45	0	1	96	48	4
NMSTR	45	192	6
NMSI_	45	192	6	96	48	3
NMTAP	45	192	7
NMTAP	46	0	0
NMSTR	46	0	1
NMSI_	46	0	1	96	48	4
NMTAP	46	192	6
NMTAP	46	192	7
NMTAP	46	288	4
NMTAP	46	288	5
NMTAP	47	0	2
NMSTR	47	0	3
NMSI_	47	0	3	96	48	7
NMSTR	47	192	4
NMSI_	47	192	4	96	48	0
NMTAP	47	192	5
NMTAP	48	0	1
NMTAP	48	0	3
NMTAP	48	96	0
NMTAP	48	96	7
NMTAP	48	192	4
NMTAP	48	192	6
NMTAP	48	288	3
NMTAP	48	288	4
BXTAP	49	0	0
BXSTR	49	0	1
NMSUR	49	0	1	96	48	5
NMSTR	49	192	6
NMSUL	49	192	6	96	48	2
NMTAP	49	192	7
NMTAP	50	0	0
NMSTR	50	0	1
NMSUR	50	0	1	96	48	5
NMTAP	50	192	6
NMTAP	50	192	7
NMTAP	50	288	0
NMTAP	50	288	1
NMTAP	51	0	2
NMSTR	51	0	3
NMSUR	51	0	3	96	48	7
NMSTR	51	192	4
NMSUL	51	192	4	96	48	0
NMTAP	51	192	5
EXHLD	52	0	1	96
NMHLD	52	96	3	96
NMHLD	52	192	4	96
NMTAP	52	288	6
BRTAP	53	0	4
BRSTR	53	0	5
NMSI_	53	0	5	96	48	0
NMSTR	53	192	2
NMSI_	53	192	2	96	48	7
NMTAP	53	192	3
NMTAP	54	0	4
NMSTR	54	0	5
NMSI_	54	0	5	96	48	0
NMTAP	54	192	2
NMTAP	54	192	3
NMTAP	54	288	4
NMTAP	54	288	5
BRTAP	55	0	6
BRSTR	55	0	7
NMSI_	55	0	7	96	48	3
NMSTR	55	192	0
NMSI_	55	192	0	96	48	4
NMTAP	55	192	1
NMTAP	56	0	3
NMTAP	56	0	5
NMTAP	56	96	5
NMTAP	56	96	7
NMTAP	56	192	1
NMTAP	56	192	7
NMTAP	56	288	1
NMTAP	56	288	3
BRTAP	57	0	4
BRSTR	57	0	5
NMSI_	57	0	5	96	48	0
NMSTR	57	192	1
NMSI_	57	192	1	96	48	4
NMTAP	57	192	7
NMSTR	58	0	6
NMSI_	58	0	6	96	48	3
NMTAP	58	0	7
NMTAP	58	192	2
NMTAP	58	192	4
NMTAP	58	288	0
NMTAP	58	288	1
NMSTR	59	0	6
NMSI_	59	0	6	96	48	3
NMSTR	59	0	7
NMSI_	59	0	7	96	48	3
NMSTR	59	192	0
NMSI_	59	192	0	96	48	4
NMSTR	59	192	1
NMSI_	59	192	1	96	48	4
NMTAP	60	0	0
NMTAP	60	0	6
NMTAP	60	96	1
NMTAP	60	96	7
NMTAP	60	192	2
NMTAP	60	192	3
NMTAP	60	288	4
NMTAP	60	288	5
NMSTR	61	0	0
NMSUL	61	0	0	96	288	2
NMSTR	61	0	7
NMSUR	61	0	7	96	288	5
NMHLD	63	0	2	672
NMTTP	63	192	4	B	0	M1
NMTTP	63	192	5	B	0	M1
NMTTP	64	0	2	B	0	M1
NMTTP	64	0	3	B	0	M1
NMTTP	64	192	1	E	0	M1
NMTTP	64	288	3	E	0	M1
NMHLD	65	0	5	576
NMTTP	65	192	4	B	0	M1
NMTTP	65	192	5	B	0	M1
NMTTP	66	0	7	E	0	M1
NMTTP	66	96	6	E	0	M1
NMTTP	66	192	5	E	0	M1
NMHLD	67	0	1	672
NMTTP	67	192	4	B	0	M1
NMTTP	67	192	4	E	0	M1
NMTTP	68	0	2	B	0	M1
NMTTP	68	0	3	E	0	M1
NMTTP	68	192	1	E	0	M1
NMTTP	68	288	0	C	0	M1
NMHLD	69	0	6	576
NMTTP	69	192	5	B	0	M1
NMTTP	69	192	5	E	0	M1
NMTTP	70	0	7	E	0	M1
NMTTP	70	96	1	E	0	M1
NMTTP	70	192	0	C	1	M1
BXSTR	71	0	0
BRSI_	71	0	0	96	48	5
BXSTR	71	0	1
BRSI_	71	0	1	96	48	4
BXSTR	71	192	6
NMSI_	71	192	6	96	48	3
BXSTR	71	192	7
NMSI_	71	192	7	96	48	2
BXSTR	72	0	0
BRSV_	72	0	0	96	48	5
BXSTR	72	0	1
BRSV_	72	0	1	96	48	4
NMTAP	72	192	6
NMTAP	72	192	7
NMTAP	72	288	4
NMTAP	72	288	5
BXSTR	73	0	4
BRSI_	73	0	4	96	48	0
BXSTR	73	0	5
BRSI_	73	0	5	96	48	7
BXSTR	73	192	2
NMSI_	73	192	2	96	48	0
BXSTR	73	192	3
NMSI_	73	192	3	96	48	7
NMHLD	74	0	5	96
NMHLD	74	96	7	96
NMHLD	74	192	0	96
NMTAP	74	288	2
BXSTR	75	0	2
BRSI_	75	0	2	96	48	7
BXSTR	75	0	3
BRSI_	75	0	3	96	48	6
BRSTR	75	192	4
NMSI_	75	192	4	96	48	1
BRSTR	75	192	5
NMSI_	75	192	5	96	48	0
BXSTR	76	0	2
BRSV_	76	0	2	96	48	7
BXSTR	76	0	3
BRSV_	76	0	3	96	48	6
NMTAP	76	192	4
NMTAP	76	192	5
NMTAP	76	288	6
NMTAP	76	288	7
NMTAP	77	0	0
NMTAP	77	0	2
NMTAP	77	96	3
NMTAP	77	96	5
NMTAP	77	192	0
NMTAP	77	192	6
NMTAP	77	288	2
NMTAP	77	288	4
NMTAP	78	0	1
NMTAP	78	0	7
NMTAP	78	96	4
NMTAP	78	96	5
NMTAP	78	192	0
NMTAP	78	192	7
BRSTR	78	288	2
BRSXR	78	288	2	96	576	4
BRSTR	78	288	5
BRSXL	78	288	5	96	576	3
NMTAP	81	0	4
NMTAP	81	96	4
NMTAP	81	192	3
NMTAP	81	288	3
NMTTP	82	0	0	C	0	M1
NMTTP	82	0	1	B	0	M1
NMTTP	82	0	2	B	0	M1
NMTTP	82	0	5	B	0	M1
NMTTP	82	0	6	B	0	M1

T_REC_TAP	219
T_REC_BRK	5
T_REC_XTP	9
T_REC_BXX	2
T_REC_HLD	29
T_REC_XHO	11
T_REC_BHO	0
T_REC_BXH	0
T_REC_STR	30
T_REC_BST	7
T_REC_XST	0
T_REC_XBS	16
T_REC_TTP	27
T_REC_THO	0
T_REC_SLD	41
T_REC_BSL	12
T_REC_ALL	408
T_NUM_TAP	285
T_NUM_BRK	42
T_NUM_HLD	40
T_NUM_SLD	41
T_NUM_ALL	408
T_JUDGE_TAP	315
T_JUDGE_HLD	132
T_JUDGE_SLD	53
T_JUDGE_ALL	500
TTM_EACHPAIRS	113
TTM_SCR_TAP	142500
TTM_SCR_BRK	109200
TTM_SCR_HLD	40000
TTM_SCR_SLD	61500
TTM_SCR_ALL	353200
TTM_SCR_S	338550
TTM_SCR_SS	349000
TTM_RAT_ACV	10120

