VERSION	0.00.00	1.03.00
FES_MODE	0
BPM_DEF	190.000	190.000	190.000	190.000
MET_DEF	4	4
RESOLUTION	384
CLK_DEF	384
COMPATIBLE_CODE	MA2

BPM	0	0	190.000
MET	0	0	4	4

TAP	1	0	0
TAP	1	72	1
TAP	1	96	1
TAP	1	144	2
TAP	1	240	3
TAP	1	336	4
TTP	2	48	1	E	0	M1
TTP	2	96	7	E	0	M1
TTP	2	144	2	E	0	M1
TTP	2	192	6	E	0	M1
TTP	2	240	3	E	0	M1
TTP	2	288	5	E	0	M1
TTP	2	336	0	C	0	M1
TAP	3	0	7
TAP	3	72	6
TAP	3	96	6
TAP	3	144	5
TAP	3	240	4
TAP	3	336	3
TTP	4	48	7	E	0	M1
TTP	4	96	1	E	0	M1
TTP	4	144	6	E	0	M1
TTP	4	192	2	E	0	M1
TTP	4	240	5	E	0	M1
TTP	4	288	3	E	0	M1
TTP	4	336	0	C	0	M1
TAP	5	0	0
TAP	5	48	0
TAP	5	96	1
TAP	5	144	1
TAP	5	192	2
TAP	5	216	3
TAP	5	240	2
TAP	5	288	1
TAP	5	288	4
TAP	5	336	0
TAP	6	0	7
TAP	6	48	7
TAP	6	96	6
TAP	6	144	6
TAP	6	192	5
TAP	6	216	4
TAP	6	240	5
TAP	6	288	3
TAP	6	288	6
TAP	6	336	7
TAP	7	0	3
TAP	7	24	4
TAP	7	48	3
TAP	7	72	4
TAP	7	96	2
TAP	7	120	5
TAP	7	144	2
TAP	7	168	5
TAP	7	192	1
TAP	7	216	6
TAP	7	240	1
TAP	7	264	6
TAP	7	288	0
TAP	7	312	7
TAP	7	336	0
TAP	7	360	7
XST	8	0	1
SI_	8	0	1	96	48	3
XTP	8	0	6
XST	8	96	7
SI_	8	96	7	96	48	5
XST	8	192	0
SI_	8	192	0	96	48	4
BRK	8	288	7
HLD	9	0	5	72
TAP	9	72	4
TAP	9	96	5
TAP	9	144	3
TAP	9	144	6
TAP	9	192	5
TAP	9	240	1
TAP	9	240	4
TAP	9	288	2
TAP	9	336	3
TAP	9	336	6
TAP	10	0	5
TAP	10	24	4
TAP	10	48	5
TAP	10	72	4
TAP	10	96	5
TAP	10	144	3
TAP	10	192	2
TAP	10	192	4
TAP	10	240	1
TAP	10	288	0
TAP	10	288	6
TAP	10	336	7
HLD	11	0	2	72
TAP	11	72	3
TAP	11	96	2
TAP	11	144	1
TAP	11	144	4
TAP	11	192	2
TAP	11	240	3
TAP	11	240	6
TAP	11	288	5
TAP	11	336	1
TAP	11	336	4
TAP	12	0	2
TAP	12	24	3
TAP	12	48	2
TAP	12	72	3
TAP	12	96	2
TAP	12	144	4
TAP	12	192	3
TAP	12	192	5
TAP	12	240	6
TAP	12	288	1
TAP	12	288	7
TAP	12	336	0
HLD	13	0	5	72
TAP	13	72	4
TAP	13	96	5
TAP	13	144	3
TAP	13	144	6
TAP	13	192	5
TAP	13	240	1
TAP	13	240	4
TAP	13	288	2
TAP	13	336	3
TAP	13	336	6
TAP	14	0	5
TAP	14	24	4
TAP	14	48	5
TAP	14	72	4
TAP	14	96	5
TAP	14	144	3
TAP	14	192	3
TAP	14	192	4
TAP	14	240	2
TAP	14	240	5
TAP	14	288	1
TAP	14	288	6
TAP	14	336	0
TAP	14	336	7
HLD	15	0	6	72
TAP	15	72	7
TAP	15	96	6
TAP	15	144	0
TAP	15	144	5
HLD	15	192	1	72
TAP	15	264	0
TAP	15	288	1
TAP	15	336	2
TAP	15	336	7
TAP	16	0	0
TAP	16	24	7
TAP	16	48	0
TAP	16	72	7
TAP	16	96	0
TAP	16	120	7
TAP	16	144	0
TAP	16	168	7
XTP	16	192	0
XTP	16	204	1
XTP	16	216	2
XTP	16	228	3
XTP	16	240	4
XTP	16	252	5
XTP	16	264	6
XTP	16	276	7
BRK	16	288	0
HLD	17	0	5	336
TAP	17	144	4
TAP	17	240	4
STR	17	336	4
SCL	17	336	4	96	144	1
TTP	18	192	6	B	0	M1
TTP	18	192	7	B	0	M1
TTP	18	288	3	B	0	M1
TTP	18	288	4	B	0	M1
HLD	19	0	2	336
TAP	19	144	3
TAP	19	240	3
STR	19	336	3
SCR	19	336	3	96	144	6
TTP	20	192	0	B	0	M1
TTP	20	192	1	B	0	M1
TTP	20	288	3	B	0	M1
TTP	20	288	4	B	0	M1
HLD	21	0	6	336
TAP	21	144	7
TAP	21	240	7
STR	21	336	7
SCR	21	336	7	96	144	2
TTP	22	192	5	B	0	M1
TTP	22	192	6	B	0	M1
TTP	22	288	2	B	0	M1
TTP	22	288	3	B	0	M1
HLD	23	0	1	336
TAP	23	144	0
TAP	23	240	0
STR	23	336	0
SCL	23	336	0	96	144	5
TTP	24	192	1	B	0	M1
TTP	24	192	2	B	0	M1
TTP	24	288	4	B	0	M1
TTP	24	288	5	B	0	M1
XTP	25	0	0
XTP	25	0	7
TAP	25	48	2
TAP	25	72	3
TAP	25	96	2
TAP	25	144	5
TAP	25	168	4
TAP	25	192	5
TAP	25	240	1
TAP	25	264	3
TAP	25	288	2
TAP	25	336	6
TAP	25	360	4
TAP	26	0	5
TAP	26	48	0
TAP	26	72	3
TAP	26	96	2
TAP	26	144	7
TAP	26	168	4
TAP	26	192	5
TAP	26	240	0
TAP	26	264	7
TAP	26	288	0
XTP	26	336	1
XTP	26	336	6
XTP	27	0	1
XST	27	0	6
SCR	27	0	6	96	48	1
BRK	27	96	2
XST	27	192	2
SCR	27	192	2	96	48	5
XTP	27	192	5
BRK	27	288	6
TAP	28	0	0
TAP	28	0	7
XTP	28	48	0
XST	28	48	7
SCL	28	48	7	96	48	4
XST	28	144	0
SCR	28	144	0	96	48	3
XST	28	240	7
SCL	28	240	7	96	48	4
XTP	28	336	0
XTP	29	0	1
TAP	29	48	2
TAP	29	96	3
STR	29	144	4
SCR	29	144	4	96	48	7
XST	29	240	3
SCL	29	240	3	96	48	0
XTP	29	336	4
XTP	30	0	5
TAP	30	48	6
TAP	30	96	7
TAP	30	144	0
XTP	30	192	1
XTP	30	192	3
XTP	30	264	4
XTP	30	264	6
XTP	30	336	3
XTP	30	336	4
XTP	31	0	3
XTP	31	0	4
TAP	31	48	5
TAP	31	96	6
XTP	31	144	3
XTP	31	144	7
XTP	31	192	3
XTP	31	192	7
TAP	31	240	2
TAP	31	288	1
XTP	31	336	0
XTP	31	336	4
XTP	32	0	0
XTP	32	0	4
TAP	32	48	3
TAP	32	48	5
XTP	32	96	2
XTP	32	96	6
TAP	32	144	1
TAP	32	144	7
BST	32	192	0
SI_	32	192	0	96	48	4
BST	32	288	4
SF_	32	288	4	96	48	0
TTP	33	12	0	C	1	M1
STR	33	192	0
SCR	33	192	0	96	48	3
STR	33	192	7
SCL	33	192	7	96	48	4
TTP	33	296	1	E	0	M1
TTP	33	296	7	E	0	M1
TTP	33	304	2	E	0	M1
TTP	33	304	6	E	0	M1
TTP	33	312	3	E	0	M1
TTP	33	312	5	E	0	M1
BRK	34	0	0
XTP	34	16	1
XTP	34	32	2
XTP	34	48	3
BRK	34	96	7
XTP	34	112	6
XTP	34	128	5
XTP	34	144	4
BRK	34	192	0
XTP	34	208	1
XTP	34	224	2
XTP	34	240	3
BRK	34	288	7
XTP	34	304	6
XTP	34	320	5
XTP	34	336	4
BRK	35	0	0
XTP	35	16	1
XTP	35	32	2
XTP	35	48	3
BRK	35	96	7
XTP	35	112	6
XTP	35	128	5
XTP	35	144	4
TAP	35	192	1
TAP	35	240	0
TAP	35	240	2
TAP	35	288	3
TAP	35	288	7
TAP	35	336	4
TAP	35	336	6
BST	36	0	5
SI_	36	0	5	96	48	1
BST	36	96	2
SI_	36	96	2	96	48	4
BST	36	192	6
SI_	36	192	6	96	48	0
BST	36	288	1
SI_	36	288	1	96	48	5
BRK	37	0	7
TAP	37	96	3
TAP	37	96	6
TAP	37	144	3
TAP	37	144	6
TAP	37	192	2
TAP	37	240	1
TAP	37	240	4
TAP	37	288	5
TAP	37	336	3
TAP	37	336	6
BRK	38	0	7
XTP	38	16	6
XTP	38	32	5
XTP	38	48	4
BRK	38	96	0
XTP	38	112	1
XTP	38	128	2
XTP	38	144	3
BRK	38	192	7
XTP	38	208	6
XTP	38	224	5
XTP	38	240	4
BRK	38	288	0
XTP	38	304	1
XTP	38	320	2
XTP	38	336	3
BRK	39	0	7
XTP	39	16	6
XTP	39	32	5
XTP	39	48	4
BRK	39	96	0
XTP	39	112	1
XTP	39	128	2
XTP	39	144	3
TAP	39	192	6
TAP	39	240	5
TAP	39	240	7
TAP	39	288	0
TAP	39	288	4
TAP	39	336	1
TAP	39	336	3
XST	40	0	2
SCL	40	0	2	96	48	7
XST	40	96	4
SCR	40	96	4	96	48	7
XST	40	192	3
SF_	40	192	3	96	48	7
BRK	41	0	1
BRK	41	0	5
TAP	41	96	2
TAP	41	96	3
TAP	41	144	4
TAP	41	144	5
STR	41	192	0
SCR	41	192	0	96	48	3
STR	41	192	7
SCL	41	192	7	96	48	4
TTP	41	296	1	E	0	M1
TTP	41	296	7	E	0	M1
TTP	41	304	2	E	0	M1
TTP	41	304	6	E	0	M1
TTP	41	312	3	E	0	M1
TTP	41	312	5	E	0	M1
BRK	42	0	7
XTP	42	16	6
XTP	42	32	5
XTP	42	48	4
BRK	42	96	1
XTP	42	112	2
XTP	42	128	3
XTP	42	144	4
BRK	42	192	7
XTP	42	208	6
XTP	42	224	5
XTP	42	240	4
BRK	42	288	0
XTP	42	304	1
XTP	42	320	2
XTP	42	336	3
BRK	43	0	6
XTP	43	16	5
XTP	43	32	4
XTP	43	48	3
BRK	43	96	0
XTP	43	112	1
XTP	43	128	2
XTP	43	144	3
TAP	43	192	6
TAP	43	240	5
TAP	43	240	7
TAP	43	288	0
TAP	43	288	4
TAP	43	336	1
TAP	43	336	3
BST	44	0	2
SI_	44	0	2	96	48	6
BST	44	96	5
SI_	44	96	5	96	48	3
BST	44	192	1
SI_	44	192	1	96	48	7
BST	44	288	6
SI_	44	288	6	96	48	2
BRK	45	0	0
TAP	45	96	1
TAP	45	96	4
TAP	45	144	1
TAP	45	144	4
TAP	45	192	5
TAP	45	240	3
TAP	45	240	6
TAP	45	288	2
TAP	45	336	1
TAP	45	336	4
BRK	46	0	0
XTP	46	16	1
XTP	46	32	2
XTP	46	48	3
BRK	46	96	6
XTP	46	112	5
XTP	46	128	4
XTP	46	144	3
BRK	46	192	0
XTP	46	208	1
XTP	46	224	2
XTP	46	240	3
BRK	46	288	7
XTP	46	304	6
XTP	46	320	5
XTP	46	336	4
BRK	47	0	1
XTP	47	16	2
XTP	47	32	3
XTP	47	48	4
BRK	47	96	7
XTP	47	112	6
XTP	47	128	5
XTP	47	144	4
TAP	47	192	1
TAP	47	240	0
TAP	47	240	2
TAP	47	288	6
TAP	47	336	5
TAP	47	336	7
TAP	48	0	3
TAP	48	24	4
TAP	48	48	3
TAP	48	72	4
TAP	48	96	3
TAP	48	120	4
TAP	48	144	3
TAP	48	168	4
XTP	48	192	3
XTP	48	204	2
XTP	48	216	1
XTP	48	228	0
XTP	48	240	7
XTP	48	252	6
XTP	48	264	5
XTP	48	276	4
XTP	48	288	3
XTP	48	300	2
XTP	48	312	1
XTP	48	324	0
XTP	48	336	7
XTP	48	348	6
XTP	48	360	5
XTP	48	372	4
BST	49	0	3
SCL	49	0	3	96	192	4
SUR	49	0	3	96	192	4
BRK	50	0	1
BRK	50	0	6
TTP	50	96	1	E	0	M1
TTP	50	192	0	C	0	M1
TTP	50	288	5	E	0	M1
STR	51	0	6
SXR	51	0	6	96	240	3
BRK	51	192	1
BRK	51	288	2
TAP	52	0	1
TTP	52	96	7	E	0	M1
TTP	52	192	0	C	0	M1
TTP	52	288	3	E	0	M1
STR	53	0	1
SXL	53	0	1	96	240	4
BRK	53	192	6
BRK	53	288	5
TAP	54	0	6
TTP	54	96	4	E	0	M1
TTP	54	192	0	C	0	M1
TTP	54	288	0	E	0	M1
HLD	55	0	1	96
HLD	55	0	6	96
HLD	55	192	2	96
HLD	55	192	5	96
TAP	56	0	3
TAP	56	0	4
TAP	56	48	2
TAP	56	48	5
TAP	56	96	1
TAP	56	96	6
TAP	56	144	0
TAP	56	144	7
TAP	56	192	1
TAP	56	216	6
TAP	56	240	1
TAP	56	264	6
TAP	56	288	2
TAP	56	312	5
TAP	56	336	2
TAP	56	360	5
XHO	57	0	3	96
XHO	57	0	4	96
TTP	57	192	2	E	0	M1
TTP	57	240	6	E	0	M1
TTP	57	288	0	C	0	M1
BRK	58	0	0
BRK	58	0	7
TAP	58	96	3
TAP	58	96	6
TAP	58	144	3
TAP	58	144	6
TTP	58	240	0	E	0	M1
TTP	58	240	0	B	0	M1
TTP	58	240	1	B	0	M1
TTP	58	240	2	E	0	M1
TAP	58	336	3
TAP	58	336	6
TAP	59	0	3
TAP	59	0	6
TAP	59	48	5
TAP	59	72	4
TAP	59	96	5
TAP	59	144	3
TAP	59	144	6
BST	59	192	3
SI_	59	192	3	96	48	0
BRK	59	192	6
BRK	59	288	4
BRK	60	0	3
BRK	60	0	7
TAP	60	96	1
TAP	60	96	4
TAP	60	144	1
TAP	60	144	4
TTP	60	240	0	E	0	M1
TTP	60	240	6	E	0	M1
TTP	60	240	6	B	0	M1
TTP	60	240	7	B	0	M1
TAP	60	336	1
TAP	60	336	4
TAP	61	0	1
TAP	61	0	4
TAP	61	48	2
TAP	61	72	3
TAP	61	96	2
TAP	61	120	3
TAP	61	144	2
TAP	61	168	3
TAP	61	192	2
TAP	61	240	1
TAP	61	240	4
XTP	61	288	0
XTP	61	312	0
XTP	61	336	0
XTP	61	360	0
BRK	62	0	0
TAP	62	48	6
TAP	62	72	7
TAP	62	96	6
TAP	62	144	0
TAP	62	144	5
TTP	62	240	2	B	0	M1
TTP	62	240	2	E	0	M1
TTP	62	240	3	B	0	M1
TTP	62	240	4	E	0	M1
TAP	62	336	0
TAP	62	336	5
TAP	63	0	0
TAP	63	0	5
TAP	63	48	6
TAP	63	72	7
TAP	63	96	6
TAP	63	144	0
TAP	63	144	5
TAP	63	192	1
TAP	63	216	0
TAP	63	240	1
TAP	63	288	2
TAP	63	288	7
TAP	63	336	4
TAP	63	336	5
TAP	64	0	2
TAP	64	0	7
TAP	64	48	1
TAP	64	72	0
TAP	64	96	1
TAP	64	144	2
TAP	64	144	7
TTP	64	240	4	B	0	M1
TTP	64	240	4	E	0	M1
TTP	64	240	5	B	0	M1
TTP	64	240	6	E	0	M1
TAP	64	336	2
TAP	64	336	7
TAP	65	0	0
TAP	65	0	5
TAP	65	48	0
TAP	65	48	5
TAP	65	96	2
TAP	65	96	7
TAP	65	144	2
TAP	65	144	7
XST	65	192	1
SI_	65	192	1	96	48	5
XST	65	192	6
SI_	65	192	6	96	48	2
XTP	65	240	1
XTP	65	240	6
TTP	65	304	0	C	1	M1
BRK	66	0	0
BRK	66	0	7
TAP	66	96	4
TAP	66	96	6
STR	66	144	4
SI_	66	144	4	96	48	1
TAP	66	144	6
STR	66	240	6
SI_	66	240	6	96	48	3
TAP	66	336	2
BRK	67	0	2
TAP	67	96	1
TAP	67	96	3
TAP	67	144	1
STR	67	144	3
SI_	67	144	3	96	48	6
STR	67	240	1
SI_	67	240	1	96	48	4
TAP	67	336	5
XHO	68	0	5	72
TAP	68	72	4
TAP	68	96	5
TAP	68	144	3
TAP	68	144	6
HLD	68	192	7	72
TAP	68	264	0
TAP	68	288	7
TAP	68	336	1
TAP	68	336	6
XHO	69	0	2	72
BRK	69	0	5
TAP	69	72	3
TAP	69	96	2
TAP	69	144	1
TAP	69	144	4
BRK	69	192	2
XHO	69	192	5	72
TAP	69	264	4
TAP	69	288	5
TAP	69	336	3
TAP	69	336	6
BRK	70	0	7
TAP	70	48	2
TAP	70	72	3
TAP	70	96	2
TAP	70	144	1
TAP	70	144	4
BRK	70	192	0
TAP	70	240	5
TAP	70	264	4
TAP	70	288	5
TAP	70	336	3
TAP	70	336	6
BRK	71	0	7
TAP	71	48	2
TAP	71	72	3
TAP	71	96	2
TAP	71	144	1
TAP	71	144	4
BRK	71	192	0
TAP	71	240	5
TAP	71	264	4
TAP	71	288	5
TAP	71	336	3
TAP	71	336	6
XTP	72	0	2
XTP	72	0	4
TAP	72	48	2
TAP	72	48	4
XTP	72	96	3
XTP	72	96	6
TAP	72	144	3
TAP	72	144	6
XTP	72	192	1
XTP	72	192	5
TAP	72	240	1
TAP	72	240	5
XTP	72	288	3
XTP	72	288	7
TAP	72	336	3
TAP	72	336	7
XTP	73	0	0
XTP	73	12	1
XTP	73	24	2
XTP	73	36	3
XTP	73	48	4
XTP	73	60	5
XTP	73	72	6
XTP	73	84	7
XTP	73	96	0
XTP	73	108	1
XTP	73	120	2
XTP	73	132	3
XTP	73	144	4
XTP	73	156	5
XTP	73	168	6
XTP	73	180	7
XTP	73	192	0
XTP	73	204	1
XTP	73	216	2
XTP	73	228	3
XTP	73	240	4
XTP	73	252	5
XTP	73	264	6
XTP	73	276	7
XTP	73	288	0
XTP	73	300	1
XTP	73	312	2
XTP	73	324	3
XTP	73	336	4
XTP	73	348	5
XTP	73	360	6
XTP	73	372	7
XTP	74	0	0
THO	74	0	0	384	C	1	M1
BRK	75	288	1
BRK	75	288	6
TAP	76	0	0
TAP	76	0	7
TAP	76	48	1
TAP	76	72	0
TAP	76	96	1
TAP	76	144	6
TAP	76	168	7
TAP	76	192	6
TAP	76	240	2
TAP	76	264	3
TAP	76	288	1
TAP	76	336	5
TAP	76	360	4
TAP	77	0	6
TAP	77	48	3
TAP	77	72	4
TAP	77	96	3
XTP	77	144	0
XTP	77	144	7
XTP	77	168	1
XTP	77	168	6
BRK	77	192	2
BRK	77	192	5
TAP	77	288	4
TAP	77	288	5
TAP	77	336	2
TAP	77	336	3
TAP	78	0	0
TAP	78	0	1
TAP	78	48	6
TAP	78	72	7
TAP	78	96	6
TAP	78	144	4
TAP	78	144	5
TAP	78	192	2
TAP	78	192	3
TAP	78	240	1
TAP	78	264	0
TAP	78	288	1
TAP	78	336	2
TAP	78	336	3
TAP	79	0	4
TAP	79	0	5
TAP	79	48	6
TAP	79	72	7
STR	79	96	6
SI_	79	96	6	96	48	2
TAP	79	144	0
STR	79	192	0
SI_	79	192	0	96	48	4
BRK	79	288	7
TAP	80	0	1
TAP	80	0	6
TAP	80	48	5
TAP	80	72	4
TAP	80	96	6
TAP	80	144	2
TAP	80	168	3
TAP	80	192	1
TAP	80	240	5
TAP	80	264	4
TAP	80	288	7
TAP	80	336	2
TAP	80	360	3
TAP	81	0	0
TAP	81	48	4
TAP	81	48	5
TAP	81	96	6
TAP	81	96	7
TAP	81	144	0
TAP	81	144	1
BRK	81	192	2
BST	81	192	7
SCL	81	192	7	96	48	4
TAP	81	288	0
TAP	81	336	1
TAP	82	0	2
TAP	82	0	3
TAP	82	48	1
TAP	82	48	4
TAP	82	96	0
TAP	82	96	5
BRK	82	144	6
BRK	82	144	7
TAP	82	240	1
TAP	82	264	0
TAP	82	288	1
BST	82	336	2
SCL	82	336	2	96	48	7
BRK	82	336	7
BST	83	48	4
SCR	83	48	4	96	48	7
BST	83	144	3
SF_	83	144	3	96	48	7
TTP	83	248	3	B	0	M1
TTP	83	256	0	C	1	M1
TTP	83	264	7	B	0	M1
BRK	84	0	1
BRK	84	0	5
TAP	84	48	6
TAP	84	72	7
TAP	84	96	6
TAP	84	144	1
TAP	84	168	0
TAP	84	192	1
TAP	84	240	5
TAP	84	264	4
TAP	84	288	6
TAP	84	336	2
TAP	84	360	3
TAP	85	0	1
TAP	85	48	4
TAP	85	72	3
TAP	85	96	4
XTP	85	144	0
XTP	85	144	7
XTP	85	168	1
XTP	85	168	6
BRK	85	192	2
BRK	85	192	5
TAP	85	288	2
TAP	85	288	3
TAP	85	336	4
TAP	85	336	5
TAP	86	0	6
TAP	86	0	7
TAP	86	48	1
TAP	86	72	0
TAP	86	96	1
TAP	86	144	2
TAP	86	144	3
TAP	86	192	4
TAP	86	192	5
TAP	86	240	6
TAP	86	264	7
TAP	86	288	6
TAP	86	336	4
TAP	86	336	5
TAP	87	0	2
TAP	87	0	3
TAP	87	48	1
TAP	87	72	0
STR	87	96	1
SI_	87	96	1	96	48	5
TAP	87	144	7
STR	87	192	7
SI_	87	192	7	96	48	3
BRK	87	288	0
TAP	88	0	2
TAP	88	0	4
TAP	88	48	1
TAP	88	72	0
TAP	88	96	1
TAP	88	144	2
TAP	88	144	7
TAP	88	192	3
TAP	88	192	5
TAP	88	240	6
TAP	88	264	7
TAP	88	288	6
TAP	88	336	0
TAP	88	336	5
BRK	89	0	2
BRK	89	0	4
BRK	89	48	3
BRK	89	48	5
BRK	89	96	1
BRK	89	96	4
BRK	89	144	3
BRK	89	144	6
BST	89	192	0
SCR	89	192	0	96	48	3
BST	89	192	7
SCL	89	192	7	96	48	4
TTP	89	296	1	E	0	M1
TTP	89	296	7	E	0	M1
TTP	89	304	2	E	0	M1
TTP	89	304	6	E	0	M1
TTP	89	312	3	E	0	M1
TTP	89	312	5	E	0	M1
XTP	90	0	3
XTP	90	24	4
TAP	90	48	3
TAP	90	72	4
XTP	90	96	2
XTP	90	120	5
TAP	90	144	2
TAP	90	168	5
XTP	90	192	1
XTP	90	216	6
TAP	90	240	1
TAP	90	264	6
XTP	90	288	0
XTP	90	312	7
TAP	90	336	0
TAP	90	360	7
BRK	91	0	0
XTP	91	16	1
XTP	91	32	2
XTP	91	48	3
BRK	91	96	7
XTP	91	112	6
XTP	91	128	5
XTP	91	144	4
BRK	91	192	0
XTP	91	204	1
XTP	91	216	2
XTP	91	228	3
XTP	91	240	4
XTP	91	252	5
XTP	91	264	6
XTP	91	276	7
XTP	91	288	0
XTP	91	300	1
XTP	91	312	2
XTP	91	324	3
XTP	91	336	4
XTP	91	348	5
XTP	91	360	6
XTP	91	372	7
BRK	92	0	0
THO	92	0	0	1440	C	0	M1
BRK	95	288	0

T_REC_TAP	504
T_REC_BRK	81
T_REC_XTP	210
T_REC_HLD	14
T_REC_XHO	5
T_REC_STR	19
T_REC_BST	18
T_REC_XST	14
T_REC_TTP	81
T_REC_THO	2
T_REC_SLD	52
T_REC_ALL	1000
T_NUM_TAP	828
T_NUM_BRK	99
T_NUM_HLD	21
T_NUM_SLD	52
T_NUM_ALL	1000
T_JUDGE_TAP	927
T_JUDGE_HLD	96
T_JUDGE_SLD	52
T_JUDGE_ALL	1075
TTM_EACHPAIRS	164
TTM_SCR_TAP	414000
TTM_SCR_BRK	257400
TTM_SCR_HLD	21000
TTM_SCR_SLD	78000
TTM_SCR_ALL	770400
TTM_SCR_S	737700
TTM_SCR_SS	760500
TTM_RAT_ACV	10130

