VERSION	0.00.00	1.03.00
FES_MODE	0
BPM_DEF	190.000	190.000	190.000	190.000
MET_DEF	4	4
RESOLUTION	384
CLK_DEF	384
COMPATIBLE_CODE	MA2

BPM	0	0	190.000
MET	0	0	4	4

TTP	1	0	0	C	0	M1
TTP	1	96	1	B	0	M1
TTP	1	192	0	B	0	M1
TTP	1	288	7	B	0	M1
TTP	2	0	6	B	0	M1
TTP	2	96	5	B	0	M1
TTP	2	192	4	B	0	M1
TTP	2	288	3	B	0	M1
TTP	3	0	0	C	0	M1
TTP	3	96	6	B	0	M1
TTP	3	192	7	B	0	M1
TTP	3	288	0	B	0	M1
TTP	4	0	1	B	0	M1
TTP	4	96	2	B	0	M1
TTP	4	192	3	B	0	M1
TTP	4	288	4	B	0	M1
TTP	5	0	6	E	0	M1
TTP	5	96	7	E	0	M1
TTP	5	192	0	E	0	M1
TTP	5	288	1	E	0	M1
TTP	6	0	2	E	0	M1
TTP	6	96	3	E	0	M1
TTP	6	192	4	E	0	M1
TTP	6	288	2	B	0	M1
TTP	6	288	5	B	0	M1
STR	7	0	6
SI_	7	0	6	96	96	2
STR	7	192	1
SI_	7	192	1	96	96	5
HLD	8	0	7	96
TAP	8	96	0
TAP	8	192	2
TAP	8	192	5
TTP	8	288	3	E	0	M1
TTP	8	288	3	B	0	M1
TTP	8	288	4	B	0	M1
TTP	8	288	5	E	0	M1
XST	9	0	6
SI_	9	0	6	96	48	4
XST	9	96	7
SI_	9	96	7	96	48	3
XST	9	192	6
SI_	9	192	6	96	48	4
XST	9	288	7
SI_	9	288	7	96	48	3
XST	10	0	6
SI_	10	0	6	96	48	4
XTP	10	96	0
TAP	10	144	0
TAP	10	192	7
TAP	10	240	7
TAP	10	288	2
TAP	10	288	5
XST	11	0	1
SI_	11	0	1	96	48	3
XST	11	96	0
SI_	11	96	0	96	48	4
XST	11	192	1
SI_	11	192	1	96	48	3
XST	11	288	0
SI_	11	288	0	96	48	4
XST	12	0	1
SI_	12	0	1	96	48	3
XTP	12	96	7
TAP	12	144	7
TAP	12	192	0
TAP	12	240	0
TAP	12	288	2
TAP	12	288	5
XST	13	0	6
SI_	13	0	6	96	48	4
XST	13	96	7
SI_	13	96	7	96	48	3
XST	13	192	6
SI_	13	192	6	96	48	4
XST	13	288	7
SI_	13	288	7	96	48	3
XST	14	0	6
SI_	14	0	6	96	48	4
XTP	14	96	0
TAP	14	144	0
TAP	14	192	7
TAP	14	240	7
TAP	14	288	2
TAP	14	288	5
XST	15	0	1
SI_	15	0	1	96	48	3
XST	15	96	6
SI_	15	96	6	96	48	4
XST	15	192	0
SI_	15	192	0	96	48	3
XST	15	288	7
SCL	15	288	7	96	192	1
XTP	16	0	0
XTP	16	48	0
XTP	16	96	0
XTP	16	144	0
XTP	16	192	0
BRK	16	288	1
BRK	16	288	6
HLD	17	0	2	192
HLD	17	0	5	576
HLD	18	0	4	576
HLD	19	0	3	576
HLD	20	0	2	576
HLD	21	0	3	576
HLD	22	0	4	576
HLD	23	0	5	576
HLD	24	0	2	192
TAP	24	288	4
HLD	25	0	5	672
TAP	25	96	4
TAP	25	192	4
TAP	25	288	4
TTP	26	0	3	E	0	M1
TTP	26	96	1	B	0	M1
TTP	26	192	0	E	0	M1
TAP	26	288	3
HLD	27	0	2	672
TAP	27	96	3
TAP	27	192	3
TAP	27	288	3
TTP	28	0	5	E	0	M1
TTP	28	96	6	B	0	M1
TTP	28	192	0	E	0	M1
XTP	28	288	4
HLD	29	0	5	672
TAP	29	96	4
TAP	29	192	4
TAP	29	288	4
TTP	30	0	3	E	0	M1
TTP	30	96	1	B	0	M1
TTP	30	192	0	E	0	M1
XTP	30	288	3
HLD	31	0	2	384
TAP	31	96	3
TAP	31	192	3
TAP	31	288	3
TTP	32	0	4	E	0	M1
TTP	32	96	0	C	0	M1
TTP	32	192	0	E	0	M1
XTP	32	288	0
XTP	32	288	7
TTP	33	0	0	C	1	M1
TTP	33	0	2	B	0	M1
TTP	33	0	5	B	0	M1
XTP	33	192	0
XTP	33	192	7
XTP	33	288	2
XTP	33	288	5
TTP	34	0	0	B	0	M1
TTP	34	0	1	E	0	M1
TTP	34	0	7	B	0	M1
TTP	34	0	7	E	0	M1
TTP	34	96	3	B	0	M1
TTP	34	96	3	E	0	M1
TTP	34	96	4	B	0	M1
TTP	34	96	5	E	0	M1
TAP	34	192	0
TAP	34	192	7
TAP	34	288	2
TAP	34	288	5
TTP	35	0	0	B	0	M1
TTP	35	0	1	E	0	M1
TTP	35	0	7	B	0	M1
TTP	35	0	7	E	0	M1
TTP	35	96	3	E	0	M1
TTP	35	96	3	B	0	M1
TTP	35	96	4	B	0	M1
TTP	35	96	5	E	0	M1
HLD	35	192	2	48
HLD	35	192	5	48
HLD	35	288	2	48
HLD	35	288	5	48
TTP	36	0	0	B	0	M1
TTP	36	0	1	E	0	M1
TTP	36	0	7	B	0	M1
TTP	36	0	7	E	0	M1
TTP	36	96	3	B	0	M1
TTP	36	96	3	E	0	M1
TTP	36	96	4	B	0	M1
TTP	36	96	5	E	0	M1
TAP	36	192	0
TAP	36	192	7
TAP	36	288	2
TAP	36	288	5
TAP	37	0	0
TAP	37	0	7
TAP	37	96	5
TAP	37	144	5
TAP	37	192	3
TAP	37	240	4
TAP	37	288	2
TTP	38	0	0	B	0	M1
TTP	38	0	1	E	0	M1
TTP	38	0	7	E	0	M1
TTP	38	0	7	B	0	M1
TTP	38	96	3	E	0	M1
TTP	38	96	3	B	0	M1
TTP	38	96	4	B	0	M1
TTP	38	96	5	E	0	M1
TAP	38	192	0
TAP	38	192	7
TAP	38	288	2
TAP	38	288	5
TTP	39	0	0	B	0	M1
TTP	39	0	1	E	0	M1
TTP	39	0	7	E	0	M1
TTP	39	0	7	B	0	M1
TTP	39	96	3	B	0	M1
TTP	39	96	3	E	0	M1
TTP	39	96	4	B	0	M1
TTP	39	96	5	E	0	M1
HLD	39	192	1	48
HLD	39	192	6	48
HLD	39	288	1	48
HLD	39	288	6	48
TTP	40	0	0	B	0	M1
TTP	40	0	1	E	0	M1
TTP	40	0	7	E	0	M1
TTP	40	0	7	B	0	M1
TTP	40	96	3	E	0	M1
TTP	40	96	3	B	0	M1
TTP	40	96	4	B	0	M1
TTP	40	96	5	E	0	M1
TAP	40	192	0
TAP	40	192	7
TAP	40	288	2
TAP	40	288	5
THO	41	0	0	192	C	1	M1
TTP	41	0	1	B	0	M1
TTP	41	0	6	B	0	M1
TTP	42	0	0	E	0	M1
TTP	42	0	6	E	0	M1
TTP	42	0	6	B	0	M1
TTP	42	0	7	B	0	M1
TTP	42	96	2	B	0	M1
TTP	42	96	2	E	0	M1
TTP	42	96	3	B	0	M1
TTP	42	96	4	E	0	M1
TAP	42	192	6
TAP	42	192	7
TAP	42	288	1
TAP	42	288	4
TTP	43	0	0	E	0	M1
TTP	43	0	6	B	0	M1
TTP	43	0	6	E	0	M1
TTP	43	0	7	B	0	M1
TTP	43	96	2	B	0	M1
TTP	43	96	2	E	0	M1
TTP	43	96	3	B	0	M1
TTP	43	96	4	E	0	M1
HLD	43	192	1	48
HLD	43	192	5	48
HLD	43	288	2	48
HLD	43	288	6	48
TTP	44	0	0	E	0	M1
TTP	44	0	0	B	0	M1
TTP	44	0	1	B	0	M1
TTP	44	0	2	E	0	M1
TTP	44	96	4	B	0	M1
TTP	44	96	4	E	0	M1
TTP	44	96	5	B	0	M1
TTP	44	96	6	E	0	M1
TAP	44	192	0
TAP	44	192	1
TAP	44	288	3
TAP	44	288	6
TTP	45	0	0	B	0	M1
TTP	45	0	0	E	0	M1
TTP	45	0	1	B	0	M1
TTP	45	0	2	E	0	M1
TTP	45	96	4	E	0	M1
TTP	45	96	4	B	0	M1
TTP	45	96	5	B	0	M1
TTP	45	96	6	E	0	M1
HLD	45	192	2	48
HLD	45	192	6	48
HLD	45	288	1	48
HLD	45	288	5	48
TTP	46	0	0	E	0	M1
TTP	46	0	6	B	0	M1
TTP	46	0	6	E	0	M1
TTP	46	0	7	B	0	M1
TTP	46	96	2	B	0	M1
TTP	46	96	2	E	0	M1
TTP	46	96	3	B	0	M1
TTP	46	96	4	E	0	M1
TAP	46	192	6
TAP	46	192	7
TAP	46	288	1
TAP	46	288	4
TTP	47	0	0	E	0	M1
TTP	47	0	6	B	0	M1
TTP	47	0	6	E	0	M1
TTP	47	0	7	B	0	M1
TTP	47	96	2	E	0	M1
TTP	47	96	2	B	0	M1
TTP	47	96	3	B	0	M1
TTP	47	96	4	E	0	M1
HLD	47	192	1	48
HLD	47	192	5	48
HLD	47	288	2	48
HLD	47	288	6	48
XTP	48	0	7
XTP	48	48	6
XTP	48	96	5
XTP	48	144	4
XTP	48	192	3
XTP	48	240	2
XTP	48	288	1
XST	48	336	0
SUL	48	336	0	96	240	7
HLD	50	0	2	768
STR	50	192	4
SCL	50	192	4	96	288	5
HLD	52	0	5	768
STR	52	192	4
SCL	52	192	4	96	192	1
XTP	53	192	1
XTP	53	288	1
HLD	54	0	2	768
STR	54	192	4
SCL	54	192	4	96	288	6
HLD	56	0	7	192
TAP	56	192	0
STR	56	288	0
SCR	56	288	0	96	96	3
STR	56	288	7
SCL	56	288	7	96	96	4
XTP	57	192	0
XTP	57	288	0
THO	58	0	0	288	C	0	M1
TTP	58	0	3	B	0	M1
TTP	58	0	4	B	0	M1
TTP	58	0	5	B	0	M1
TTP	58	0	6	B	0	M1
XTP	59	0	0
TAP	59	192	0
TAP	59	192	7
TAP	59	288	0
TAP	59	288	7
THO	60	0	0	288	C	0	M1
TTP	60	0	1	B	0	M1
TTP	60	0	2	B	0	M1
TTP	60	0	3	B	0	M1
TTP	60	0	4	B	0	M1
XTP	61	0	7
XTP	61	48	7
XTP	61	96	7
XTP	61	144	7
XTP	61	192	7
TAP	61	288	0
TAP	61	288	7
TTP	62	0	0	B	0	M1
THO	62	0	0	192	C	0	M1
TTP	62	0	1	B	0	M1
TTP	62	0	2	B	0	M1
TTP	62	0	3	B	0	M1
XTP	62	288	7
THO	63	0	0	192	C	0	M1
TTP	63	0	4	B	0	M1
TTP	63	0	5	B	0	M1
TTP	63	0	6	B	0	M1
TTP	63	0	7	B	0	M1
XTP	63	288	0
STR	64	0	7
SI_	64	0	7	96	48	3
TAP	64	96	0
STR	64	192	0
SI_	64	192	0	96	48	4
TAP	64	288	7
HLD	65	0	5	96
HLD	65	96	7	96
HLD	65	192	0	96
HLD	65	288	2	96
STR	66	0	4
SCR	66	0	4	96	1248	3
TTP	67	0	0	E	0	M1
TTP	67	0	0	C	0	M1
TTP	68	0	0	C	0	M1
TTP	68	0	4	E	0	M1
TTP	69	0	0	C	0	M1
TTP	69	0	0	E	0	M1
TAP	70	0	0
TAP	70	0	1
TAP	70	96	2
TAP	70	96	3
TAP	70	192	4
TAP	70	192	5
TAP	70	288	6
TAP	70	288	7
TAP	71	0	0
TAP	71	0	1
TAP	71	96	2
TAP	71	96	3
TAP	71	192	4
TAP	71	192	5
TAP	71	288	6
TAP	71	288	7
XTP	72	0	0
XTP	72	48	1
XTP	72	96	2
XTP	72	144	3
XTP	72	192	4
XTP	72	240	5
XTP	72	288	6
XTP	72	336	7
TAP	73	0	0
TAP	73	24	7
TAP	73	48	0
TAP	73	72	7
TAP	73	96	0
TAP	73	120	7
TAP	73	144	0
TAP	73	168	7
TAP	73	192	0
TAP	73	216	7
TAP	73	240	0
TAP	73	264	7
BRK	73	288	0
THO	74	0	0	384	C	1	M1
TTP	74	0	1	B	0	M1
TTP	74	0	2	B	0	M1
TTP	74	0	5	B	0	M1
TTP	74	0	6	B	0	M1
TAP	75	192	3
TAP	75	192	4
XTP	75	288	1
XTP	75	288	6
STR	76	0	5
SI_	76	0	5	96	48	7
STR	76	96	4
SI_	76	96	4	96	48	0
STR	76	192	5
SI_	76	192	5	96	48	7
STR	76	288	4
SI_	76	288	4	96	48	0
STR	77	0	5
SCR	77	0	5	96	96	2
TAP	77	96	3
TAP	77	288	1
TAP	77	288	6
TTP	78	0	0	B	0	M1
TTP	78	0	1	E	0	M1
TTP	78	0	7	B	0	M1
TTP	78	0	7	E	0	M1
TTP	78	96	3	E	0	M1
TTP	78	96	3	B	0	M1
TTP	78	96	4	B	0	M1
TTP	78	96	5	E	0	M1
TAP	78	192	0
TAP	78	192	7
TAP	78	288	2
TAP	78	288	5
STR	79	0	1
SI_	79	0	1	96	48	5
TAP	79	48	1
STR	79	96	6
SI_	79	96	6	96	48	2
TAP	79	144	6
HLD	79	192	0	96
BRK	79	288	7
STR	80	0	0
SI_	80	0	0	96	48	6
STR	80	96	3
SI_	80	96	3	96	48	5
STR	80	192	0
SI_	80	192	0	96	48	6
STR	80	288	3
SI_	80	288	3	96	48	5
STR	81	0	0
SI_	81	0	0	96	48	6
TAP	81	96	3
HLD	81	192	0	96
TAP	81	288	7
TAP	81	336	7
TAP	82	0	6
TAP	82	48	7
TAP	82	96	0
HLD	82	144	1	96
TAP	82	240	0
TAP	82	288	7
XTP	82	336	1
XTP	82	336	6
TTP	83	48	3	E	0	M1
TTP	83	48	4	E	0	M1
TTP	83	48	5	E	0	M1
TTP	83	144	0	E	0	M1
TTP	83	144	1	E	0	M1
TTP	83	144	7	E	0	M1
TTP	83	240	0	C	1	M1
TTP	83	240	2	E	0	M1
TTP	83	240	6	E	0	M1
STR	84	0	2
SI_	84	0	2	96	48	0
STR	84	96	3
SI_	84	96	3	96	48	7
STR	84	192	2
SI_	84	192	2	96	48	0
STR	84	288	3
SI_	84	288	3	96	48	7
STR	85	0	2
SCL	85	0	2	96	96	5
TAP	85	96	3
TAP	85	288	1
TAP	85	288	6
TTP	86	0	0	B	0	M1
TTP	86	0	1	E	0	M1
TTP	86	0	7	B	0	M1
TTP	86	0	7	E	0	M1
TTP	86	96	3	E	0	M1
TTP	86	96	3	B	0	M1
TTP	86	96	4	B	0	M1
TTP	86	96	5	E	0	M1
TAP	86	192	0
TAP	86	192	7
TAP	86	288	2
TAP	86	288	5
STR	87	0	6
SI_	87	0	6	96	48	2
TAP	87	48	6
STR	87	96	1
SI_	87	96	1	96	48	5
TAP	87	144	1
HLD	87	192	7	96
BRK	87	288	0
STR	88	0	7
SI_	88	0	7	96	48	1
STR	88	96	4
SI_	88	96	4	96	48	2
STR	88	192	7
SI_	88	192	7	96	48	1
STR	88	288	4
SI_	88	288	4	96	48	2
TAP	89	0	7
HLD	89	96	6	96
XTP	89	192	0
TAP	89	288	3
TAP	89	336	3
TAP	90	0	2
TAP	90	48	3
TAP	90	96	4
HLD	90	144	5	96
TAP	90	240	4
TAP	90	288	3
TAP	90	336	2
XTP	91	0	1
XTP	91	0	4
XTP	91	96	3
XTP	91	96	6
HLD	91	192	7	96
STR	91	288	0
SCR	91	288	0	96	1440	7
THO	92	0	0	1440	C	0	M1

T_REC_TAP	141
T_REC_BRK	5
T_REC_XTP	52
T_REC_HLD	49
T_REC_XHO	0
T_REC_STR	34
T_REC_BST	0
T_REC_XST	20
T_REC_TTP	193
T_REC_THO	7
T_REC_SLD	54
T_REC_ALL	555
T_NUM_TAP	440
T_NUM_BRK	5
T_NUM_HLD	56
T_NUM_SLD	54
T_NUM_ALL	555
T_JUDGE_TAP	445
T_JUDGE_HLD	300
T_JUDGE_SLD	54
T_JUDGE_ALL	799
TTM_EACHPAIRS	57
TTM_SCR_TAP	220000
TTM_SCR_BRK	13000
TTM_SCR_HLD	56000
TTM_SCR_SLD	81000
TTM_SCR_ALL	370000
TTM_SCR_S	358450
TTM_SCR_SS	369500
TTM_RAT_ACV	10013

