VERSION	0.00.00	1.03.00
FES_MODE	0
BPM_DEF	190.000	190.000	190.000	190.000
MET_DEF	4	4
RESOLUTION	384
CLK_DEF	384
COMPATIBLE_CODE	MA2

BPM	0	0	190.000
MET	0	0	4	4

TAP	1	0	1
TAP	1	96	1
TAP	1	192	2
TAP	1	288	2
TAP	2	0	3
TAP	2	96	3
TAP	2	192	4
TAP	3	0	6
TAP	3	96	6
TAP	3	192	5
TAP	3	288	5
TAP	4	0	4
TAP	4	96	4
TAP	4	192	3
TAP	4	192	4
HLD	5	0	1	192
HLD	5	192	2	192
HLD	6	0	3	192
TAP	6	192	4
HLD	7	0	4	96
HLD	7	0	5	96
HLD	7	192	2	96
HLD	7	192	3	96
HLD	8	0	1	192
HLD	8	0	6	192
BRK	8	288	0
BRK	8	288	7
TAP	9	0	1
TAP	9	96	2
TAP	9	192	3
TAP	9	192	4
TAP	9	288	3
TAP	9	288	4
TAP	10	0	5
TAP	10	96	5
TAP	10	192	4
TAP	10	192	6
TAP	11	0	6
TAP	11	96	5
TAP	11	192	3
TAP	11	192	4
TAP	11	288	3
TAP	11	288	4
TAP	12	0	2
TAP	12	96	2
TAP	12	192	1
TAP	12	192	3
TAP	13	0	0
TAP	13	96	1
TAP	13	192	2
TAP	13	192	3
TAP	13	288	2
TAP	13	288	3
TAP	14	0	4
TAP	14	96	3
TAP	14	192	2
TAP	14	192	5
TAP	15	0	2
TAP	15	96	3
TAP	15	192	5
TAP	15	288	4
TAP	16	0	3
TAP	16	0	4
TAP	16	96	3
TAP	16	96	4
XTP	16	192	2
XTP	16	192	5
TTP	17	0	2	B	0	L1
TTP	17	192	3	B	0	L1
TTP	18	0	4	B	0	L1
TTP	18	192	5	B	0	L1
TTP	19	0	6	B	0	L1
TTP	19	192	7	B	0	L1
TTP	20	0	0	C	0	L1
TTP	21	0	6	E	0	L1
TTP	21	192	5	E	0	L1
TTP	22	0	4	E	0	L1
TTP	22	192	3	E	0	L1
TTP	23	0	2	E	0	L1
TTP	23	192	1	E	0	L1
THO	24	0	0	192	C	0	L1
TTP	25	0	1	E	0	L1
TTP	25	96	0	B	0	L1
TTP	25	192	7	B	0	L1
TTP	26	0	5	B	0	L1
TTP	26	96	6	B	0	L1
TTP	26	192	7	E	0	L1
TTP	27	0	3	E	0	L1
TTP	27	96	3	B	0	L1
TTP	27	192	4	B	0	L1
TTP	28	0	2	B	0	L1
TTP	28	0	5	B	0	L1
TTP	28	192	1	E	0	L1
TTP	28	192	7	E	0	L1
TTP	29	0	1	B	0	L1
TTP	29	96	0	C	0	L1
TTP	29	192	5	B	0	L1
TTP	30	0	6	B	0	L1
TTP	30	96	0	C	0	L1
TTP	30	192	2	B	0	L1
TTP	31	0	2	E	0	L1
TTP	31	96	0	C	0	L1
TTP	31	192	6	E	0	L1
THO	32	0	0	384	C	1	L1
XTP	33	192	0
BRK	33	288	0
BRK	33	288	7
TAP	34	0	1
TAP	34	0	6
TAP	34	96	1
TAP	34	96	6
TAP	34	192	2
TAP	34	192	3
TAP	34	288	2
TAP	34	288	3
TAP	35	0	1
TAP	35	0	4
TAP	35	96	1
TAP	35	96	4
TAP	35	192	2
TAP	35	192	5
TAP	35	288	2
TAP	35	288	5
TAP	36	0	3
TAP	36	0	6
TAP	36	96	3
TAP	36	96	6
TAP	36	192	4
TAP	36	192	5
TAP	36	288	4
TAP	36	288	5
TAP	37	0	3
TAP	37	0	4
TAP	37	96	2
TAP	37	96	5
XTP	37	192	1
XTP	37	192	6
TAP	38	0	0
TAP	38	0	1
TAP	38	96	0
TAP	38	96	1
TAP	38	192	2
TAP	38	192	3
TAP	38	288	2
TAP	38	288	3
TAP	39	0	4
TAP	39	0	5
TAP	39	96	4
TAP	39	96	5
TAP	39	192	6
TAP	39	192	7
TAP	39	288	6
TAP	39	288	7
TAP	40	0	5
TAP	40	96	4
TAP	40	192	2
TAP	40	288	3
HLD	41	0	3	96
HLD	41	0	4	96
XTP	41	192	1
XTP	41	192	6
BRK	41	288	1
BRK	41	288	6
TAP	42	0	3
TAP	42	0	5
TAP	42	96	3
TAP	42	96	5
TAP	42	192	1
TAP	42	192	7
TAP	42	288	1
TAP	42	288	7
TAP	43	0	0
TAP	43	0	6
TAP	43	96	0
TAP	43	96	6
TAP	43	192	2
TAP	43	192	4
TAP	43	288	2
TAP	43	288	4
TAP	44	0	3
TAP	44	0	6
TAP	44	96	3
TAP	44	96	6
TAP	44	192	1
TAP	44	192	4
TAP	44	288	1
TAP	44	288	4
TAP	45	0	0
TAP	45	0	7
TAP	45	96	1
TAP	45	96	6
XTP	45	192	2
XTP	45	192	5
TAP	46	0	2
TAP	46	0	3
TAP	46	96	2
TAP	46	96	3
TAP	46	192	4
TAP	46	192	6
TAP	46	288	4
TAP	46	288	6
TAP	47	0	0
TAP	47	0	7
TAP	47	96	0
TAP	47	96	7
TAP	47	192	1
TAP	47	192	3
TAP	47	288	1
TAP	47	288	3
HLD	48	0	2	96
HLD	48	0	4	96
HLD	48	192	3	96
HLD	48	192	5	96
TAP	49	0	4
TAP	49	96	2
TAP	49	96	5
XTP	49	192	1
XTP	49	192	6
HLD	50	0	4	192
HLD	50	192	3	192
HLD	51	0	5	192
TAP	51	192	4
HLD	52	0	3	192
HLD	52	192	4	192
HLD	53	0	2	192
TAP	53	192	3
HLD	54	0	4	192
HLD	54	0	5	192
HLD	55	0	2	192
HLD	55	0	3	192
HLD	56	0	3	192
HLD	56	0	4	192
XTP	57	0	3
XTP	57	0	4
XTP	57	192	1
XTP	57	192	6
STR	58	0	0
SI_	58	0	0	96	192	4
TAP	59	0	5
TAP	59	96	5
TAP	59	192	4
TAP	59	192	5
STR	60	0	6
SI_	60	0	6	96	192	3
TAP	61	0	2
TAP	61	96	2
XTP	61	192	1
XTP	61	192	4
STR	62	0	5
SI_	62	0	5	96	144	7
STR	63	0	0
SI_	63	0	0	96	192	4
STR	64	0	5
SI_	64	0	5	96	192	2
TAP	65	0	1
TAP	65	96	1
TAP	65	192	0
BRK	65	288	0
STR	66	0	7
SCL	66	0	7	96	192	4
STR	67	0	3
SCL	67	0	3	96	192	0
STR	68	0	7
SI_	68	0	7	96	192	3
TAP	69	0	1
TAP	69	96	1
TAP	69	192	2
TAP	69	288	2
TAP	70	0	3
TAP	70	0	5
TAP	70	96	3
TAP	70	96	5
TAP	70	192	2
TAP	70	192	4
TAP	70	288	2
TAP	70	288	4
TAP	71	0	1
TAP	71	0	5
TAP	71	96	1
TAP	71	96	5
TAP	71	192	2
TAP	71	192	6
TAP	71	288	2
TAP	71	288	6
TAP	72	0	5
TAP	72	96	4
TAP	72	192	2
TAP	72	192	3
TAP	72	288	2
TAP	72	288	3
TAP	73	0	1
TAP	73	96	2
TAP	73	192	3
TAP	73	192	4
TAP	73	288	3
STR	73	288	4
SCR	73	288	4	96	480	2
BRK	75	288	1
BRK	75	288	6
TAP	76	0	2
TAP	76	96	1
TAP	76	96	3
TAP	76	192	6
TAP	76	288	5
TAP	76	288	7
TAP	77	0	0
TAP	77	0	1
TAP	77	96	2
TAP	77	96	7
TAP	77	192	3
TAP	77	192	6
TAP	77	288	5
TAP	77	336	5
TAP	78	0	5
TAP	78	96	3
TAP	78	144	3
TAP	78	192	3
TAP	78	288	6
TAP	78	336	6
TAP	79	0	6
TAP	79	96	6
TAP	79	96	7
BRK	79	192	0
BRK	79	192	5
TAP	80	0	1
TAP	80	0	3
TAP	80	96	2
TAP	80	192	4
TAP	80	192	6
TAP	80	288	5
TAP	81	0	4
TAP	81	48	4
TAP	81	96	4
TAP	81	192	3
TAP	81	192	5
TAP	81	288	2
TAP	81	336	2
TAP	82	0	2
TAP	82	96	3
TAP	82	96	4
TAP	82	192	4
TAP	82	192	5
TAP	82	288	6
XTP	82	336	6
XTP	83	48	6
XTP	83	48	7
XTP	83	144	0
XTP	83	144	1
XTP	83	240	2
XTP	83	240	7
TAP	84	0	1
TAP	84	96	0
TAP	84	96	2
TAP	84	192	5
TAP	84	288	4
TAP	84	288	6
TAP	85	0	2
TAP	85	0	3
TAP	85	96	1
TAP	85	96	4
TAP	85	192	0
TAP	85	192	5
TAP	85	288	6
TAP	85	336	6
TAP	86	0	6
TAP	86	96	0
TAP	86	144	0
TAP	86	192	0
TAP	86	288	7
TAP	86	336	7
TAP	87	0	7
TAP	87	96	0
TAP	87	96	6
BRK	87	192	1
BRK	87	192	5
TAP	88	0	3
TAP	88	48	3
TAP	88	96	3
TAP	88	192	6
TAP	88	240	6
TAP	88	288	6
TAP	89	0	4
TAP	89	0	5
TAP	89	96	2
TAP	89	96	3
BRK	89	192	1
BRK	89	192	6
TAP	89	288	1
TAP	89	288	6
TAP	90	0	5
TAP	90	48	5
TAP	90	96	4
TAP	90	192	2
TAP	90	240	2
TAP	90	288	3
TAP	91	0	3
TAP	91	0	4
TAP	91	48	3
TAP	91	48	4
TAP	91	96	3
TAP	91	96	4
TAP	91	192	2
TAP	91	192	5
TAP	91	288	1
TAP	91	288	6
BST	92	0	0
SCR	92	0	0	96	1344	6
BRK	92	0	7

T_REC_TAP	284
T_REC_BRK	16
T_REC_XTP	24
T_REC_HLD	27
T_REC_XHO	0
T_REC_STR	9
T_REC_BST	1
T_REC_XST	0
T_REC_TTP	35
T_REC_THO	2
T_REC_SLD	10
T_REC_ALL	408
T_NUM_TAP	352
T_NUM_BRK	17
T_NUM_HLD	29
T_NUM_SLD	10
T_NUM_ALL	408
T_JUDGE_TAP	369
T_JUDGE_HLD	100
T_JUDGE_SLD	10
T_JUDGE_ALL	479
TTM_EACHPAIRS	123
TTM_SCR_TAP	176000
TTM_SCR_BRK	44200
TTM_SCR_HLD	29000
TTM_SCR_SLD	15000
TTM_SCR_ALL	264200
TTM_SCR_S	254650
TTM_SCR_SS	262500
TTM_RAT_ACV	10064

