VERSION	0.00.00	1.03.00
FES_MODE	0
BPM_DEF	190.000	190.000	190.000	190.000
MET_DEF	4	4
RESOLUTION	384
CLK_DEF	384
COMPATIBLE_CODE	MA2

BPM	0	0	190.000
MET	0	0	4	4

TAP	5	0	3
TAP	6	0	3
TAP	7	0	4
TAP	7	192	4
TAP	8	0	3
TAP	8	0	4
TAP	9	0	4
TAP	9	192	4
TAP	10	0	4
TAP	11	0	5
TAP	11	192	5
TAP	12	0	5
TAP	13	0	6
TAP	13	192	6
TAP	14	0	6
TAP	15	0	7
TAP	15	192	7
TAP	16	0	0
BRK	16	192	0
STR	17	0	7
SI_	17	0	7	96	288	4
STR	19	0	0
SI_	19	0	0	96	288	3
STR	21	0	7
SI_	21	0	7	96	288	4
STR	23	0	0
SI_	23	0	0	96	288	3
TAP	25	0	7
TAP	25	192	7
TAP	26	0	6
TAP	26	192	6
TAP	27	0	5
TAP	27	192	5
XTP	28	0	4
XTP	28	96	4
XTP	28	192	4
TAP	29	0	3
TAP	29	192	3
TAP	30	0	2
TAP	30	192	2
TAP	31	0	1
TAP	31	192	1
TAP	32	0	0
TAP	32	96	0
TAP	32	192	0
BRK	33	0	0
BRK	33	0	7
TTP	34	0	0	B	0	L1
TTP	34	0	7	B	0	L1
TTP	35	0	3	B	0	L1
TTP	35	0	4	B	0	L1
TTP	36	0	0	B	0	L1
TTP	36	0	7	B	0	L1
TTP	37	0	3	B	0	L1
TTP	37	0	4	B	0	L1
TTP	38	0	0	B	0	L1
TTP	38	0	7	B	0	L1
TTP	39	0	3	B	0	L1
TTP	39	0	4	B	0	L1
TTP	40	0	0	B	0	L1
TTP	40	0	7	B	0	L1
TTP	41	0	0	C	1	L1
TTP	42	0	1	B	0	L1
TTP	42	0	2	B	0	L1
TTP	43	0	5	B	0	L1
TTP	43	0	6	B	0	L1
TTP	44	0	1	B	0	L1
TTP	44	0	2	B	0	L1
TTP	45	0	5	B	0	L1
TTP	45	0	6	B	0	L1
TTP	46	0	1	B	0	L1
TTP	46	0	2	B	0	L1
TTP	47	0	5	B	0	L1
TTP	47	0	6	B	0	L1
THO	48	0	0	384	C	0	L1
TAP	50	0	7
TAP	50	192	7
TAP	51	0	7
TAP	52	0	6
TAP	52	192	6
TAP	53	0	6
TAP	54	0	5
TAP	54	192	5
TAP	55	0	5
HLD	56	0	3	384
HLD	56	0	4	384
STR	58	0	3
SI_	58	0	3	96	288	0
STR	58	0	4
SI_	58	0	4	96	288	7
STR	60	0	2
SI_	60	0	2	96	288	7
STR	60	0	3
SI_	60	0	3	96	288	6
STR	62	0	4
SI_	62	0	4	96	288	1
STR	62	0	5
SI_	62	0	5	96	288	0
STR	64	0	3
SI_	64	0	3	96	288	0
STR	64	0	4
SI_	64	0	4	96	288	7
TAP	66	0	0
TAP	66	192	0
TAP	67	0	1
TAP	67	192	1
TAP	68	0	2
TAP	68	192	2
TAP	69	0	3
TAP	69	0	4
TTP	70	0	3	B	0	L1
TTP	70	0	4	B	0	L1
TTP	71	0	2	B	0	L1
TTP	71	0	5	B	0	L1
TTP	72	0	1	B	0	L1
TTP	72	0	6	B	0	L1
TTP	73	0	0	B	0	L1
TTP	73	0	7	B	0	L1
THO	74	0	0	384	C	1	L1
TAP	76	0	7
TAP	76	96	7
TAP	76	192	7
TAP	77	0	7
TAP	77	96	7
TAP	77	192	7
TAP	78	0	6
TAP	78	96	6
TAP	78	192	6
XTP	79	0	6
XTP	79	96	6
BRK	79	192	6
TAP	80	0	5
TAP	80	96	5
TAP	80	192	5
TAP	81	0	5
TAP	81	96	5
TAP	81	192	5
TAP	82	0	4
TAP	82	96	4
TAP	82	192	3
TAP	82	288	3
HLD	83	0	4	192
TAP	84	0	3
TAP	84	96	3
TAP	84	192	3
TAP	85	0	3
TAP	85	96	3
TAP	85	192	3
TAP	86	0	2
TAP	86	96	2
TAP	86	192	2
XTP	87	0	2
XTP	87	96	2
BRK	87	192	2
TAP	88	0	1
TAP	88	96	1
TAP	88	192	1
TAP	89	0	1
TAP	89	96	1
TAP	89	192	1
TAP	90	0	0
TAP	90	96	0
TAP	90	192	0
XTP	91	0	0
XTP	91	96	0
XTP	91	192	7
XTP	91	288	7
XHO	92	0	0	1440
XHO	92	0	7	1440

T_REC_TAP	87
T_REC_BRK	5
T_REC_XTP	11
T_REC_HLD	3
T_REC_XHO	2
T_REC_STR	12
T_REC_BST	0
T_REC_XST	0
T_REC_TTP	35
T_REC_THO	2
T_REC_SLD	12
T_REC_ALL	169
T_NUM_TAP	145
T_NUM_BRK	5
T_NUM_HLD	7
T_NUM_SLD	12
T_NUM_ALL	169
T_JUDGE_TAP	150
T_JUDGE_HLD	96
T_JUDGE_SLD	12
T_JUDGE_ALL	258
TTM_EACHPAIRS	9
TTM_SCR_TAP	72500
TTM_SCR_BRK	13000
TTM_SCR_HLD	7000
TTM_SCR_SLD	18000
TTM_SCR_ALL	110500
TTM_SCR_S	106700
TTM_SCR_SS	110000
TTM_RAT_ACV	10045

