VERSION	0.00.00	1.03.00
FES_MODE	0
BPM_DEF	230.000	230.000	230.000	230.000
MET_DEF	4	4
RESOLUTION	384
CLK_DEF	384
COMPATIBLE_CODE	MA2

BPM	0	0	230.000
MET	0	0	4	4

TTP	2	0	0	B	0	M1
TTP	2	0	0	C	0	M1
TTP	2	0	1	B	0	M1
TTP	2	0	4	B	0	M1
TTP	2	0	5	B	0	M1
TTP	4	0	0	C	0	M1
TTP	4	0	2	B	0	M1
TTP	4	0	3	B	0	M1
TTP	4	0	6	B	0	M1
TTP	4	0	7	B	0	M1
TTP	5	288	0	C	0	M1
TTP	6	0	1	B	0	M1
TTP	6	0	1	E	0	M1
TTP	6	0	2	E	0	M1
TTP	6	0	5	B	0	M1
TTP	6	0	5	E	0	M1
TTP	6	0	6	E	0	M1
TTP	7	288	0	C	0	M1
TTP	8	0	2	B	0	M1
TTP	8	0	2	E	0	M1
TTP	8	0	3	E	0	M1
TTP	8	0	6	B	0	M1
TTP	8	0	6	E	0	M1
TTP	8	0	7	E	0	M1
TTP	9	0	3	E	0	M1
TTP	9	0	5	E	0	M1
TTP	9	64	2	E	0	M1
TTP	9	64	6	E	0	M1
TTP	9	128	1	E	0	M1
TTP	9	128	7	E	0	M1
TTP	9	192	0	C	1	M1
STR	10	0	0
SI_	10	0	0	96	48	4
TAP	10	96	7
STR	10	144	7
SI_	10	144	7	96	48	3
TAP	10	240	0
TAP	10	288	0
HLD	11	0	0	64
HLD	11	64	1	64
TAP	11	128	2
HLD	11	192	6	64
HLD	11	256	5	64
TAP	11	320	4
STR	12	0	3
SI_	12	0	3	96	48	7
TAP	12	96	4
STR	12	144	4
SI_	12	144	4	96	48	0
TAP	12	240	3
TAP	12	288	3
TAP	13	0	1
TAP	13	0	7
TAP	13	64	2
TAP	13	64	6
TAP	13	128	3
TAP	13	128	5
STR	13	192	4
SI_	13	192	4	96	48	0
BRK	13	288	5
STR	14	0	7
SI_	14	0	7	96	48	3
TAP	14	96	0
STR	14	144	0
SI_	14	144	0	96	48	4
TAP	14	240	7
TAP	14	288	7
HLD	15	0	7	64
HLD	15	64	6	64
TAP	15	128	5
HLD	15	192	1	64
HLD	15	256	2	64
TAP	15	320	3
TAP	16	0	4
TAP	16	48	1
TAP	16	96	5
TAP	16	144	2
HLD	16	192	7	1152
STR	16	288	3
SCL	16	288	3	96	288	3
THO	18	0	0	384	C	0	M1
STR	20	0	7
SCL	20	0	7	96	576	0
TAP	20	288	0
TAP	21	0	0
TAP	21	96	7
TAP	21	192	7
STR	21	288	6
SUL	21	288	6	96	288	3
TAP	23	0	2
TAP	23	0	5
TAP	23	48	3
TAP	23	72	4
TAP	23	96	3
TAP	23	144	4
TAP	23	192	5
TAP	23	240	4
TAP	23	288	3
TAP	23	288	5
STR	24	0	2
SCL	24	0	2	96	96	7
STR	24	96	7
SCL	24	96	7	96	96	4
STR	24	192	4
SUL	24	192	4	96	144	2
TAP	24	288	0
TTP	25	96	7	E	0	M1
TTP	25	144	1	B	0	M1
TTP	25	192	6	E	0	M1
TTP	25	240	2	B	0	M1
TTP	25	288	5	E	0	M1
STR	26	0	5
SCR	26	0	5	96	96	0
STR	26	96	0
SCR	26	96	0	96	96	3
STR	26	192	3
SUR	26	192	3	96	144	5
TAP	26	288	7
TTP	27	96	0	B	0	M1
TTP	27	144	6	B	0	M1
TTP	27	192	2	B	0	M1
TTP	27	240	4	B	0	M1
STR	28	0	1
SCL	28	0	1	96	96	6
STR	28	96	6
SCL	28	96	6	96	96	3
STR	28	192	3
SUL	28	192	3	96	144	0
TAP	28	288	7
TTP	29	96	7	E	0	M1
TTP	29	144	1	B	0	M1
TTP	29	192	6	E	0	M1
TTP	29	240	2	B	0	M1
TTP	29	288	5	E	0	M1
STR	30	0	5
SUL	30	0	5	96	192	2
TAP	31	0	1
TAP	31	0	4
TAP	31	48	2
TAP	31	72	3
TAP	31	96	2
TAP	31	144	1
TAP	31	192	2
TAP	31	240	3
TAP	31	288	2
TAP	31	288	4
STR	32	0	5
SCR	32	0	5	96	96	0
STR	32	96	0
SCR	32	96	0	96	96	3
STR	32	192	3
SUR	32	192	3	96	144	5
TAP	32	288	7
TTP	33	96	1	E	0	M1
TTP	33	144	6	B	0	M1
TTP	33	192	2	E	0	M1
TTP	33	240	5	B	0	M1
TTP	33	288	3	E	0	M1
STR	34	0	2
SCL	34	0	2	96	96	7
STR	34	96	7
SCL	34	96	7	96	96	4
STR	34	192	4
SUL	34	192	4	96	144	2
TAP	34	288	0
TTP	35	96	7	B	0	M1
TTP	35	144	1	B	0	M1
TTP	35	192	5	B	0	M1
TTP	35	240	3	B	0	M1
STR	36	0	6
SCR	36	0	6	96	96	1
STR	36	96	1
SCR	36	96	1	96	96	4
STR	36	192	4
SUR	36	192	4	96	144	7
TAP	36	288	0
TTP	37	96	1	E	0	M1
TTP	37	144	6	B	0	M1
TTP	37	192	2	E	0	M1
TTP	37	240	5	B	0	M1
TTP	37	288	3	E	0	M1
TAP	38	0	3
TAP	38	0	4
TAP	38	96	5
TAP	38	96	6
TAP	38	192	0
TAP	38	192	7
STR	38	288	1
SXR	38	288	1	96	192	6
STR	38	288	2
SUR	38	288	2	96	192	5
HLD	40	0	1	192
TAP	40	0	4
TAP	40	96	7
HLD	40	192	3	192
TAP	40	288	0
HLD	41	0	4	192
TAP	41	96	7
HLD	41	192	5	192
TAP	41	288	0
HLD	42	0	4	192
TAP	42	96	7
HLD	42	192	3	192
TAP	42	288	0
HLD	43	0	2	192
TAP	43	96	7
TAP	43	192	4
TAP	43	288	3
TAP	43	288	5
TAP	44	0	4
HLD	44	0	6	192
TAP	44	96	7
HLD	44	192	3	192
TAP	44	288	0
HLD	45	0	4	192
TAP	45	96	7
HLD	45	192	1	192
TAP	45	288	0
STR	46	0	4
SCR	46	0	4	96	192	3
TAP	47	0	0
TAP	47	48	7
TAP	47	144	0
TAP	47	144	7
TAP	47	240	0
TAP	47	240	7
BRK	47	288	1
BRK	47	288	6
STR	48	0	1
SI_	48	0	1	96	48	4
TAP	48	48	0
TAP	48	96	1
STR	48	144	6
SI_	48	144	6	96	48	3
TAP	48	192	7
TAP	48	240	6
TAP	48	288	0
TTP	49	0	2	B	0	M1
TTP	49	0	3	E	0	M1
TAP	49	64	6
TAP	49	128	6
TTP	49	192	5	B	0	M1
TTP	49	192	5	E	0	M1
TAP	49	256	0
TAP	49	320	0
STR	50	0	7
SI_	50	0	7	96	48	3
TAP	50	48	0
TAP	50	96	7
STR	50	144	1
SI_	50	144	1	96	48	4
TAP	50	192	0
TAP	50	240	1
TAP	50	288	7
TAP	51	0	6
TAP	51	0	7
TAP	51	64	0
TAP	51	64	5
TAP	51	128	1
TAP	51	128	4
HLD	51	192	2	96
TAP	51	192	3
TTP	51	288	0	C	0	M1
STR	52	0	6
SI_	52	0	6	96	48	3
TAP	52	48	7
TAP	52	96	6
STR	52	144	1
SI_	52	144	1	96	48	4
TAP	52	192	0
TAP	52	240	1
TAP	52	288	7
TTP	53	0	5	E	0	M1
TTP	53	0	5	B	0	M1
TAP	53	64	1
TAP	53	128	1
TTP	53	192	2	B	0	M1
TTP	53	192	3	E	0	M1
TAP	53	256	7
TAP	53	320	7
STR	54	0	0
SI_	54	0	0	96	48	4
TAP	54	48	7
TAP	54	96	0
STR	54	144	6
SI_	54	144	6	96	48	3
TAP	54	192	7
TAP	54	240	6
TAP	54	288	0
HLD	55	0	1	64
HLD	55	64	5	64
HLD	55	128	3	64
TTP	55	192	0	C	1	M1
TTP	55	192	6	B	0	M1
TTP	55	192	7	B	0	M1
STR	56	0	2
SI_	56	0	2	96	48	7
TAP	56	48	3
TAP	56	96	2
STR	56	144	4
SI_	56	144	4	96	48	0
TAP	56	192	3
TAP	56	240	4
TAP	56	288	2
TTP	57	0	2	B	0	M1
TTP	57	0	3	E	0	M1
TTP	57	0	3	B	0	M1
TAP	57	64	7
TAP	57	128	7
TTP	57	192	5	B	0	M1
TTP	57	192	6	B	0	M1
TTP	57	192	6	E	0	M1
TAP	57	256	1
TAP	57	320	1
STR	58	0	6
SI_	58	0	6	96	48	1
TAP	58	48	2
TAP	58	96	6
STR	58	144	3
SI_	58	144	3	96	48	7
TAP	58	192	4
TAP	58	240	3
TAP	58	288	5
TAP	59	0	0
TAP	59	0	1
TAP	59	64	2
TAP	59	64	7
TAP	59	128	3
TAP	59	128	6
TAP	59	192	4
HLD	59	192	5	96
TTP	59	288	0	C	0	M1
STR	60	0	5
SI_	60	0	5	96	48	0
TAP	60	48	4
TAP	60	96	5
STR	60	144	3
SI_	60	144	3	96	48	7
TAP	60	192	4
TAP	60	240	3
TAP	60	288	6
TTP	61	0	4	B	0	M1
TTP	61	0	5	E	0	M1
TTP	61	0	5	B	0	M1
TAP	61	64	0
TAP	61	128	0
TTP	61	192	1	B	0	M1
TTP	61	192	2	B	0	M1
TTP	61	192	2	E	0	M1
TAP	61	256	6
TAP	61	320	6
TAP	62	0	3
TAP	62	0	7
TAP	62	48	2
TAP	62	48	6
TAP	62	96	1
TAP	62	96	5
TAP	62	144	0
TAP	62	144	4
STR	62	192	3
SI_	62	192	3	96	48	7
TAP	62	192	7
STR	62	288	3
SCL	62	288	3	96	240	4
TAP	64	0	1
TAP	64	48	0
TAP	64	96	1
TTP	64	144	7	E	0	M1
TAP	64	240	3
TAP	64	288	4
TAP	64	336	3
TAP	65	0	5
TAP	65	48	4
TAP	65	96	5
TTP	65	144	1	B	0	M1
TAP	65	240	7
TAP	65	288	0
TAP	65	336	6
HLD	66	0	6	96
TAP	66	96	4
HLD	66	144	4	96
TAP	66	240	0
HLD	66	288	0	96
TAP	67	0	2
HLD	67	48	2	96
TAP	67	144	4
HLD	67	192	4	96
TAP	67	288	5
TAP	68	0	6
TAP	68	48	7
TAP	68	96	6
TTP	68	144	1	E	0	M1
TAP	68	240	4
TAP	68	288	3
TAP	68	336	4
TAP	69	0	2
TAP	69	48	3
TAP	69	96	2
TTP	69	144	6	B	0	M1
TAP	69	240	0
TAP	69	288	7
TAP	69	336	1
HLD	70	0	1	96
TAP	70	96	3
HLD	70	144	3	96
TAP	70	240	7
HLD	70	288	7	96
TAP	71	0	5
HLD	71	48	5	96
TAP	71	144	3
HLD	71	192	3	96
TAP	71	288	2
STR	72	0	1
SUR	72	0	1	96	192	4
TAP	72	288	7
STR	73	0	7
SI_	73	0	7	96	48	3
STR	73	96	3
SF_	73	96	3	96	72	7
STR	74	0	5
SUL	74	0	5	96	192	3
TAP	74	288	0
STR	75	0	0
SI_	75	0	0	96	48	4
STR	75	96	4
SF_	75	96	4	96	72	0
HLD	76	0	2	288
HLD	76	0	3	96
HLD	76	192	7	288
HLD	77	0	5	288
HLD	77	192	3	384
HLD	78	0	4	192
TAP	78	288	3
TAP	78	336	4
TAP	79	0	3
TTP	80	0	2	B	0	M1
TTP	80	96	4	B	0	M1
TTP	80	192	3	B	0	M1
TTP	80	288	5	B	0	M1
TTP	81	0	1	B	0	M1
TTP	81	96	7	E	0	M1
TTP	81	192	0	C	0	M1
TTP	81	288	5	E	0	M1
TTP	82	0	3	E	0	M1
TTP	82	96	6	E	0	M1
TTP	82	192	1	E	0	M1
TTP	82	288	0	C	0	M1
TTP	83	0	0	B	0	M1
TTP	83	96	5	E	0	M1
TTP	83	192	3	B	0	M1
TTP	83	288	6	E	0	M1
TTP	84	0	2	B	0	M1
TTP	84	96	4	B	0	M1
TTP	84	192	0	C	0	M1
TTP	84	288	7	E	0	M1
TTP	85	0	1	E	0	M1
TTP	85	96	5	B	0	M1
TTP	85	192	3	E	0	M1
TTP	85	288	0	E	0	M1
THO	86	0	0	576	C	0	M1
TTP	87	0	7	E	0	M1
TTP	87	64	6	B	0	M1
TTP	87	128	5	B	0	M1
TTP	87	192	5	E	0	M1
TAP	88	0	6
TAP	88	0	7
TAP	88	96	4
TAP	88	96	6
TAP	88	168	5
TAP	88	192	4
TAP	88	240	4
TAP	88	288	3
TAP	88	288	6
TAP	89	0	2
TAP	89	48	3
TAP	89	96	2
TAP	89	144	1
TAP	89	192	2
TTP	89	288	0	C	0	M1
TAP	90	0	0
TAP	90	0	1
TAP	90	96	1
TAP	90	96	3
TAP	90	168	2
TAP	90	192	3
TAP	90	240	3
TAP	90	288	1
TAP	90	288	4
HLD	91	0	2	64
HLD	91	64	3	64
HLD	91	128	4	64
TAP	91	192	5
TTP	91	288	0	C	0	M1
TAP	92	0	6
TAP	92	0	7
TAP	92	96	4
TAP	92	96	6
TAP	92	168	5
TAP	92	192	4
TAP	92	240	4
TAP	92	288	3
TAP	92	288	6
HLD	93	0	4	64
TAP	93	0	5
HLD	93	64	3	64
HLD	93	128	2	64
HLD	93	192	3	64
HLD	93	256	4	64
TAP	93	320	5
TAP	94	0	3
TAP	94	0	7
TAP	94	48	3
TAP	94	48	7
TAP	94	96	2
TAP	94	96	6
TAP	94	144	2
TAP	94	144	6
TAP	94	192	1
HLD	94	192	5	96
STR	94	288	1
SCL	94	288	1	96	192	2
TTP	95	0	0	C	1	M1
STR	96	0	1
SI_	96	0	1	96	48	5
TAP	96	48	7
TAP	96	96	1
STR	96	144	3
SI_	96	144	3	96	48	7
TAP	96	192	2
TAP	96	240	3
TAP	96	288	1
TTP	97	0	2	B	0	M1
TTP	97	0	2	E	0	M1
TTP	97	0	3	B	0	M1
TAP	97	64	0
TAP	97	128	7
TTP	97	192	4	B	0	M1
TTP	97	192	5	B	0	M1
TTP	97	192	6	E	0	M1
TAP	97	256	7
TAP	97	320	0
STR	98	0	1
SI_	98	0	1	96	32	4
TAP	98	48	2
TAP	98	96	1
STR	98	144	6
SI_	98	144	6	96	48	3
TAP	98	192	5
TAP	98	240	6
TAP	98	288	0
TAP	99	0	0
TAP	99	0	1
TAP	99	64	2
TAP	99	64	7
TAP	99	128	3
TAP	99	128	6
STR	99	192	4
SI_	99	192	4	96	48	0
STR	99	192	5
SI_	99	192	5	96	48	0
STR	100	0	6
SI_	100	0	6	96	48	2
TAP	100	48	0
TAP	100	96	6
STR	100	144	4
SI_	100	144	4	96	48	0
TAP	100	192	5
TAP	100	240	4
TAP	100	288	6
TTP	101	0	4	B	0	M1
TTP	101	0	5	B	0	M1
TTP	101	0	6	E	0	M1
TAP	101	64	7
TAP	101	128	0
TTP	101	192	2	B	0	M1
TTP	101	192	2	E	0	M1
TTP	101	192	3	B	0	M1
TAP	101	256	0
TAP	101	320	7
STR	102	0	6
SI_	102	0	6	96	48	2
TAP	102	48	2
TAP	102	96	6
STR	102	144	0
SI_	102	144	0	96	48	4
TAP	102	192	4
TAP	102	240	0
TAP	102	288	7
TTP	103	0	6	B	0	M1
TTP	103	0	7	B	0	M1
TTP	103	0	7	E	0	M1
TTP	103	64	2	B	0	M1
TTP	103	64	3	B	0	M1
TTP	103	64	3	E	0	M1
TTP	103	128	4	B	0	M1
TTP	103	128	5	E	0	M1
TTP	103	128	5	B	0	M1
TTP	103	192	0	B	0	M1
TTP	103	192	0	C	1	M1
TTP	103	192	1	B	0	M1
TTP	103	192	1	E	0	M1
STR	104	0	5
SCR	104	0	5	96	48	0
TAP	104	48	3
TAP	104	96	5
STR	104	144	2
SUL	104	144	2	96	48	6
STR	104	192	4
SI_	104	192	4	96	48	0
TAP	104	240	2
TAP	104	288	4
TTP	105	0	1	B	0	M1
TTP	105	0	2	E	0	M1
TTP	105	0	2	B	0	M1
TTP	105	64	5	B	0	M1
TTP	105	64	6	B	0	M1
TTP	105	64	6	E	0	M1
TTP	105	128	3	B	0	M1
TTP	105	128	4	E	0	M1
TTP	105	128	4	B	0	M1
TTP	105	192	0	B	0	M1
TTP	105	192	0	E	0	M1
TTP	105	192	7	B	0	M1
TTP	105	256	1	B	0	M1
TTP	105	256	2	B	0	M1
TTP	105	256	2	E	0	M1
TTP	105	320	5	B	0	M1
TTP	105	320	6	E	0	M1
TTP	105	320	6	B	0	M1
STR	106	0	2
SCL	106	0	2	96	48	7
TAP	106	48	4
TAP	106	96	2
STR	106	144	5
SUR	106	144	5	96	48	1
STR	106	192	3
SI_	106	192	3	96	48	7
TAP	106	240	5
TAP	106	288	3
TAP	107	0	0
TAP	107	0	1
TAP	107	64	2
TAP	107	64	7
TAP	107	128	3
TAP	107	128	6
STR	107	192	4
SI_	107	192	4	96	48	0
STR	107	192	5
SI_	107	192	5	96	48	0
STR	108	0	1
SCR	108	0	1	96	48	4
TAP	108	48	7
TAP	108	96	1
STR	108	144	6
SI_	108	144	6	96	48	2
STR	108	192	7
SI_	108	192	7	96	48	3
TAP	108	240	6
TAP	108	288	7
TTP	109	0	5	B	0	M1
TTP	109	0	6	E	0	M1
TTP	109	0	6	B	0	M1
TTP	109	64	1	B	0	M1
TTP	109	64	2	E	0	M1
TTP	109	64	2	B	0	M1
TTP	109	128	3	B	0	M1
TTP	109	128	4	E	0	M1
TTP	109	128	4	B	0	M1
TTP	109	192	0	B	0	M1
TTP	109	192	0	E	0	M1
TTP	109	192	7	B	0	M1
TTP	109	256	5	B	0	M1
TTP	109	256	6	E	0	M1
TTP	109	256	6	B	0	M1
TTP	109	320	1	B	0	M1
TTP	109	320	2	B	0	M1
TTP	109	320	2	E	0	M1
STR	110	0	7
SI_	110	0	7	96	48	3
STR	110	48	1
SI_	110	48	1	96	48	5
TAP	110	96	7
TAP	110	144	1
TAP	110	192	4
STR	110	288	4
SCR	110	288	4	96	288	3
TTP	111	0	0	C	1	M1
TAP	112	0	2
TTP	113	0	5	B	0	M1
TTP	113	192	3	B	0	M1
TAP	114	0	4
TTP	115	0	2	B	0	M1
TTP	115	192	4	B	0	M1
TAP	116	0	3
TTP	117	0	5	B	0	M1
TTP	117	192	3	B	0	M1
XTP	118	0	7
STR	118	48	7
SI_	118	48	7	96	48	2
XTP	118	96	7
XTP	118	144	1
STR	118	192	1
SI_	118	192	1	96	48	6
XTP	118	240	1
XTP	118	288	5
STR	118	336	5
SI_	118	336	5	96	48	0
XTP	119	0	5
XTP	119	48	3
STR	119	96	3
SI_	119	96	3	96	48	7
XTP	119	144	3
XTP	119	192	4
BRK	119	288	1
BRK	119	288	5
HLD	120	0	2	96
TAP	120	96	3
TAP	120	144	3
TAP	120	192	4
HLD	120	240	4	96
HLD	120	336	6	96
TAP	121	48	5
STR	121	96	5
SCR	121	96	5	96	1536	4
TTP	121	192	0	C	1	M1
STR	125	240	7
SI_	125	240	7	96	48	3
TAP	125	288	7

T_REC_TAP	301
T_REC_BRK	5
T_REC_XTP	9
T_REC_HLD	53
T_REC_XHO	0
T_REC_STR	85
T_REC_BST	0
T_REC_XST	0
T_REC_TTP	188
T_REC_THO	2
T_REC_SLD	85
T_REC_ALL	728
T_NUM_TAP	583
T_NUM_BRK	5
T_NUM_HLD	55
T_NUM_SLD	85
T_NUM_ALL	728
T_JUDGE_TAP	588
T_JUDGE_HLD	190
T_JUDGE_SLD	85
T_JUDGE_ALL	863
TTM_EACHPAIRS	55
TTM_SCR_TAP	291500
TTM_SCR_BRK	13000
TTM_SCR_HLD	55000
TTM_SCR_SLD	127500
TTM_SCR_ALL	487000
TTM_SCR_S	471950
TTM_SCR_SS	486500
TTM_RAT_ACV	10010

