VERSION	0.00.00	1.03.00
FES_MODE	0
BPM_DEF	230.000	230.000	230.000	230.000
MET_DEF	4	4
RESOLUTION	384
CLK_DEF	384
COMPATIBLE_CODE	MA2

BPM	0	0	230.000
MET	0	0	4	4

HLD	2	0	3	576
HLD	2	0	5	576
HLD	4	0	2	576
HLD	4	0	4	576
TAP	5	288	4
HLD	6	0	3	576
HLD	6	0	4	576
TAP	7	288	3
TAP	7	288	4
HLD	8	0	2	384
HLD	8	0	5	384
BRK	9	192	1
BRK	9	192	6
TAP	10	0	0
TAP	10	0	6
TAP	10	96	7
TAP	10	192	0
STR	10	192	1
SI_	10	192	1	96	96	4
XTP	11	0	7
XTP	11	64	7
XTP	11	128	7
XTP	11	192	0
XTP	11	192	6
TAP	12	0	6
TAP	12	96	4
TAP	12	192	3
TAP	12	288	1
XTP	13	0	0
XTP	13	64	0
XTP	13	128	7
XTP	13	192	1
XTP	13	192	6
TAP	14	0	1
TAP	14	0	7
TAP	14	96	0
STR	14	192	6
SI_	14	192	6	96	96	3
TAP	14	192	7
XTP	15	0	0
XTP	15	64	0
XTP	15	128	0
XTP	15	192	1
XTP	15	192	7
TAP	16	0	4
TAP	16	96	3
TAP	16	192	2
TAP	16	288	1
STR	17	0	0
SCR	17	0	0	96	288	5
SV_	17	0	0	96	288	5
THO	20	0	0	1152	C	1	M1
TTP	21	0	0	E	0	M1
TTP	22	0	0	B	0	M1
TAP	24	0	2
TAP	24	0	4
TAP	24	96	5
TAP	24	192	4
HLD	24	288	6	288
TAP	25	96	4
TAP	25	192	4
TAP	26	0	3
TAP	26	0	5
TAP	26	96	2
TAP	26	192	3
HLD	26	288	1	288
TAP	27	96	3
TAP	27	192	3
TAP	28	0	2
TAP	28	0	4
TAP	28	96	5
TAP	28	192	4
HLD	28	288	6	288
TAP	29	96	4
TAP	29	192	4
TAP	29	288	7
TAP	30	0	1
STR	30	0	6
SUL	30	0	6	96	288	4
TAP	31	192	2
TAP	31	192	5
TAP	32	0	0
TAP	32	0	6
TAP	32	96	1
TAP	32	192	0
HLD	32	288	2	288
TAP	33	96	0
TAP	33	192	0
TAP	34	0	1
TAP	34	0	7
TAP	34	96	6
TAP	34	192	7
HLD	34	288	5	288
TAP	35	96	7
TAP	35	192	7
TAP	36	0	0
TAP	36	0	6
TAP	36	96	1
TAP	36	192	0
HLD	36	288	2	288
TAP	37	96	0
TAP	37	192	0
XTP	38	0	2
XTP	38	0	3
XTP	38	96	1
XTP	38	96	4
XTP	38	192	0
XTP	38	192	5
XST	38	288	6
SUR	38	288	6	96	240	3
XST	38	288	7
SCR	38	288	7	96	240	2
HLD	40	0	2	1152
TAP	40	0	3
TTP	40	192	5	E	0	M1
TTP	41	0	6	B	0	M1
TTP	41	192	3	E	0	M1
TTP	42	0	1	B	0	M1
TTP	42	192	4	E	0	M1
TTP	43	0	0	C	0	M1
TAP	43	192	1
TAP	43	192	6
TAP	44	0	4
HLD	44	0	5	960
TTP	44	192	3	E	0	M1
TTP	45	0	1	B	0	M1
TTP	45	192	5	E	0	M1
TTP	46	0	6	B	0	M1
TTP	46	192	4	E	0	M1
TTP	47	0	0	C	1	M1
TTP	47	0	2	B	0	M1
TTP	47	0	3	B	0	M1
TTP	47	0	4	B	0	M1
TTP	47	0	5	B	0	M1
TAP	48	0	2
TAP	48	0	4
TAP	48	96	0
STR	48	192	1
SI_	48	192	1	96	96	5
TAP	48	192	7
TAP	49	0	6
TAP	49	64	6
TAP	49	128	6
XTP	49	192	1
XTP	49	192	5
HLD	50	0	0	96
HLD	50	96	2	96
STR	50	192	3
SI_	50	192	3	96	96	0
TAP	51	0	7
TAP	51	64	7
TAP	51	128	7
XTP	51	192	0
XTP	51	192	6
TAP	52	0	3
TAP	52	0	5
TAP	52	96	7
TAP	52	192	0
STR	52	192	6
SI_	52	192	6	96	96	2
TAP	53	0	1
TAP	53	64	1
TAP	53	128	1
XTP	53	192	2
XTP	53	192	6
STR	54	0	1
SI_	54	0	1	96	96	5
STR	54	192	6
SI_	54	192	6	96	96	2
TAP	55	0	0
TAP	55	64	0
TAP	55	128	7
BRK	55	192	1
BRK	55	192	6
TAP	56	0	3
TAP	56	0	5
TAP	56	96	7
TAP	56	192	0
STR	56	192	6
SI_	56	192	6	96	96	2
TAP	57	0	1
TAP	57	64	1
TAP	57	128	1
XTP	57	192	2
XTP	57	192	6
HLD	58	0	7	96
HLD	58	96	5	96
STR	58	192	4
SI_	58	192	4	96	96	7
TAP	59	0	0
TAP	59	64	0
TAP	59	128	0
XTP	59	192	1
XTP	59	192	7
TAP	60	0	2
TAP	60	0	4
TAP	60	96	0
STR	60	192	1
SI_	60	192	1	96	96	5
TAP	60	192	7
TAP	61	0	6
TAP	61	64	6
TAP	61	128	6
XTP	61	192	1
XTP	61	192	5
STR	62	0	4
SI_	62	0	4	96	96	7
TAP	62	192	3
STR	62	288	3
SCL	62	288	3	96	192	5
TAP	64	0	5
TAP	64	96	3
TAP	64	192	2
TAP	64	288	2
TAP	64	288	3
TAP	65	0	2
TAP	65	96	4
TAP	65	192	5
TAP	65	288	4
TAP	65	288	5
TAP	66	0	5
TAP	66	96	6
TAP	66	192	7
TAP	66	288	0
TAP	67	0	1
TAP	67	96	2
TAP	67	192	3
TAP	67	288	3
TAP	67	288	4
TAP	68	0	2
TAP	68	96	4
TAP	68	192	5
TAP	68	288	4
TAP	68	288	6
TAP	69	0	5
TAP	69	96	3
TAP	69	192	2
TAP	69	288	1
TAP	69	288	3
TAP	70	0	2
TAP	70	96	1
TAP	70	192	0
TAP	70	288	7
TAP	71	0	6
TAP	71	96	5
TAP	71	192	4
TAP	71	288	3
TAP	71	288	4
HLD	72	0	3	576
STR	72	0	4
SXL	72	0	4	96	480	7
HLD	74	0	6	576
STR	74	0	7
SXL	74	0	7	96	480	2
HLD	76	0	4	576
STR	76	0	5
SXL	76	0	5	96	480	0
STR	78	0	1
SI_	78	0	1	96	144	4
STR	78	0	7
SI_	78	0	7	96	144	4
BRK	79	0	2
BRK	79	0	6
TTP	80	0	0	E	0	M1
TTP	80	192	0	C	0	M1
TTP	81	0	4	E	0	M1
TTP	81	192	2	E	0	M1
TTP	81	192	6	E	0	M1
TTP	82	0	4	E	0	M1
TTP	82	192	0	C	0	M1
TTP	83	0	0	E	0	M1
TTP	83	192	2	E	0	M1
TTP	83	192	6	E	0	M1
TTP	84	0	1	E	0	M1
TTP	84	192	7	E	0	M1
TTP	85	0	3	E	0	M1
TTP	85	192	5	E	0	M1
THO	86	0	0	384	C	0	M1
TAP	88	0	3
HLD	88	0	5	576
TAP	88	96	3
TAP	88	192	4
TAP	89	0	4
TAP	89	96	3
TAP	89	192	2
HLD	90	0	2	576
TAP	90	0	4
TAP	90	96	4
TAP	90	192	3
TAP	91	0	3
TAP	91	96	4
TAP	91	192	5
TAP	92	0	3
HLD	92	0	6	576
TAP	92	96	3
TAP	92	192	4
TAP	93	0	4
TAP	93	96	3
TAP	93	192	2
HLD	94	0	1	192
TAP	94	0	4
TAP	94	96	4
TAP	94	192	3
TTP	95	0	0	C	1	M1
TTP	95	0	1	B	0	M1
TTP	95	0	6	B	0	M1
TAP	96	0	0
TAP	96	0	6
TAP	96	96	1
STR	96	192	2
SI_	96	192	2	96	96	7
TAP	96	192	3
TAP	97	0	5
TAP	97	64	5
TAP	97	128	5
XTP	97	192	4
XTP	97	192	6
HLD	98	0	3	96
HLD	98	96	2	96
STR	98	192	0
SI_	98	192	0	96	96	4
TAP	99	0	6
TAP	99	64	6
TAP	99	128	7
XTP	99	192	0
XTP	99	192	5
TAP	100	0	1
TAP	100	0	7
TAP	100	96	6
TAP	100	192	4
STR	100	192	5
SI_	100	192	5	96	96	0
TAP	101	0	2
TAP	101	64	2
TAP	101	128	2
XTP	101	192	1
XTP	101	192	3
STR	102	0	5
SI_	102	0	5	96	96	0
STR	102	192	2
SI_	102	192	2	96	96	7
TAP	103	0	4
TAP	103	64	4
TAP	103	128	3
XTP	103	192	2
XTP	103	192	5
TAP	104	0	1
TAP	104	0	7
TAP	104	96	6
TAP	104	192	4
STR	104	192	5
SI_	104	192	5	96	96	0
TAP	105	0	2
TAP	105	64	2
TAP	105	128	2
XTP	105	192	1
XTP	105	192	3
HLD	106	0	4	96
HLD	106	96	5	96
STR	106	192	7
SI_	106	192	7	96	96	3
TAP	107	0	1
TAP	107	64	1
TAP	107	128	0
XTP	107	192	2
XTP	107	192	7
TAP	108	0	0
TAP	108	0	6
TAP	108	96	1
STR	108	192	2
SI_	108	192	2	96	96	7
TAP	108	192	3
TAP	109	0	5
TAP	109	64	5
TAP	109	128	5
XTP	109	192	4
XTP	109	192	6
STR	110	0	7
SI_	110	0	7	96	96	3
TAP	110	192	0
STR	110	288	0
SCR	110	288	0	96	240	7
TAP	112	0	1
TAP	112	0	6
TAP	112	288	2
HLD	113	0	4	288
TAP	113	288	3
TAP	114	0	5
TAP	114	288	5
HLD	115	0	3	288
TAP	115	288	4
TAP	116	0	2
TAP	116	288	2
HLD	117	0	4	288
TAP	117	288	3
TAP	118	0	1
TAP	118	0	3
TAP	118	48	1
TAP	118	48	3
TAP	118	144	2
TAP	118	144	4
TAP	118	192	2
TAP	118	192	4
TAP	118	288	3
TAP	118	288	5
TAP	118	336	3
TAP	118	336	5
TAP	119	48	4
TAP	119	48	6
TAP	119	96	4
TAP	119	96	6
TAP	119	192	0
TAP	119	192	7
BRK	119	288	1
BRK	119	288	6
TAP	120	0	2
TAP	120	48	2
TAP	120	96	4
TAP	120	144	4
TAP	120	192	3
TAP	120	240	3
TAP	120	336	2
TAP	120	336	5
TAP	121	48	4
HLD	121	96	4	1680
THO	121	192	0	1632	C	0	M1

T_REC_TAP	235
T_REC_BRK	8
T_REC_XTP	47
T_REC_HLD	35
T_REC_XHO	0
T_REC_STR	29
T_REC_BST	0
T_REC_XST	2
T_REC_TTP	35
T_REC_THO	3
T_REC_SLD	32
T_REC_ALL	426
T_NUM_TAP	348
T_NUM_BRK	8
T_NUM_HLD	38
T_NUM_SLD	32
T_NUM_ALL	426
T_JUDGE_TAP	356
T_JUDGE_HLD	379
T_JUDGE_SLD	32
T_JUDGE_ALL	767
TTM_EACHPAIRS	85
TTM_SCR_TAP	174000
TTM_SCR_BRK	20800
TTM_SCR_HLD	38000
TTM_SCR_SLD	48000
TTM_SCR_ALL	280800
TTM_SCR_S	271600
TTM_SCR_SS	280000
TTM_RAT_ACV	10028

