VERSION	0.00.00	1.03.00
FES_MODE	0
BPM_DEF	230.000	230.000	230.000	230.000
MET_DEF	4	4
RESOLUTION	384
CLK_DEF	384
COMPATIBLE_CODE	MA2

BPM	0	0	230.000
MET	0	0	4	4

HLD	2	0	4	384
HLD	2	0	5	384
HLD	4	0	2	384
HLD	4	0	3	384
HLD	6	0	3	384
HLD	6	0	4	384
HLD	8	0	1	384
HLD	8	0	6	384
TAP	10	0	1
TAP	10	96	1
TAP	10	192	1
TAP	11	0	0
TAP	11	96	0
TAP	11	192	0
TAP	12	0	7
TAP	12	96	7
TAP	12	192	7
XTP	13	0	7
XTP	13	192	0
XTP	13	192	6
TAP	14	0	6
TAP	14	96	6
TAP	14	192	6
TAP	15	0	7
TAP	15	96	7
TAP	15	192	7
TAP	16	0	0
TAP	16	96	0
TAP	16	192	0
XTP	17	0	0
XTP	17	0	7
XTP	17	192	0
XTP	17	192	7
XHO	18	0	1	384
XHO	18	0	6	384
THO	20	0	0	1152	C	1	L1
HLD	24	0	5	192
TAP	24	192	4
TAP	25	0	3
TAP	25	96	3
TAP	25	192	3
HLD	26	0	2	192
TAP	26	192	3
TAP	27	0	4
TAP	27	96	4
XTP	27	192	3
XTP	27	192	4
HLD	28	0	2	192
TAP	28	192	3
TAP	29	0	4
TAP	29	96	4
TAP	29	192	4
HLD	30	0	4	192
TAP	30	192	3
XTP	31	0	2
XTP	31	0	5
HLD	32	0	2	192
TAP	32	192	3
TAP	33	0	4
TAP	33	96	4
TAP	33	192	4
HLD	34	0	5	192
TAP	34	192	4
TAP	35	0	3
TAP	35	96	3
XTP	35	192	3
XTP	35	192	4
TAP	36	0	2
TAP	36	96	2
TAP	36	192	2
TAP	37	0	1
TAP	37	96	1
TAP	37	192	1
TAP	38	0	0
TAP	38	96	0
TAP	38	192	0
BRK	39	0	1
BRK	39	0	6
STR	40	0	7
SI_	40	0	7	96	480	4
STR	42	0	3
SI_	42	0	3	96	480	0
STR	44	0	7
SCL	44	0	7	96	480	4
TAP	46	0	3
XTP	46	192	3
XTP	46	192	4
BRK	47	0	2
BRK	47	0	5
TAP	48	0	1
TAP	48	96	1
TAP	48	192	0
TAP	48	288	0
TAP	49	0	7
TAP	49	96	7
TAP	49	192	6
TAP	49	288	6
TAP	50	0	5
TAP	50	96	5
TAP	50	192	4
TAP	50	288	4
TAP	51	0	3
XTP	51	192	2
XTP	51	192	5
TAP	52	0	2
TAP	52	96	2
XTP	52	192	3
XTP	52	192	4
TAP	53	0	5
TAP	53	96	5
XTP	53	192	3
XTP	53	192	4
TAP	54	0	2
TAP	54	96	2
TAP	54	192	1
TAP	54	288	1
TAP	55	0	0
BRK	55	192	1
BRK	55	192	6
TAP	56	0	6
TAP	56	96	6
TAP	56	192	7
TAP	56	288	7
TAP	57	0	0
TAP	57	96	0
TAP	57	192	1
TAP	57	288	1
TAP	58	0	2
TAP	58	96	2
TAP	58	192	3
TAP	58	288	3
TAP	59	0	4
XTP	59	192	2
XTP	59	192	5
TAP	60	0	5
TAP	60	96	5
XTP	60	192	3
XTP	60	192	4
TAP	61	0	2
TAP	61	96	2
XTP	61	192	3
XTP	61	192	4
XTP	62	0	3
XTP	62	0	4
XTP	62	192	2
XTP	62	192	5
BRK	63	0	1
BRK	63	0	6
STR	64	0	0
SI_	64	0	0	96	480	5
STR	64	0	1
SI_	64	0	1	96	480	4
STR	66	0	6
SI_	66	0	6	96	480	3
STR	66	0	7
SI_	66	0	7	96	480	2
TAP	68	0	1
TAP	68	192	1
TAP	69	0	0
TAP	69	192	0
STR	70	0	0
SI_	70	0	0	96	480	4
STR	70	0	7
SI_	70	0	7	96	480	3
HLD	72	0	2	768
HLD	74	0	3	768
HLD	76	0	4	768
TAP	78	0	5
XTP	79	0	3
XTP	79	0	4
TTP	80	0	5	B	0	L1
TTP	81	0	3	B	0	L1
TTP	82	0	1	B	0	L1
TTP	83	0	0	C	0	L1
TTP	84	0	6	B	0	L1
TTP	85	0	4	B	0	L1
THO	86	0	0	384	C	0	L1
HLD	88	0	0	384
TAP	89	0	7
TAP	89	192	7
HLD	90	0	6	384
TAP	91	0	0
TAP	91	192	0
HLD	92	0	1	384
TAP	93	0	7
TAP	93	192	7
TAP	94	0	0
TAP	94	0	7
TAP	94	192	0
TAP	94	192	7
BRK	95	0	1
BRK	95	0	6
TAP	96	0	6
TAP	96	96	6
TAP	96	192	0
TAP	96	288	0
TAP	97	0	7
TAP	97	96	7
TAP	97	192	1
TAP	97	288	1
TAP	98	0	2
TAP	98	96	2
TAP	98	192	3
TAP	98	288	3
XTP	99	0	3
XTP	99	0	4
XTP	99	192	2
XTP	99	192	5
TAP	100	0	5
TAP	100	96	5
XTP	100	192	3
XTP	100	192	4
TAP	101	0	2
TAP	101	96	2
XTP	101	192	3
XTP	101	192	4
TAP	102	0	5
TAP	102	96	5
TAP	102	192	6
TAP	102	288	6
XTP	103	0	0
XTP	103	0	7
BRK	103	192	1
BRK	103	192	6
TAP	104	0	1
TAP	104	96	1
TAP	104	192	7
TAP	104	288	7
TAP	105	0	0
TAP	105	96	0
TAP	105	192	6
TAP	105	288	6
TAP	106	0	5
TAP	106	96	5
TAP	106	192	4
TAP	106	288	4
XTP	107	0	3
XTP	107	0	4
XTP	107	192	2
XTP	107	192	5
TAP	108	0	2
TAP	108	96	2
XTP	108	192	3
XTP	108	192	4
TAP	109	0	5
TAP	109	96	5
XTP	109	192	3
XTP	109	192	4
XTP	110	0	3
XTP	110	0	4
XTP	110	96	3
XTP	110	96	4
XTP	110	192	2
XTP	110	192	5
XTP	110	288	2
XTP	110	288	5
BRK	111	0	1
BRK	111	0	6
TTP	112	0	5	B	0	L1
TTP	114	0	3	B	0	L1
TTP	116	0	1	B	0	L1
TTP	118	0	0	C	1	L1
TAP	120	0	0
TAP	120	96	0
TAP	120	192	0
TAP	121	0	0
TAP	121	0	7
TAP	121	192	1
STR	121	192	6
SCL	121	192	6	96	1536	7

T_REC_TAP	143
T_REC_BRK	14
T_REC_XTP	59
T_REC_HLD	20
T_REC_XHO	2
T_REC_STR	10
T_REC_BST	0
T_REC_XST	0
T_REC_TTP	10
T_REC_THO	2
T_REC_SLD	10
T_REC_ALL	270
T_NUM_TAP	222
T_NUM_BRK	14
T_NUM_HLD	24
T_NUM_SLD	10
T_NUM_ALL	270
T_JUDGE_TAP	236
T_JUDGE_HLD	208
T_JUDGE_SLD	10
T_JUDGE_ALL	454
TTM_EACHPAIRS	48
TTM_SCR_TAP	111000
TTM_SCR_BRK	36400
TTM_SCR_HLD	24000
TTM_SCR_SLD	15000
TTM_SCR_ALL	186400
TTM_SCR_S	179450
TTM_SCR_SS	185000
TTM_RAT_ACV	10075

