VERSION	0.00.00	1.03.00
FES_MODE	0
BPM_DEF	230.000	230.000	230.000	230.000
MET_DEF	4	4
RESOLUTION	384
CLK_DEF	384
COMPATIBLE_CODE	MA2

BPM	0	0	230.000
MET	0	0	4	4

TAP	10	0	3
TAP	11	0	3
TAP	12	0	2
TAP	13	0	2
TAP	14	0	1
TAP	15	0	1
HLD	16	0	0	384
BRK	18	0	0
BRK	18	0	7
STR	20	0	7
SI_	20	0	7	96	672	3
TAP	24	0	4
TAP	24	192	4
TAP	25	0	4
TAP	26	0	5
TAP	26	192	5
TAP	27	0	5
TAP	28	0	6
TAP	28	192	6
TAP	29	0	6
HLD	30	0	7	384
TAP	32	0	0
TAP	32	192	0
TAP	33	0	0
TAP	34	0	1
TAP	34	192	1
TAP	35	0	1
TAP	36	0	2
TAP	36	192	2
TAP	37	0	2
TAP	38	0	3
TAP	38	192	3
XTP	39	0	3
XTP	39	0	4
TTP	40	0	2	B	0	L1
TTP	41	0	1	B	0	L1
TTP	42	0	0	B	0	L1
TTP	43	0	7	B	0	L1
TTP	44	0	6	B	0	L1
TTP	45	0	5	B	0	L1
THO	46	0	0	384	C	1	L1
TAP	48	0	0
TAP	48	192	0
TAP	49	0	0
TAP	50	0	1
TAP	50	192	1
XTP	51	0	1
TAP	52	0	2
TAP	52	192	2
TAP	53	0	2
TAP	54	0	3
TAP	54	0	4
TAP	54	192	3
TAP	54	192	4
XTP	55	0	2
XTP	55	0	5
TAP	56	0	5
TAP	56	192	5
TAP	57	0	5
TAP	58	0	6
TAP	58	192	6
XTP	59	0	6
TAP	60	0	7
TAP	60	192	7
TAP	61	0	7
TAP	62	0	0
TAP	62	0	7
TAP	62	192	0
TAP	62	192	7
XTP	63	0	1
XTP	63	0	6
STR	64	0	1
SI_	64	0	1	96	672	6
STR	68	0	5
SI_	68	0	5	96	672	2
HLD	72	0	2	384
HLD	72	0	3	384
HLD	74	0	3	384
HLD	74	0	4	384
HLD	76	0	4	384
HLD	76	0	5	384
HLD	78	0	3	384
HLD	78	0	4	384
TTP	80	0	3	E	0	L1
TTP	81	0	2	E	0	L1
TTP	82	0	0	B	0	L1
TTP	83	0	7	B	0	L1
TTP	84	0	6	E	0	L1
TTP	85	0	5	E	0	L1
THO	86	0	0	384	C	0	L1
TAP	88	0	6
TAP	88	192	6
TAP	89	0	5
TAP	89	192	5
TAP	90	0	4
TAP	90	192	4
TAP	91	0	3
TAP	91	0	4
TAP	92	0	3
TAP	92	192	3
TAP	93	0	2
TAP	93	192	2
TAP	94	0	1
TAP	94	192	1
BRK	95	0	0
BRK	95	0	7
TAP	96	0	1
TAP	96	96	1
TAP	96	192	1
TAP	97	0	2
TAP	97	192	2
TAP	98	0	3
TAP	98	96	3
TAP	98	192	3
TAP	99	0	3
TAP	99	0	4
TAP	100	0	4
TAP	100	96	4
TAP	100	192	4
TAP	101	0	5
TAP	101	192	5
TAP	102	0	6
TAP	102	96	6
TAP	102	192	6
BRK	103	0	0
BRK	103	0	7
TAP	104	0	6
TAP	104	96	6
TAP	104	192	6
TAP	105	0	5
TAP	105	192	5
TAP	106	0	4
TAP	106	96	4
TAP	106	192	4
TAP	107	0	3
TAP	107	0	4
TAP	108	0	3
TAP	108	96	3
TAP	108	192	3
TAP	109	0	2
TAP	109	192	2
TAP	110	0	1
TAP	110	96	1
TAP	110	192	1
XHO	111	0	0	384
XHO	111	0	7	384
XTP	118	0	0
XTP	118	192	7
XTP	119	0	0
XTP	119	192	0
XTP	119	192	7
TAP	120	0	0
TAP	120	192	0
TAP	121	0	7
STR	121	192	7
SI_	121	192	7	96	672	3

T_REC_TAP	103
T_REC_BRK	6
T_REC_XTP	13
T_REC_HLD	10
T_REC_XHO	2
T_REC_STR	4
T_REC_BST	0
T_REC_XST	0
T_REC_TTP	12
T_REC_THO	2
T_REC_SLD	4
T_REC_ALL	156
T_NUM_TAP	132
T_NUM_BRK	6
T_NUM_HLD	14
T_NUM_SLD	4
T_NUM_ALL	156
T_JUDGE_TAP	138
T_JUDGE_HLD	112
T_JUDGE_SLD	4
T_JUDGE_ALL	254
TTM_EACHPAIRS	19
TTM_SCR_TAP	66000
TTM_SCR_BRK	15600
TTM_SCR_HLD	14000
TTM_SCR_SLD	6000
TTM_SCR_ALL	101600
TTM_SCR_S	98000
TTM_SCR_SS	101000
TTM_RAT_ACV	10059

