VERSION	0.00.00	1.04.00
FES_MODE	0
BPM_DEF	145.000	145.000	145.000	145.000
MET_DEF	4	4
RESOLUTION	384
CLK_DEF	384
COMPATIBLE_CODE	MA2

BPM	0	0	145.000
MET	0	0	4	4

NMTAP	1	336	4
NMTAP	1	360	3
NMHLD	2	0	2	96
NMTAP	2	0	5
NMHLD	2	96	5	96
NMTAP	2	192	3
NMTAP	2	216	4
NMTAP	2	240	3
NMTAP	2	264	4
NMTAP	2	288	3
NMTTP	2	336	2	E	0	M1
NMTTP	3	0	1	E	0	M1
NMTTP	3	48	0	E	0	M1
NMTTP	3	96	7	E	0	M1
NMTTP	3	144	6	E	0	M1
NMTHO	3	192	0	960	C	0	M1
NMTTP	3	192	5	E	0	M1
NMTTP	4	96	6	B	0	M1
NMTTP	4	96	7	B	0	M1
NMTTP	4	96	7	E	0	M1
NMTTP	4	192	0	B	0	M1
NMTTP	4	192	1	B	0	M1
NMTTP	4	192	1	E	0	M1
BRTAP	6	288	0
BRTAP	6	288	7
NMSTR	7	0	5
NMSI_	7	0	5	96	48	1
NMTAP	7	72	1
NMTAP	7	96	5
EXTAP	7	144	0
NMSTR	7	192	5
NMSV_	7	192	5	96	48	2
NMTAP	7	264	1
NMTAP	7	288	5
EXTAP	7	336	0
NMSTR	8	0	6
NMSI_	8	0	6	96	48	2
NMTAP	8	72	2
NMTAP	8	96	6
EXTAP	8	144	0
NMSTR	8	192	5
NMSV_	8	192	5	96	48	2
NMTAP	8	264	1
NMTAP	8	288	5
EXTAP	8	336	0
NMSTR	9	0	5
NMSI_	9	0	5	96	48	1
NMTAP	9	72	1
NMTAP	9	96	5
EXTAP	9	144	0
NMSTR	9	192	5
NMSV_	9	192	5	96	48	2
NMTAP	9	264	1
NMTAP	9	288	5
EXTAP	9	336	0
NMSTR	10	0	5
NMSI_	10	0	5	96	48	3
NMTAP	10	72	2
NMSTR	10	96	5
NMSXR	10	96	5	96	144	2
EXTAP	10	144	0
NMTAP	10	192	1
NMTAP	10	240	1
NMTAP	10	288	0
EXTAP	10	336	0
NMSTR	11	0	5
NMSI_	11	0	5	96	48	1
NMTAP	11	72	1
NMTAP	11	96	5
EXTAP	11	144	0
NMSTR	11	192	5
NMSV_	11	192	5	96	48	2
NMTAP	11	264	1
NMTAP	11	288	5
EXTAP	11	336	0
NMSTR	12	0	6
NMSI_	12	0	6	96	48	2
NMTAP	12	72	2
NMTAP	12	96	6
EXTAP	12	144	0
NMSTR	12	192	5
NMSV_	12	192	5	96	48	2
NMTAP	12	264	1
NMTAP	12	288	5
EXTAP	12	336	0
NMSTR	13	0	5
NMSI_	13	0	5	96	48	1
NMTAP	13	72	1
NMTAP	13	96	5
EXTAP	13	144	0
NMSTR	13	192	5
NMSV_	13	192	5	96	48	2
NMTAP	13	264	1
NMTAP	13	288	5
EXTAP	13	336	0
NMSTR	14	0	5
NMSI_	14	0	5	96	48	2
NMTAP	14	72	2
NMSTR	14	96	5
NMSI_	14	96	5	96	48	0
EXTAP	14	144	0
NMTAP	14	192	1
CNSV_	14	240	0	0	48	3
NMTAP	14	240	1
NMTAP	14	288	2
EXTAP	14	336	2
BRSTR	15	0	7
NMSI_	15	0	7	96	48	4
NMSTR	15	96	2
NMSI_	15	96	2	96	48	5
CNSI_	15	240	5	0	48	0
CNSI_	15	288	0	0	48	3
NMHLD	16	0	4	72
NMHLD	16	72	5	72
NMTAP	16	144	6
NMSTR	16	192	6
NMSI_	16	192	6	96	48	4
NMSTR	16	192	7
NMSI_	16	192	7	96	48	3
NMTAP	16	288	6
NMTAP	16	288	7
NMSTR	17	0	1
NMSI_	17	0	1	96	48	5
NMSTR	17	0	3
NMSI_	17	0	3	96	48	7
NMTAP	17	96	1
NMTAP	17	96	3
NMSTR	17	192	4
NMSI_	17	192	4	96	48	0
NMSTR	17	192	6
NMSI_	17	192	6	96	48	2
NMTAP	17	288	4
NMTAP	17	288	6
NMHLD	18	0	0	72
NMHLD	18	72	1	72
NMTAP	18	144	2
NMSTR	18	192	2
NMSI_	18	192	2	96	48	0
NMSTR	18	192	3
NMSI_	18	192	3	96	48	7
NMTAP	18	288	2
NMTAP	18	288	3
NMSTR	19	0	6
NMSI_	19	0	6	96	48	1
NMTAP	19	192	2
NMTTP	19	288	3	E	0	M1
NMTTP	19	300	3	B	0	M1
NMTTP	19	312	4	B	0	M1
NMTTP	19	324	5	E	0	M1
NMTTP	19	336	5	A	0	M1
NMSTR	20	0	6
NMSI_	20	0	6	96	48	1
NMTAP	20	192	2
NMTTP	20	288	3	E	0	M1
NMTTP	20	300	3	B	0	M1
NMTTP	20	312	4	B	0	M1
NMTTP	20	324	5	E	0	M1
NMTTP	20	336	5	A	0	M1
NMTAP	21	0	6
NMSTR	21	96	7
NMSLL	21	96	7	96	96	3
NMSLR	21	96	7	96	96	3
NMTAP	22	0	2
NMTAP	22	0	4
NMTAP	22	72	1
NMTAP	22	72	5
NMTAP	22	144	0
NMTAP	22	144	6
NMSTR	22	192	0
NMSI_	22	192	0	96	48	3
NMSTR	22	192	6
NMSI_	22	192	6	96	48	3
NMTAP	22	288	0
NMTAP	22	288	6
NMSTR	23	0	2
NMSCL	23	0	2	96	48	7
NMTTP	23	96	4	E	0	M1
NMSTR	23	192	4
NMSCR	23	192	4	96	48	7
NMTTP	23	288	3	E	0	M1
NMSTR	24	0	2
NMSI_	24	0	2	96	48	4
CNSI_	24	144	4	0	48	1
CNSI_	24	192	1	0	48	5
CNSI_	24	240	5	0	48	0
CNSI_	24	288	0	0	48	6
NMSTR	25	0	5
NMSCR	25	0	5	96	48	0
NMTTP	25	96	4	E	0	M1
NMSTR	25	192	3
NMSCL	25	192	3	96	48	0
NMTTP	25	288	5	E	0	M1
NMSTR	26	0	6
NMSI_	26	0	6	96	48	0
CNSV_	26	144	0	0	48	5
CNSCL	26	192	5	0	48	4
CNSI_	26	240	4	0	48	1
CNSCR	26	288	1	0	48	3
NMSTR	27	0	7
NMSCL	27	0	7	96	48	4
NMTTP	27	96	6	E	0	M1
NMSTR	27	192	0
NMSCR	27	192	0	96	48	3
NMTTP	27	288	2	E	0	M1
NMTAP	28	0	3
NMTAP	28	0	5
NMTAP	28	72	2
NMTAP	28	72	6
NMTAP	28	144	1
NMTAP	28	144	7
NMSTR	28	192	1
NMSI_	28	192	1	96	48	5
NMSTR	28	192	7
NMSI_	28	192	7	96	48	3
EXTAP	28	288	1
EXTAP	28	288	7
BRTAP	29	0	2
BRTAP	29	0	6
NMTAP	29	96	0
NMTAP	29	192	0
NMTAP	29	192	7
NMTAP	29	288	0
NMTAP	29	288	7
NMTAP	30	0	4
NMTAP	30	0	6
NMTAP	30	72	1
NMTAP	30	72	3
NMTAP	30	144	3
NMTAP	30	144	4
NMSTR	30	192	3
NMSI_	30	192	3	96	48	7
NMSTR	30	192	4
NMSI_	30	192	4	96	48	0
BRTAP	30	288	3
BRTAP	30	288	4
NMSTR	31	0	6
NMSCL	31	0	6	96	48	3
NMSTR	31	48	2
NMSCL	31	48	2	96	48	7
NMTAP	31	96	6
NMTAP	31	144	2
NMSTR	31	192	6
NMSCL	31	192	6	96	48	3
NMSTR	31	240	2
NMSCL	31	240	2	96	48	7
NMTAP	31	288	6
NMTAP	31	336	2
NMSTR	32	0	4
NMSI_	32	0	4	96	48	7
NMSTR	32	48	3
NMSI_	32	48	3	96	48	0
NMTAP	32	96	4
NMTAP	32	144	3
NMSTR	32	192	5
NMSI_	32	192	5	96	48	7
NMSTR	32	240	2
NMSI_	32	240	2	96	48	0
NMTAP	32	288	5
NMTAP	32	336	2
NMTTP	33	0	0	C	1	M1
EXTAP	33	96	0
EXTAP	33	96	7
NMTAP	33	168	0
NMTAP	33	168	7
NMTAP	33	240	2
NMTAP	33	240	6
NMSTR	33	288	2
NMSCR	33	288	2	96	48	5
NMSTR	33	288	6
NMSCR	33	288	6	96	48	1
NMSTR	34	0	2
NMSXL	34	0	2	96	120	5
NMSTR	34	0	6
NMSXL	34	0	6	96	120	1
NMTTP	34	192	0	C	1	M1
BXTAP	35	0	1
BXTAP	35	0	7
BXTAP	35	48	1
BXTAP	35	48	7
BXTAP	35	96	5
BXTAP	35	120	4
BXTAP	35	168	2
BXTAP	35	192	3
NMTAP	35	240	1
NMTAP	35	240	4
NMTAP	35	288	1
NMTAP	35	288	4
NMTAP	35	336	5
BRTAP	36	0	0
BRTAP	36	0	6
BRTAP	36	48	0
BRTAP	36	48	6
BRTAP	36	96	2
BRTAP	36	120	3
BRTAP	36	168	5
BRTAP	36	192	4
NMTAP	36	240	3
NMTAP	36	240	6
NMTAP	36	288	3
NMTAP	36	288	6
NMTAP	36	336	2
NMTAP	37	0	1
NMTAP	37	0	7
NMTAP	37	48	1
NMTAP	37	48	7
NMTAP	37	96	5
NMTAP	37	120	3
NMHLD	37	168	2	72
NMTAP	37	168	6
NMTAP	37	240	7
NMSTR	37	288	7
NMSI_	37	288	7	96	48	1
NMSTR	38	0	0
NMSV_	38	0	0	96	48	3
NMSV_	38	0	0	96	48	5
NMSTR	38	192	7
NMSV_	38	192	7	96	48	2
NMSV_	38	192	7	96	48	4
NMTAP	38	288	7
NMTAP	39	0	2
NMTAP	39	0	4
NMTAP	39	48	2
NMTAP	39	48	4
NMTAP	39	96	5
NMTAP	39	120	4
NMTAP	39	168	6
NMTAP	39	192	7
NMTAP	39	240	0
NMTAP	39	240	5
NMTAP	39	288	1
NMTAP	39	288	4
NMTAP	39	336	2
NMTAP	39	336	3
NMTAP	40	0	3
NMTAP	40	0	5
NMTAP	40	48	3
NMTAP	40	48	5
NMTAP	40	96	2
NMTAP	40	120	3
NMTAP	40	168	1
NMTAP	40	192	0
NMTAP	40	240	2
NMTAP	40	240	7
NMTAP	40	288	3
NMTAP	40	288	6
NMTAP	40	336	4
NMTAP	40	336	5
NMTAP	41	0	2
NMTAP	41	0	4
NMTAP	41	48	2
NMTAP	41	48	4
NMSTR	41	96	5
NMSCR	41	96	5	96	96	2
NMTAP	41	120	4
NMTAP	41	168	0
NMTAP	42	0	2
NMTAP	42	0	4
NMTAP	42	48	2
NMTAP	42	48	4
NMSTR	42	96	5
BRSCR	42	96	5	96	96	2
NMTAP	42	120	4
NMTAP	42	168	0
NMTTP	43	0	4	A	0	M1
NMTTP	43	48	3	A	0	M1
NMTTP	43	96	2	A	0	M1
NMTTP	43	144	1	A	0	M1
NMTTP	43	192	0	A	0	M1
NMTTP	43	240	7	A	0	M1
NMTTP	43	288	6	A	0	M1
NMTTP	43	336	5	A	0	M1
NMTTP	44	0	4	E	0	M1
NMTTP	44	48	3	E	0	M1
NMTTP	44	96	2	E	0	M1
NMTTP	44	144	1	E	0	M1
NMTTP	44	192	0	E	0	M1
NMTTP	44	240	7	E	0	M1
NMTTP	44	288	6	E	0	M1
NMTTP	44	336	5	E	0	M1
NMTTP	45	0	3	B	0	M1
NMTTP	45	12	2	B	0	M1
NMTTP	45	24	1	B	0	M1
NMTTP	45	36	0	B	0	M1
NMTTP	45	48	7	B	0	M1
NMTTP	45	60	6	B	0	M1
NMTTP	45	72	5	B	0	M1
NMTTP	45	84	4	B	0	M1
NMTTP	45	96	3	B	0	M1
NMTTP	45	108	2	B	0	M1
NMTTP	45	120	1	B	0	M1
NMTTP	45	132	0	B	0	M1
NMTTP	45	144	7	B	0	M1
NMTTP	45	156	6	B	0	M1
NMTTP	45	168	5	B	0	M1
NMTTP	45	180	4	B	0	M1
NMTTP	45	192	3	B	0	M1
NMTTP	45	204	2	B	0	M1
NMTTP	45	216	1	B	0	M1
NMTTP	45	228	0	B	0	M1
NMTTP	45	240	7	B	0	M1
NMTTP	45	252	6	B	0	M1
NMTTP	45	264	5	B	0	M1
NMTTP	45	276	4	B	0	M1
NMTTP	45	288	3	B	0	M1
EXTAP	46	0	0
EXTAP	46	0	7
NMSTR	46	96	3
NMSI_	46	96	3	96	48	0
NMSTR	46	96	4
NMSI_	46	96	4	96	48	7
NMTTP	46	204	4	E	0	M1
NMTTP	46	216	0	C	1	M1
NMTTP	46	228	0	E	0	M1
EXTAP	46	336	0
EXTAP	46	336	7
EXTAP	46	360	0
EXTAP	46	360	7
EXSTR	47	0	0
NMSI_	47	0	0	96	48	3
EXSTR	47	0	7
NMSI_	47	0	7	96	48	4
NMTAP	47	96	0
NMTAP	47	96	7
EXSTR	47	192	0
NMSI_	47	192	0	96	48	4
EXTAP	47	216	4
EXTAP	47	240	2
EXTAP	47	264	6
BXTAP	47	288	0
NMTAP	47	336	7
NMHLD	48	0	7	48
NMTAP	48	48	5
NMHLD	48	96	5	48
NMTAP	48	144	4
NMSTR	48	192	4
NMSI_	48	192	4	96	48	1
NMSI_	48	192	4	96	48	7
BXTAP	48	288	4
NMSTR	49	0	2
NMSUL	49	0	2	96	48	6
NMSTR	49	0	3
NMSCR	49	0	3	96	48	6
EXTAP	49	96	2
EXTAP	49	96	3
EXSTR	49	192	7
NMSI_	49	192	7	96	48	3
EXTAP	49	216	3
EXTAP	49	240	5
EXTAP	49	264	1
BXTAP	49	288	7
NMTAP	49	336	0
NMHLD	50	0	0	48
NMTAP	50	48	2
NMHLD	50	96	2	48
NMTAP	50	144	3
NMSTR	50	192	3
NMSXL	50	192	3	96	48	5
NMSXR	50	192	3	96	48	1
BXTAP	50	288	3
NMSTR	51	0	3
NMSCL	51	0	3	96	48	0
NMSTR	51	0	7
NMSCL	51	0	7	96	48	4
EXTAP	51	96	3
EXTAP	51	96	7
EXSTR	51	192	0
NMSI_	51	192	0	96	48	4
EXTAP	51	216	4
EXTAP	51	240	2
EXTAP	51	264	6
BXTAP	51	288	0
NMTAP	51	336	7
NMTAP	52	0	7
NMSTR	52	48	0
NMSI_	52	48	0	96	48	4
NMSTR	52	96	6
NMSI_	52	96	6	96	48	2
NMTAP	52	144	0
NMTAP	52	192	6
NMTAP	52	288	1
NMTAP	52	288	5
NMSTR	53	0	2
NMSCR	53	0	2	96	48	5
NMSTR	53	0	6
NMSCR	53	0	6	96	48	1
NMTAP	53	96	2
NMTAP	53	96	6
EXSTR	53	192	7
NMSI_	53	192	7	96	48	3
EXTAP	53	216	3
EXTAP	53	240	5
EXTAP	53	264	1
BXTAP	53	288	7
NMTAP	53	336	0
NMTAP	54	0	0
NMTAP	54	48	1
NMTAP	54	48	7
NMSTR	54	96	3
NMSI_	54	96	3	96	48	0
NMSTR	54	96	5
NMSI_	54	96	5	96	48	0
NMTAP	54	144	2
NMTAP	54	144	6
EXTAP	54	192	3
EXTAP	54	192	5
EXTAP	54	288	0
EXTAP	54	336	1
EXTAP	54	336	7
EXTAP	54	360	1
EXTAP	54	360	7
EXSTR	55	0	1
NMSI_	55	0	1	96	48	4
EXTAP	55	0	7
NMTAP	55	48	0
NMTAP	55	96	1
NMTAP	55	96	5
NMTAP	55	144	6
NMSTR	55	192	7
NMSI_	55	192	7	96	48	3
NMTAP	55	216	3
NMTAP	55	240	6
NMTAP	55	264	2
NMTAP	55	288	7
NMTAP	55	336	1
NMTAP	56	0	0
NMSTR	56	0	3
NMSI_	56	0	3	96	48	7
NMTAP	56	48	4
NMTAP	56	96	2
NMTAP	56	96	3
NMTAP	56	144	1
NMSTR	56	192	0
NMSI_	56	192	0	96	48	4
NMTAP	56	192	6
NMTAP	56	240	5
NMTAP	56	288	0
NMTAP	56	288	4
NMTAP	56	336	5
NMTAP	57	0	0
EXSTR	57	0	6
NMSI_	57	0	6	96	48	3
NMTAP	57	48	7
NMTAP	57	96	2
NMTAP	57	96	6
NMTAP	57	144	1
NMSTR	57	192	0
NMSI_	57	192	0	96	48	4
NMTAP	57	216	4
NMTAP	57	240	1
NMTAP	57	264	5
NMTAP	57	288	0
NMTAP	57	336	6
NMSTR	58	0	4
NMSI_	58	0	4	96	48	0
NMTAP	58	0	7
NMTAP	58	48	3
NMTAP	58	96	4
NMTAP	58	96	5
NMTAP	58	144	6
NMTAP	58	192	0
NMSTR	58	192	7
NMSUL	58	192	7	96	48	2
NMTAP	58	240	1
NMTAP	58	288	1
NMTAP	58	336	0
EXSTR	59	0	1
NMSI_	59	0	1	96	48	4
EXTAP	59	0	7
NMTAP	59	48	0
NMTAP	59	96	1
NMTAP	59	96	5
NMTAP	59	144	6
NMSTR	59	192	7
NMSI_	59	192	7	96	48	3
NMTAP	59	216	3
NMTAP	59	240	6
NMTAP	59	264	2
NMTAP	59	288	7
NMTAP	59	336	1
NMTAP	60	0	0
NMSTR	60	0	3
NMSI_	60	0	3	96	48	7
NMTAP	60	48	4
NMSTR	60	96	1
NMSI_	60	96	1	96	48	5
NMTAP	60	96	3
NMTAP	60	144	0
NMTAP	60	192	1
NMSTR	60	192	7
NMSI_	60	192	7	96	48	3
NMTAP	60	240	6
NMTAP	60	288	2
NMTAP	60	288	7
NMTAP	60	336	1
NMTAP	61	0	0
NMTAP	61	0	7
NMTAP	61	48	2
NMTAP	61	48	5
NMTAP	61	96	1
NMTAP	61	96	6
NMTAP	61	144	3
NMTAP	61	144	4
NMTAP	61	192	2
NMTAP	61	216	4
NMTAP	61	240	2
NMTAP	61	264	4
NMHLD	61	288	2	288
NMTAP	61	336	6
BRTAP	62	0	7
BRTAP	62	48	7
BRTAP	62	96	7
BRTAP	62	144	7
BRSTR	62	192	7
NMSI_	62	192	7	96	48	2
BRTAP	62	288	3
BRTAP	62	288	7
NMSTR	63	0	1
NMSI_	63	0	1	96	48	5
NMSTR	63	0	4
NMSI_	63	0	4	96	48	7
EXTAP	63	96	1
EXTAP	63	96	4
NMTAP	63	192	7
NMTAP	63	216	2
NMTAP	63	240	5
NMTAP	63	264	4
NMSTR	63	288	7
NMSI_	63	288	7	96	48	4
NMTAP	63	336	2
NMSTR	64	0	3
NMSI_	64	0	3	96	48	0
NMTTP	64	0	7	A	1	M1
NMTTP	64	96	3	A	1	M1
NMSTR	64	96	6
NMSI_	64	96	6	96	48	1
NMSTR	64	192	2
NMSI_	64	192	2	96	48	5
NMTTP	64	192	6	A	1	M1
NMTTP	64	288	2	A	1	M1
NMTAP	64	288	7
NMSTR	65	0	2
NMSCL	65	0	2	96	48	7
NMSTR	65	0	6
NMSCL	65	0	6	96	48	3
NMTAP	65	96	2
NMTAP	65	96	6
NMTAP	65	192	0
NMTAP	65	216	5
NMTAP	65	240	2
NMTAP	65	264	3
NMSTR	65	288	0
NMSCR	65	288	0	96	48	3
NMTAP	65	336	5
NMTTP	66	0	0	A	1	M1
NMSTR	66	0	4
NMSCR	66	0	4	96	48	7
NMSTR	66	96	1
NMSUR	66	96	1	96	48	5
NMTTP	66	96	4	A	1	M1
NMTTP	66	192	1	A	1	M1
NMSTR	66	192	6
NMSUL	66	192	6	96	48	2
NMTAP	66	288	1
NMTTP	66	288	6	A	1	M1
NMSTR	67	0	0
NMSI_	67	0	0	96	48	3
NMSTR	67	0	7
NMSI_	67	0	7	96	48	4
NMTAP	67	48	1
NMTAP	67	48	6
NMTAP	67	96	0
NMTAP	67	96	7
NMTAP	67	192	3
NMTAP	67	216	5
NMTAP	67	240	1
NMTAP	67	264	7
NMTAP	67	288	3
NMTAP	67	336	2
NMTAP	67	336	5
NMSTR	68	0	3
NMSI_	68	0	3	96	48	1
NMSTR	68	0	4
NMSI_	68	0	4	96	48	0
NMTTP	68	96	3	A	1	M1
NMTTP	68	96	4	A	0	M1
NMSTR	68	192	3
NMSI_	68	192	3	96	48	7
NMSTR	68	192	4
NMSI_	68	192	4	96	48	6
NMTTP	68	288	3	A	0	M1
NMTTP	68	288	4	A	1	M1
NMSTR	69	0	3
NMSI_	69	0	3	96	48	0
NMSTR	69	0	6
NMSI_	69	0	6	96	48	2
EXTAP	69	96	3
EXTAP	69	96	6
NMTAP	69	192	0
NMTAP	69	216	7
NMTAP	69	240	3
NMTAP	69	264	5
NMSTR	69	288	2
NMSI_	69	288	2	96	48	0
NMTAP	69	336	3
NMTAP	69	336	4
CNSV_	70	48	0	0	48	7
CNSI_	70	96	7	0	48	5
NMSTR	70	192	3
NMSCL	70	192	3	96	48	2
NMSTR	70	192	7
NMSCL	70	192	7	96	48	6
CNSXR	70	336	2	0	48	0
CNSXR	70	336	6	0	48	4
NMSTR	71	96	6
NMSXL	71	96	6	96	96	7
CNSI_	71	288	7	0	480	4

T_REC_TAP	271
T_REC_BRK	20
T_REC_XTP	55
T_REC_BXX	14
T_REC_HLD	12
T_REC_XHO	0
T_REC_BHO	0
T_REC_BXH	0
T_REC_STR	107
T_REC_BST	2
T_REC_XST	9
T_REC_XBS	0
T_REC_TTP	86
T_REC_THO	1
T_REC_SLD	122
T_REC_BSL	1
T_REC_ALL	700
T_NUM_TAP	528
T_NUM_BRK	37
T_NUM_HLD	13
T_NUM_SLD	122
T_NUM_ALL	700
T_JUDGE_TAP	564
T_JUDGE_HLD	44
T_JUDGE_SLD	123
T_JUDGE_ALL	731
TTM_EACHPAIRS	113
TTM_SCR_TAP	264000
TTM_SCR_BRK	96200
TTM_SCR_HLD	13000
TTM_SCR_SLD	183000
TTM_SCR_ALL	556200
TTM_SCR_S	535950
TTM_SCR_SS	552500
TTM_RAT_ACV	10066

