VERSION	0.00.00	1.04.00
FES_MODE	0
BPM_DEF	145.000	145.000	145.000	145.000
MET_DEF	4	4
RESOLUTION	384
CLK_DEF	384
COMPATIBLE_CODE	MA2

BPM	0	0	145.000
MET	0	0	4	4

NMHLD	2	0	4	192
NMTAP	2	96	3
NMHLD	2	192	3	192
NMTAP	2	288	4
NMHLD	3	0	4	192
NMSTR	3	96	3
NMSCL	3	96	3	96	960	4
EXTAP	6	288	3
EXTAP	6	288	4
NMTAP	7	0	5
NMHLD	7	72	5	120
NMTAP	7	192	4
NMHLD	7	264	4	120
NMTAP	8	0	3
NMHLD	8	72	3	120
NMTAP	8	192	2
NMHLD	8	264	2	120
NMTAP	9	0	1
NMHLD	9	72	1	120
NMTAP	9	192	0
NMHLD	9	264	0	120
NMTAP	10	0	7
NMHLD	10	72	7	120
NMTAP	10	192	6
NMHLD	10	264	6	120
NMTAP	11	0	4
NMHLD	11	72	4	120
NMTAP	11	192	3
NMHLD	11	264	3	120
NMTAP	12	0	1
NMHLD	12	72	1	120
NMTAP	12	192	7
NMHLD	12	264	7	120
NMTAP	13	0	5
NMHLD	13	72	5	120
NMTAP	13	192	4
NMHLD	13	264	4	120
NMTAP	14	0	5
NMTAP	14	72	4
NMSTR	14	72	5
NMSUR	14	72	5	96	120	3
NMTAP	15	0	2
NMTAP	15	0	4
BXTAP	15	96	0
BXTAP	15	192	0
BXTAP	15	192	3
NMTAP	15	288	1
NMTAP	15	288	4
NMHLD	16	0	2	72
NMHLD	16	72	3	72
NMTAP	16	144	1
NMTAP	16	192	1
NMTAP	16	288	2
NMTAP	16	288	4
NMTAP	17	0	3
NMTAP	17	0	5
NMTAP	17	96	7
NMTAP	17	192	4
NMTAP	17	192	7
NMTAP	17	288	3
NMTAP	17	288	6
NMHLD	18	0	5	72
NMHLD	18	72	4	72
NMTAP	18	144	6
NMTAP	18	192	6
NMSTR	18	288	6
NMSCL	18	288	6	96	96	3
NMSTR	18	288	7
NMSCR	18	288	7	96	96	2
NMTAP	19	192	1
NMSTR	19	288	0
NMSCL	19	288	0	96	96	5
NMSTR	19	288	1
NMSI_	19	288	1	96	96	4
NMTAP	20	192	3
NMTAP	20	192	6
NMTAP	20	288	3
NMTAP	20	288	6
NMTAP	21	0	4
NMTAP	21	0	5
NMTAP	21	96	4
NMTAP	21	96	5
NMTAP	21	192	2
NMTAP	21	192	3
NMSTR	21	288	2
NMSUR	21	288	2	96	192	5
NMTAP	21	288	3
EXTAP	22	288	6
EXTAP	22	288	7
NMTAP	23	0	5
NMTAP	23	48	5
NMTAP	23	96	4
NMTAP	23	192	3
NMTAP	23	192	5
NMTAP	23	288	2
NMTAP	23	288	4
NMHLD	24	0	1	72
NMHLD	24	72	2	72
NMTAP	24	144	3
NMTAP	24	192	3
NMTAP	24	288	1
NMTAP	24	288	4
NMTAP	25	0	2
NMTAP	25	48	2
NMTAP	25	96	3
NMTAP	25	192	2
NMTAP	25	192	4
NMTAP	25	288	3
NMTAP	25	288	5
NMHLD	26	0	6	72
NMHLD	26	72	5	72
NMTAP	26	144	4
NMTAP	26	192	4
NMTAP	26	288	3
NMTAP	26	288	5
NMTAP	27	0	2
NMTAP	27	48	2
NMTAP	27	96	3
NMTAP	27	192	1
NMTAP	27	192	4
NMTAP	27	288	3
NMTAP	27	288	6
NMHLD	28	0	2	72
NMHLD	28	72	1	72
NMTAP	28	144	0
NMTAP	28	192	0
NMTAP	28	288	1
NMTAP	28	288	7
NMHLD	29	0	2	192
NMHLD	29	0	6	384
NMTTP	30	0	0	C	1	M1
EXTAP	30	192	0
EXTAP	30	192	7
NMSTR	30	288	1
NMSCR	30	288	1	96	96	4
NMTAP	30	288	6
NMSTR	31	96	5
NMSCR	31	96	5	96	96	0
NMSTR	31	288	1
NMSCR	31	288	1	96	96	4
BRSTR	32	96	5
BRSI_	32	96	5	96	96	1
NMSTR	32	288	0
NMSI_	32	288	0	96	96	4
NMSTR	33	96	7
NMSI_	33	96	7	96	96	3
BXSTR	33	288	2
NMSUL	33	288	2	96	192	6
NMSUR	33	288	2	96	192	6
EXTAP	34	288	7
NMTAP	35	0	6
NMTAP	35	48	6
NMTAP	35	96	4
NMTAP	35	144	4
NMTAP	35	192	5
NMTAP	35	240	5
NMTAP	35	288	3
NMTAP	35	336	3
NMTAP	36	0	4
NMTAP	36	48	4
NMTAP	36	96	2
NMTAP	36	144	2
NMTAP	36	192	3
NMTAP	36	240	3
NMSTR	36	288	1
NMSCL	36	288	1	96	192	4
EXTAP	37	0	4
NMSTR	37	288	6
NMSCR	37	288	6	96	192	3
EXTAP	38	0	3
EXTAP	38	288	2
EXTAP	38	288	4
NMHLD	39	0	1	192
NMTTP	39	96	5	E	0	M1
NMTTP	39	192	4	E	0	M1
NMTTP	39	288	3	E	0	M1
NMHLD	40	0	4	192
NMTTP	40	96	3	E	0	M1
NMTTP	40	192	4	E	0	M1
NMTTP	40	288	5	E	0	M1
NMTTP	41	0	2	E	0	M1
NMTTP	41	96	1	E	0	M1
NMTTP	41	96	1	D	0	M1
NMTTP	41	192	6	E	0	M1
NMTTP	41	288	7	E	0	M1
NMTTP	41	288	7	D	0	M1
NMTHO	42	0	0	168	C	1	M1
NMTAP	43	0	0
NMTAP	43	48	0
NMTAP	43	96	7
NMTAP	43	144	7
NMTAP	43	192	4
NMTAP	43	240	4
NMTAP	43	288	5
NMTAP	43	336	5
NMTAP	44	0	1
NMTAP	44	48	1
NMTAP	44	96	3
NMTAP	44	144	3
NMTAP	44	192	2
NMTAP	44	240	2
NMSTR	44	288	4
NMSUL	44	288	4	96	192	3
EXTAP	45	0	3
NMSTR	45	288	0
NMSF_	45	288	0	96	96	4
BRTAP	46	192	2
BRTAP	46	192	6
NMTAP	46	336	1
NMTAP	46	336	7
NMSTR	47	0	1
NMSI_	47	0	1	96	48	4
NMSTR	47	0	7
NMSI_	47	0	7	96	48	4
EXTAP	47	192	2
EXTAP	47	192	6
EXTAP	47	240	2
EXTAP	47	240	6
EXTAP	47	288	2
EXTAP	47	288	6
NMTAP	48	0	2
NMTAP	48	0	3
NMTAP	48	96	4
NMTAP	48	96	5
NMTAP	48	192	6
NMTAP	48	192	7
NMTAP	48	288	0
NMTAP	48	288	1
NMSTR	49	0	2
NMSI_	49	0	2	96	48	6
NMSTR	49	0	3
NMSI_	49	0	3	96	48	7
EXTAP	49	192	0
EXTAP	49	192	5
EXTAP	49	240	0
EXTAP	49	240	5
EXTAP	49	288	0
EXTAP	49	288	5
NMTAP	50	0	4
NMTAP	50	0	6
NMTAP	50	96	3
NMTAP	50	96	4
NMTAP	50	192	1
NMTAP	50	192	3
NMTAP	50	288	0
NMTAP	50	288	7
NMSTR	51	0	4
NMSI_	51	0	4	96	48	0
NMSTR	51	0	5
NMSI_	51	0	5	96	48	1
EXTAP	51	192	2
EXTAP	51	192	7
EXTAP	51	240	2
EXTAP	51	240	7
EXTAP	51	288	2
EXTAP	51	288	7
NMTAP	52	0	0
NMTAP	52	0	1
NMTAP	52	96	2
NMTAP	52	96	3
NMTAP	52	192	4
NMTAP	52	192	5
NMSTR	52	288	6
NMSI_	52	288	6	96	48	2
NMSTR	52	288	7
NMSI_	52	288	7	96	48	3
NMSTR	53	96	0
NMSI_	53	96	0	96	48	4
NMSTR	53	96	1
NMSI_	53	96	1	96	48	5
NMSTR	53	288	6
NMSXR	53	288	6	96	192	3
NMSTR	53	288	7
NMSXL	53	288	7	96	192	2
EXTAP	54	288	1
EXTAP	54	288	4
NMTAP	55	0	3
NMTAP	55	48	3
NMTAP	55	96	6
NMTAP	55	144	6
NMTAP	55	192	6
NMTAP	55	192	7
NMTAP	55	240	0
NMTAP	55	240	5
NMTAP	55	288	1
NMTAP	55	288	4
NMTAP	56	0	4
NMTAP	56	48	4
NMTAP	56	96	1
NMTAP	56	144	1
NMTAP	56	192	0
NMTAP	56	192	1
NMTAP	56	240	2
NMTAP	56	240	7
NMTAP	56	288	3
NMTAP	56	288	6
NMTAP	57	0	5
NMTAP	57	48	5
NMTAP	57	96	2
NMTAP	57	144	2
NMTAP	57	192	2
NMTAP	57	192	3
NMTAP	57	240	1
NMTAP	57	240	4
EXSTR	57	288	0
NMSI_	57	288	0	96	48	4
EXSTR	57	288	5
NMSI_	57	288	5	96	48	7
EXSTR	58	96	2
NMSI_	58	96	2	96	48	0
EXSTR	58	96	7
NMSI_	58	96	7	96	48	3
EXTAP	58	288	0
EXTAP	58	288	4
EXTAP	59	0	1
NMTAP	59	48	1
NMTAP	59	96	4
NMTAP	59	144	4
NMTAP	59	192	3
NMTAP	59	192	5
NMTAP	59	240	2
NMTAP	59	240	6
NMSTR	59	288	1
NMSI_	59	288	1	96	48	5
NMSTR	59	288	7
NMSI_	59	288	7	96	48	3
NMSTR	60	96	0
NMSI_	60	96	0	96	48	4
NMSTR	60	96	6
NMSI_	60	96	6	96	48	2
BXTAP	60	288	1
BXTAP	60	288	7
NMTAP	61	0	6
NMTAP	61	48	6
NMTAP	61	96	4
NMTAP	61	144	5
NMTAP	61	192	2
NMTAP	61	240	2
NMHLD	61	288	1	288
NMTAP	61	288	3
BXTAP	62	0	7
BXTAP	62	48	7
BXTAP	62	96	7
BXTAP	62	144	7
BXTAP	62	192	7
BRTAP	62	288	0
BRTAP	62	288	5
NMTAP	63	0	2
NMTAP	63	0	3
NMTAP	63	48	2
NMTAP	63	48	3
NMTAP	63	96	1
NMTAP	63	96	4
NMTAP	63	192	4
NMTAP	63	192	5
NMTAP	63	240	4
NMTAP	63	240	5
NMTAP	63	288	3
NMTAP	63	288	6
BRSTR	64	0	1
BRSI_	64	0	1	96	48	4
BRSTR	64	96	0
BRSI_	64	96	0	96	48	5
BRSTR	64	192	1
BRSI_	64	192	1	96	48	4
BRTAP	64	288	7
EXTAP	65	0	4
EXTAP	65	0	5
EXTAP	65	48	4
EXTAP	65	48	5
EXTAP	65	96	3
EXTAP	65	96	6
NMTAP	65	192	0
NMTAP	65	192	1
NMTAP	65	240	0
NMTAP	65	240	1
NMTAP	65	288	2
NMTAP	65	288	7
BRSTR	66	0	6
BRSI_	66	0	6	96	48	3
BRSTR	66	96	7
BRSI_	66	96	7	96	48	2
BRSTR	66	192	6
BRSI_	66	192	6	96	48	3
BRTAP	66	288	0
NMTAP	67	0	0
NMTAP	67	0	1
NMTAP	67	48	2
NMTAP	67	48	7
NMTAP	67	96	3
NMTAP	67	96	6
NMTAP	67	192	6
NMTAP	67	192	7
NMTAP	67	240	0
NMTAP	67	240	5
NMTAP	67	288	1
NMTAP	67	288	4
NMTTP	68	0	2	B	1	M1
NMTTP	68	0	2	E	0	M1
NMTTP	68	0	3	B	0	M1
NMTTP	68	96	4	B	0	M1
NMTTP	68	96	5	B	1	M1
NMTTP	68	96	6	E	0	M1
NMTTP	68	192	0	C	1	M1
NMTTP	68	192	1	B	0	M1
NMTTP	68	192	1	A	0	M1
NMTTP	68	192	6	B	0	M1
NMTTP	68	192	6	A	0	M1
EXTAP	68	288	0
EXTAP	68	288	7
NMSTR	69	0	0
BRSF_	69	0	0	96	48	4
NMTAP	69	0	7
EXTAP	69	192	2
EXTAP	69	192	6
EXTAP	69	240	2
EXTAP	69	240	6
EXTAP	69	288	2
EXTAP	69	288	6
BXTAP	69	336	1
BXTAP	70	0	0
BXTAP	70	48	7
BXTAP	70	96	6
BXTAP	70	144	5
BXSTR	70	192	1
NMSXL	70	192	1	96	288	5
BXTAP	70	192	4
NMSTR	71	96	6
NMSCR	71	96	6	96	576	5

T_REC_TAP	206
T_REC_BRK	6
T_REC_XTP	49
T_REC_BXX	16
T_REC_HLD	32
T_REC_XHO	0
T_REC_BHO	0
T_REC_BXH	0
T_REC_STR	34
T_REC_BST	7
T_REC_XST	4
T_REC_XBS	2
T_REC_TTP	24
T_REC_THO	1
T_REC_SLD	40
T_REC_BSL	8
T_REC_ALL	429
T_NUM_TAP	317
T_NUM_BRK	39
T_NUM_HLD	33
T_NUM_SLD	40
T_NUM_ALL	429
T_JUDGE_TAP	348
T_JUDGE_HLD	104
T_JUDGE_SLD	48
T_JUDGE_ALL	500
TTM_EACHPAIRS	102
TTM_SCR_TAP	158500
TTM_SCR_BRK	101400
TTM_SCR_HLD	33000
TTM_SCR_SLD	60000
TTM_SCR_ALL	352900
TTM_SCR_S	338550
TTM_SCR_SS	349000
TTM_RAT_ACV	10111

