VERSION	0.00.00	1.04.00
FES_MODE	0
BPM_DEF	137.000	137.000	137.000	137.000
MET_DEF	4	4
RESOLUTION	384
CLK_DEF	384
COMPATIBLE_CODE	MA2

BPM	0	0	137.000
MET	0	0	4	4

NMHLD	2	0	3	96
NMTAP	2	96	4
NMTAP	2	144	5
NMHLD	2	192	6	96
NMTAP	2	288	2
NMTAP	2	336	1
NMHLD	3	0	0	192
NMTTP	3	96	0	C	0	M1
NMTTP	3	192	4	E	0	M1
NMTTP	3	200	4	D	0	M1
NMTAP	3	336	1
NMSTR	4	0	1
NMSV_	4	0	1	96	96	4
NMTAP	4	96	4
NMSTR	4	192	6
NMSV_	4	192	6	96	96	3
NMTAP	4	288	3
NMSTR	5	0	1
NMSCR	5	0	1	96	96	4
NMTAP	5	288	0
NMTAP	5	336	1
NMSTR	6	0	2
NMSI_	6	0	2	96	48	4
NMSTR	6	96	6
NMSI_	6	96	6	96	48	4
NMSTR	6	192	0
NMSI_	6	192	0	96	48	4
NMSTR	7	0	7
NMSI_	7	0	7	96	48	5
NMSTR	7	96	0
NMSI_	7	96	0	96	48	4
NMSTR	7	192	1
NMSI_	7	192	1	96	48	3
NMTAP	7	336	7
NMTAP	7	360	6
NMTAP	8	0	4
NMTAP	8	0	5
NMTAP	8	48	3
NMTAP	8	144	0
NMTAP	8	168	1
NMTAP	8	192	2
NMTAP	8	192	3
NMTAP	8	240	4
NMTAP	8	288	2
NMHLD	8	288	5	96
NMTTP	9	0	2	E	0	M1
NMTTP	9	12	2	B	0	M1
NMTTP	9	24	3	B	0	M1
NMTTP	9	96	6	E	0	M1
NMTTP	9	108	5	B	0	M1
NMTTP	9	120	4	B	0	M1
NMTTP	9	192	4	E	0	M1
NMTTP	9	204	4	D	0	M1
NMTAP	9	288	2
NMTAP	9	288	5
EXTAP	10	0	1
EXTAP	10	0	3
NMTAP	10	48	0
NMTAP	10	96	7
NMTAP	10	144	6
NMSTR	10	192	4
NMSI_	10	192	4	96	48	7
NMHLD	10	192	5	96
NMTAP	11	0	4
NMTAP	11	0	6
NMTAP	11	48	7
NMTAP	11	96	0
NMTAP	11	144	1
NMHLD	11	192	2	96
NMSTR	11	192	3
NMSI_	11	192	3	96	48	0
NMTAP	11	336	2
EXSTR	12	0	3
NMSV_	12	0	3	96	96	4
NMTAP	12	96	7
NMTAP	12	144	6
EXSTR	12	192	5
NMSUR	12	192	5	96	96	2
NMTAP	12	288	7
NMTAP	12	336	0
EXSTR	13	0	1
NMSCL	13	0	1	96	96	6
EXSTR	13	96	7
BRSI_	13	96	7	96	48	3
NMTAP	13	288	1
NMTAP	13	336	2
NMSTR	14	0	3
NMSI_	14	0	3	96	48	7
NMHLD	14	0	4	96
NMTAP	14	144	4
NMSTR	14	192	2
NMSI_	14	192	2	96	48	7
NMHLD	14	192	3	96
NMTAP	14	336	3
NMSTR	15	0	1
NMSI_	15	0	1	96	48	7
NMHLD	15	0	2	96
NMTAP	15	144	2
NMHLD	15	192	3	96
NMHLD	15	192	7	96
NMTAP	15	336	0
NMTAP	15	360	1
EXSTR	16	0	2
NMSSL	16	0	2	96	96	6
EXSTR	16	96	6
NMSSL	16	96	6	96	96	2
NMTAP	16	192	0
NMTAP	16	240	0
EXSTR	16	288	7
NMSSR	16	288	7	96	192	3
NMTAP	17	0	0
NMTAP	17	96	1
NMTAP	17	192	2
NMTAP	17	336	0
NMTAP	17	336	4
EXTAP	18	0	0
EXHLD	18	0	4	96
NMTAP	18	48	1
NMTAP	18	96	2
NMTAP	18	144	3
NMHLD	18	144	5	96
NMTAP	18	240	6
NMTAP	18	288	4
NMSTR	18	288	7
NMSI_	18	288	7	96	48	3
NMHLD	19	0	1	96
NMTAP	19	96	2
NMHLD	19	144	0	96
NMTAP	19	144	3
NMTAP	19	240	7
NMTAP	19	288	1
NMTAP	19	288	6
NMTAP	20	0	1
NMTAP	20	0	4
NMTAP	20	48	2
NMSTR	20	96	3
NMSI_	20	96	3	96	48	7
NMHLD	20	192	0	96
NMTAP	20	288	6
NMHLD	21	0	5	96
NMTAP	21	48	4
NMTAP	21	96	3
NMTAP	21	144	2
NMTAP	21	144	4
NMTAP	21	192	1
NMTAP	21	192	3
NMTAP	21	288	2
NMTAP	21	312	3
NMTAP	21	336	2
NMTAP	21	360	3
NMHLD	22	0	1	72
NMHLD	22	72	0	72
NMTAP	22	144	7
NMTAP	22	192	6
NMSTR	22	192	7
NMSI_	22	192	7	96	72	3
NMSTR	22	264	3
NMSI_	22	264	3	96	72	7
NMTAP	22	336	2
NMTAP	23	0	1
NMTAP	23	48	0
NMSTR	23	96	1
NMSF_	23	96	1	96	48	5
NMTAP	23	192	1
NMTAP	23	288	3
NMTAP	23	312	4
NMTAP	23	336	3
NMTAP	24	0	3
NMTAP	24	0	6
NMTAP	24	48	5
NMTAP	24	72	5
NMTAP	24	96	4
NMTAP	24	144	1
NMTAP	24	144	4
NMTAP	24	192	2
NMTAP	24	216	2
NMTAP	24	240	3
NMTAP	24	288	4
NMTAP	24	288	5
NMTAP	24	336	6
NMTAP	24	336	7
NMTAP	25	0	0
NMTAP	25	0	1
NMTAP	25	48	2
NMTAP	25	72	3
NMTAP	25	96	2
NMTAP	25	120	3
NMTAP	25	144	2
NMTAP	25	168	3
EXTAP	25	192	1
EXTAP	25	192	4
NMSTR	25	288	0
NMSI_	25	288	0	96	48	2
EXSTR	26	0	7
NMSI_	26	0	7	96	48	2
CNSI_	26	48	2	0	48	7
NMTAP	26	48	6
NMTAP	26	96	5
CNSI_	26	144	2	0	48	6
NMTAP	26	144	4
NMSTR	26	192	3
NMSCR	26	192	3	96	96	7
NMSTR	26	288	7
NMSUL	26	288	7	96	96	1
NMSTR	27	0	1
NMSUR	27	0	1	96	96	7
NMSTR	27	96	7
NMSUL	27	96	7	96	48	3
NMHLD	27	192	1	96
NMTAP	27	288	2
NMTAP	27	336	1
NMHLD	28	0	0	96
NMHLD	28	96	1	48
NMHLD	28	144	2	48
NMHLD	28	192	3	48
NMHLD	28	240	4	48
NMSTR	28	288	5
NMSI_	28	288	5	96	48	3
NMSTR	29	0	1
NMSI_	29	0	1	96	48	7
NMTAP	29	48	1
NMSTR	29	96	6
NMSI_	29	96	6	96	48	2
NMTAP	29	144	6
NMTAP	29	192	0
NMSTR	29	288	7
NMSI_	29	288	7	96	48	5
EXSTR	30	0	0
NMSI_	30	0	0	96	48	5
NMTAP	30	48	1
CNSI_	30	48	5	0	48	0
NMTAP	30	96	2
NMTAP	30	144	3
CNSI_	30	144	5	0	48	1
NMSTR	30	192	4
NMSCL	30	192	4	96	96	0
NMSTR	30	288	0
NMSUR	30	288	0	96	96	6
NMSTR	31	0	6
NMSUL	31	0	6	96	96	0
NMSTR	31	96	0
NMSUR	31	96	0	96	48	4
NMHLD	31	192	6	96
NMTAP	31	288	5
NMTAP	31	336	6
NMTAP	32	0	7
NMTAP	32	96	2
NMTAP	32	96	3
NMTAP	32	192	4
NMTAP	32	192	5
NMTAP	32	288	1
NMTAP	32	288	2
NMTAP	32	336	3
NMTAP	33	0	0
NMTAP	33	0	4
NMTAP	33	48	1
NMTAP	33	48	5
NMTAP	33	96	2
NMTAP	33	96	6
NMTAP	33	144	3
NMTAP	33	144	7
NMSTR	33	192	0
NMSCL	33	192	0	96	48	5
NMSTR	33	192	4
NMSCL	33	192	4	96	48	1
EXTAP	33	288	0
EXTAP	33	288	4
BXTAP	34	0	0
BXTAP	34	0	6
NMTAP	34	48	2
NMTAP	34	72	3
NMTAP	34	96	2
BXTAP	34	144	1
BXTAP	34	144	7
NMTAP	34	192	5
NMTAP	34	216	4
NMTAP	34	240	5
BXTAP	34	288	0
BXTAP	34	288	6
NMTAP	34	336	2
NMTAP	34	360	3
NMTAP	35	0	2
NMTAP	35	48	5
NMTAP	35	72	4
NMTAP	35	72	5
NMTAP	35	120	2
NMTAP	35	144	2
NMTAP	35	144	3
NMTAP	35	192	4
NMTAP	35	216	3
NMTAP	35	240	4
EXTAP	35	288	0
NMTAP	35	312	1
NMTAP	35	336	2
NMTAP	35	360	3
BRSTR	36	0	4
NMSSL	36	0	4	96	288	0
NMTTP	37	48	3	D	0	M1
NMTTP	37	96	2	B	0	M1
NMTTP	37	144	4	E	0	M1
NMTTP	37	192	5	B	0	M1
NMTTP	37	240	5	D	0	M1
NMTTP	37	288	0	C	0	M1
EXTAP	38	0	4
EXTAP	38	0	6
NMTAP	38	48	7
NMTAP	38	96	0
NMTAP	38	144	1
NMHLD	38	192	2	96
NMSTR	38	192	3
NMSI_	38	192	3	96	48	0
NMTAP	39	0	1
NMTAP	39	0	3
NMTAP	39	48	0
NMTAP	39	96	7
NMTAP	39	144	6
NMSTR	39	192	4
NMSI_	39	192	4	96	48	7
NMHLD	39	192	5	96
NMTAP	39	336	5
NMSTR	40	0	4
NMSI_	40	0	4	96	48	1
NMHLD	40	0	5	96
NMTAP	40	96	4
NMTAP	40	144	6
NMSTR	40	192	1
NMSI_	40	192	1	96	48	4
NMHLD	40	192	7	96
NMTAP	40	288	1
NMTAP	40	336	7
NMTAP	41	0	0
NMTAP	41	0	4
NMTAP	41	48	3
NMTAP	41	48	7
NMTAP	41	96	2
NMTAP	41	96	6
NMTAP	41	144	1
NMTAP	41	144	5
NMSTR	41	192	0
NMSI_	41	192	0	96	48	3
NMTAP	41	192	4
NMTAP	41	288	7
NMTAP	41	336	6
NMTAP	42	0	4
NMTAP	42	0	5
NMTAP	42	48	3
NMTAP	42	96	1
NMTAP	42	96	2
NMTAP	42	144	0
NMSTR	42	192	6
NMSF_	42	192	6	96	48	2
NMTAP	42	192	7
NMTAP	43	0	0
NMSTR	43	0	3
NMSCR	43	0	3	96	48	7
NMSTR	43	96	3
NMSCL	43	96	3	96	48	7
NMTAP	43	192	3
NMTAP	43	288	4
NMTAP	43	336	2
NMTAP	43	360	3
NMSTR	44	0	1
NMSXR	44	0	1	96	96	0
NMTAP	44	96	3
NMTAP	44	144	4
NMSTR	44	192	5
NMSXL	44	192	5	96	96	6
NMTAP	44	288	4
NMTAP	44	336	3
NMSTR	45	0	2
NMSXR	45	0	2	96	96	1
NMTAP	45	96	3
NMTAP	45	144	4
NMTAP	45	192	5
NMTAP	45	336	3
NMTAP	45	336	7
EXHLD	46	0	3	96
EXTAP	46	0	7
NMTAP	46	48	6
NMTAP	46	96	5
NMHLD	46	144	2	96
NMTAP	46	144	4
NMTAP	46	240	1
NMSTR	46	288	0
BRSI_	46	288	0	96	48	4
NMTAP	46	288	3
NMHLD	47	0	6	96
NMTAP	47	96	5
NMTAP	47	144	4
NMHLD	47	144	7	96
NMTAP	47	240	0
NMTAP	47	288	1
NMTAP	47	288	6
NMTAP	48	0	3
NMTAP	48	0	6
NMTAP	48	48	5
NMSTR	48	96	4
NMSI_	48	96	4	96	48	0
NMHLD	48	192	7	96
NMTAP	48	288	1
NMTAP	48	336	2
NMTAP	49	0	3
NMTAP	49	0	4
NMSTR	49	96	2
NMSV_	49	96	2	96	48	0
NMSTR	49	96	6
NMSV_	49	96	6	96	48	4
NMTAP	49	336	1
NMTAP	49	336	7
NMTAP	50	0	2
NMTAP	50	24	4
NMTAP	50	48	2
NMTAP	50	72	4
NMTAP	50	96	3
NMTAP	50	120	5
NMTAP	50	144	3
NMTAP	50	168	5
NMSTR	50	192	2
NMSI_	50	192	2	96	72	5
NMTAP	50	216	2
NMSTR	50	264	5
NMSUL	50	264	5	96	168	2
NMTAP	50	336	6
NMTAP	51	0	6
NMTAP	51	72	7
NMTAP	51	144	0
NMTAP	51	192	0
NMTAP	51	288	3
NMTAP	51	312	4
NMTAP	51	336	3
NMTAP	52	0	1
NMTAP	52	0	4
NMTAP	52	48	2
NMTAP	52	72	2
NMTAP	52	96	3
NMTAP	52	144	3
NMTAP	52	144	6
NMTAP	52	192	5
NMTAP	52	216	5
NMTAP	52	240	4
NMTAP	52	288	2
NMTAP	52	288	3
NMTAP	52	336	0
NMTAP	52	336	1
NMTAP	53	0	6
NMTAP	53	0	7
NMTAP	53	48	5
NMTAP	53	72	4
NMTAP	53	96	5
NMTAP	53	120	4
NMTAP	53	144	5
NMTAP	53	168	4
EXTAP	53	192	3
EXTAP	53	192	6
NMSTR	53	288	3
NMSI_	53	288	3	96	48	7
EXSTR	54	0	2
NMSI_	54	0	2	96	48	0
EXTAP	54	0	3
NMTAP	54	48	2
NMSTR	54	96	4
NMSI_	54	96	4	96	48	6
NMTAP	54	144	4
NMSTR	54	192	3
NMSI_	54	192	3	96	48	7
NMTAP	54	288	3
NMTAP	54	288	7
NMTAP	54	336	6
NMSTR	55	0	5
NMSCL	55	0	5	96	48	3
NMSTR	55	48	3
NMSCL	55	48	3	96	48	1
NMSTR	55	96	1
NMSI_	55	96	1	96	48	7
NMSCL	55	96	1	96	48	7
NMTAP	55	288	6
NMTAP	55	336	5
NMTAP	56	0	3
NMHLD	56	0	4	288
NMTAP	56	96	5
NMTAP	56	144	6
NMTAP	56	192	7
NMTAP	56	240	0
NMTAP	56	288	1
NMTAP	56	336	2
EXSTR	57	0	0
NMSI_	57	0	0	96	48	5
NMSCL	57	0	0	96	48	5
EXTAP	57	0	3
EXSTR	57	96	0
NMSI_	57	96	0	96	48	3
NMSCR	57	96	0	96	48	3
EXTAP	57	192	0
NMSTR	57	288	4
NMSI_	57	288	4	96	48	0
EXTAP	58	0	4
EXSTR	58	0	5
NMSI_	58	0	5	96	48	7
NMTAP	58	48	5
NMSTR	58	96	3
NMSI_	58	96	3	96	48	1
NMTAP	58	144	3
NMSTR	58	192	4
NMSI_	58	192	4	96	48	0
NMSTR	58	288	2
NMSV_	58	288	2	96	48	1
NMTAP	58	336	2
NMSTR	59	0	5
NMSV_	59	0	5	96	48	6
NMTAP	59	48	5
NMSTR	59	96	4
NMSI_	59	96	4	96	48	0
NMTAP	59	144	4
EXTAP	59	192	7
NMTAP	59	288	1
NMTAP	59	336	2
NMTAP	60	0	3
NMTAP	60	96	4
NMTAP	60	96	5
NMTAP	60	192	2
NMTAP	60	192	3
NMTAP	60	288	5
NMTAP	60	288	6
NMTAP	60	336	4
NMTAP	61	0	3
NMTAP	61	0	7
NMTAP	61	48	2
NMTAP	61	48	6
NMTAP	61	96	1
NMTAP	61	96	5
NMTAP	61	144	0
NMTAP	61	144	4
NMSTR	61	192	3
NMSCR	61	192	3	96	48	6
NMSTR	61	192	7
NMSCR	61	192	7	96	48	2
EXTAP	61	288	3
EXTAP	61	288	7
BXTAP	62	0	1
BXTAP	62	0	7
NMTAP	62	48	2
NMTAP	62	72	3
NMTAP	62	96	2
BXTAP	62	144	0
BXTAP	62	144	6
NMTAP	62	192	5
NMTAP	62	216	4
NMTAP	62	240	5
BXTAP	62	288	1
BXTAP	62	288	7
NMTAP	62	336	2
NMTAP	62	360	3
NMTAP	63	0	2
NMTAP	63	48	5
NMTAP	63	72	4
NMTAP	63	72	5
NMTAP	63	120	2
NMTAP	63	144	2
NMTAP	63	144	3
NMTAP	63	192	7
NMTAP	63	216	0
NMTAP	63	240	6
NMTAP	63	264	1
NMTAP	63	288	5
NMTAP	63	312	2
NMTAP	63	336	4
NMTAP	63	360	3
BRSTR	64	0	4
NMSXL	64	0	4	96	192	7
NMTAP	64	48	0
NMTAP	64	96	1
NMTAP	64	144	2
NMSTR	64	192	3
NMSI_	64	192	3	96	48	0
NMTAP	64	288	3
NMSTR	65	0	6
NMSCL	65	0	6	96	48	3
NMTAP	65	96	7
NMSTR	65	144	7
NMSCR	65	144	7	96	48	2
NMTAP	65	240	4
NMTAP	65	288	5
NMHLD	65	336	3	336
NMSTR	65	336	6
NMSXL	65	336	6	96	144	1
CNSCL	66	192	1	0	96	5
NMTAP	67	0	3
NMTAP	67	0	4
NMTAP	67	48	0
NMTAP	67	72	1
NMTAP	67	96	2
NMTAP	67	96	3
NMTAP	67	144	7
NMTAP	67	168	6
NMHLD	67	192	4	96
NMSTR	67	192	5
NMSI_	67	192	5	96	48	0
EXTAP	67	288	5
NMTAP	68	0	2
NMSTR	68	0	3
NMSI_	68	0	3	96	48	5
NMTAP	68	48	2
NMTAP	68	96	2
NMSTR	68	96	3
NMSI_	68	96	3	96	48	6
NMTAP	68	144	2
NMTAP	68	192	2
NMSTR	68	192	3
NMSI_	68	192	3	96	48	7
NMTAP	68	240	2
NMTAP	68	288	2
NMTAP	68	288	3
NMTAP	68	336	2
NMSTR	69	0	4
NMSI_	69	0	4	96	48	2
NMTAP	69	0	5
NMTAP	69	48	5
NMSTR	69	96	4
NMSI_	69	96	4	96	48	1
NMTAP	69	96	5
NMTAP	69	144	5
NMSTR	69	192	4
NMSI_	69	192	4	96	48	0
NMTAP	69	192	5
NMTAP	69	240	5
NMTAP	69	288	4
NMTAP	69	288	5
NMTAP	69	336	5
NMTAP	70	0	2
NMTAP	70	0	3
NMTAP	70	48	2
NMTAP	70	96	2
NMTAP	70	96	4
NMTAP	70	144	2
NMTAP	70	192	2
NMTAP	70	192	5
NMTAP	70	240	2
NMTAP	70	288	2
NMTAP	70	288	6
NMTAP	70	336	2
NMTAP	71	0	2
NMTAP	71	0	7
NMTAP	71	48	2
NMTAP	71	48	6
NMTAP	71	96	2
NMTAP	71	96	5
NMTAP	71	144	2
NMTAP	71	144	4
NMTAP	71	192	2
NMSTR	71	192	3
BRSF_	71	192	3	96	48	7
EXTAP	71	288	3
BRTAP	72	0	2
BRTAP	72	0	6
NMTAP	72	48	1
NMTAP	72	72	1
NMTAP	72	72	3
NMTAP	72	120	6
NMTAP	72	144	4
NMTAP	72	144	6
NMTAP	72	192	2
NMTAP	72	216	2
NMTAP	72	216	3
NMTAP	72	264	5
NMTAP	72	288	4
NMTAP	72	288	5
NMTAP	72	336	3
NMTAP	72	336	4
NMTAP	73	0	2
NMTAP	73	0	5
NMTAP	73	48	5
NMTAP	73	72	4
NMTAP	73	96	6
NMTAP	73	120	3
NMTAP	73	144	7
NMTAP	73	168	2
NMTAP	73	192	0
NMTAP	73	216	1
NMTAP	73	240	0
NMTAP	73	264	1
NMTAP	73	288	2
NMTAP	73	288	7
EXTAP	74	0	0
EXTAP	74	0	4
NMTAP	74	48	1
NMTAP	74	72	3
NMTAP	74	96	2
EXTAP	74	144	3
EXTAP	74	144	7
NMTAP	74	192	6
NMTAP	74	216	4
NMTAP	74	240	5
EXTAP	74	288	1
EXTAP	74	288	4
EXTAP	74	336	0
EXTAP	74	336	7
EXTAP	75	0	0
EXTAP	75	0	7
NMTTP	75	48	1	E	0	M1
NMTTP	75	48	1	D	0	M1
EXTAP	75	48	7
NMTTP	75	96	2	E	0	M1
NMTTP	75	96	2	D	0	M1
EXTAP	75	96	7
NMTTP	75	144	3	E	0	M1
NMTTP	75	144	3	D	0	M1
EXTAP	75	144	7
NMTTP	75	192	4	E	0	M1
NMTTP	75	192	4	D	1	M1
BRTAP	75	192	7
NMTTP	75	240	5	E	0	M1
NMTTP	75	240	5	D	1	M1
BRTAP	75	240	7
NMTTP	75	288	6	E	0	M1
NMTTP	75	288	6	D	1	M1
BRTAP	75	288	7
BRTAP	75	336	7
NMTTP	75	336	7	E	0	M1
NMTTP	75	336	7	D	1	M1

T_REC_TAP	405
T_REC_BRK	6
T_REC_XTP	35
T_REC_BXX	12
T_REC_HLD	36
T_REC_XHO	2
T_REC_BHO	0
T_REC_BXH	0
T_REC_STR	77
T_REC_BST	2
T_REC_XST	13
T_REC_XBS	0
T_REC_TTP	31
T_REC_THO	0
T_REC_SLD	92
T_REC_BSL	3
T_REC_ALL	714
T_NUM_TAP	561
T_NUM_BRK	23
T_NUM_HLD	38
T_NUM_SLD	92
T_NUM_ALL	714
T_JUDGE_TAP	581
T_JUDGE_HLD	83
T_JUDGE_SLD	95
T_JUDGE_ALL	759
TTM_EACHPAIRS	126
TTM_SCR_TAP	280500
TTM_SCR_BRK	59800
TTM_SCR_HLD	38000
TTM_SCR_SLD	138000
TTM_SCR_ALL	516300
TTM_SCR_S	498600
TTM_SCR_SS	514000
TTM_RAT_ACV	10044

