VERSION	0.00.00	1.04.00
FES_MODE	0
BPM_DEF	137.000	137.000	137.000	137.000
MET_DEF	4	4
RESOLUTION	384
CLK_DEF	384
COMPATIBLE_CODE	MA2

BPM	0	0	137.000
MET	0	0	4	4

NMTAP	2	0	2
NMSTR	2	96	0
NMSI_	2	96	0	96	96	3
NMTAP	3	0	5
NMSTR	3	96	7
NMSI_	3	96	7	96	96	4
NMHLD	4	0	4	96
NMHLD	4	0	5	96
NMHLD	4	192	5	96
NMHLD	4	192	6	96
NMSTR	5	0	5
NMSCL	5	0	5	96	96	2
NMTAP	5	0	6
NMHLD	6	0	0	192
NMHLD	6	192	1	192
NMHLD	7	0	2	192
NMTAP	7	192	3
NMHLD	8	0	7	192
NMTAP	8	192	6
NMHLD	9	0	5	192
NMTAP	9	192	4
NMTAP	9	240	3
NMTAP	9	288	3
NMTAP	9	288	4
NMHLD	10	0	7	384
NMTAP	10	96	6
NMTAP	10	192	5
NMTAP	10	288	4
NMHLD	11	0	0	384
NMTAP	11	96	1
NMTAP	11	192	2
NMTAP	11	288	3
NMSTR	12	0	5
NMSI_	12	0	5	96	96	2
NMTAP	12	192	1
NMTAP	12	288	1
NMTAP	13	0	0
EXSTR	13	96	0
BRSI_	13	96	0	96	96	4
NMHLD	14	0	7	288
NMTAP	14	96	5
NMTAP	14	192	5
NMTAP	14	288	5
NMHLD	15	0	0	288
NMTAP	15	96	2
NMTAP	15	192	2
NMTAP	15	288	2
NMTAP	16	0	5
NMTAP	16	96	4
NMTAP	16	192	3
NMSTR	16	288	2
NMSSL	16	288	2	96	192	6
NMHLD	18	0	5	768
NMTTP	18	192	5	E	0	M1
NMTTP	18	288	6	E	0	M1
NMTTP	19	0	7	E	0	M1
NMTTP	19	96	0	E	0	M1
NMTTP	19	192	1	E	0	M1
NMHLD	20	0	2	768
NMTTP	20	192	3	E	0	M1
NMTTP	20	288	2	E	0	M1
NMTTP	21	0	1	E	0	M1
NMTTP	21	96	0	E	0	M1
NMTTP	21	192	7	E	0	M1
NMSTR	22	0	6
NMSI_	22	0	6	96	48	3
NMSTR	22	192	1
NMSI_	22	192	1	96	48	4
NMSTR	23	0	5
NMSCR	23	0	5	96	96	2
NMHLD	24	0	3	96
NMTAP	24	96	4
NMHLD	24	144	4	96
NMTAP	24	240	3
NMTAP	24	288	3
NMTAP	24	336	4
NMTAP	25	48	3
NMTAP	25	48	4
NMTAP	25	96	2
NMTAP	25	96	5
NMTAP	25	144	1
NMTAP	25	144	6
NMTAP	25	192	0
NMTAP	25	192	7
NMTAP	25	288	2
NMTAP	25	288	3
NMTAP	25	336	2
NMTAP	25	336	3
NMTAP	26	0	1
NMTAP	26	0	4
NMTAP	26	96	6
NMTAP	26	96	7
BRTAP	26	192	0
BRTAP	26	192	5
NMTAP	26	288	5
NMTAP	26	336	5
NMTAP	27	0	4
NMTAP	27	0	6
NMTAP	27	96	0
NMSTR	27	96	7
NMSI_	27	96	7	96	48	3
NMTAP	27	288	2
NMHLD	28	0	0	96
NMHLD	28	0	1	96
NMHLD	28	192	3	96
NMHLD	28	192	4	96
NMSTR	29	0	6
NMSI_	29	0	6	96	96	3
NMSTR	29	0	7
NMSI_	29	0	7	96	96	3
NMTAP	29	288	4
NMTAP	29	288	5
NMTAP	29	336	4
NMTAP	29	336	5
NMTAP	30	0	3
NMTAP	30	0	6
NMTAP	30	96	0
NMTAP	30	96	1
BRTAP	30	192	2
BRTAP	30	192	7
NMTAP	30	288	1
NMTAP	30	336	1
NMTAP	31	0	0
NMTAP	31	96	2
NMTAP	31	144	2
NMSTR	31	192	3
NMSXL	31	192	3	96	144	3
NMSXR	31	192	3	96	144	3
NMTAP	32	192	2
NMSTR	32	192	3
NMSI_	32	192	3	96	48	7
NMTAP	33	0	1
NMTAP	33	48	1
NMTAP	33	96	0
NMTAP	33	96	2
NMTAP	33	192	5
NMTAP	33	192	7
NMTAP	33	288	3
NMTAP	33	288	4
NMHLD	34	0	1	384
NMTAP	34	96	3
NMTAP	34	144	3
NMTAP	34	192	3
NMTAP	34	288	0
NMHLD	35	0	6	384
NMTAP	35	96	4
NMTAP	35	144	4
NMTAP	35	192	4
NMTAP	35	288	7
BRHLD	36	0	2	288
NMSTR	36	288	7
NMSSR	36	288	7	96	216	3
NMHLD	38	0	2	384
NMTAP	38	96	1
NMTAP	38	192	1
NMTAP	38	288	1
NMHLD	39	0	5	384
NMTAP	39	96	6
NMTAP	39	192	6
NMTAP	39	288	6
NMHLD	40	0	1	288
NMHLD	40	192	2	96
NMTAP	41	0	3
NMTAP	41	0	4
NMTAP	41	96	5
NMSTR	41	96	6
NMSV_	41	96	6	96	96	1
NMTAP	42	0	2
NMSTR	42	96	2
NMSF_	42	96	2	96	96	6
NMTAP	43	0	5
NMSTR	43	96	5
NMSF_	43	96	5	96	96	1
NMTAP	44	0	3
NMTAP	44	0	7
NMTAP	44	96	2
NMTAP	44	96	6
NMTAP	44	192	1
NMTAP	44	192	5
NMTAP	44	288	0
NMTAP	44	288	4
NMTAP	45	0	1
NMTAP	45	0	5
NMTAP	45	96	2
NMTAP	45	96	6
NMHLD	45	192	3	96
NMHLD	45	192	7	96
NMSTR	46	0	2
NMSI_	46	0	2	96	96	0
NMSTR	46	192	5
NMSI_	46	192	5	96	96	7
NMTAP	47	0	0
BXSTR	47	96	0
BRSF_	47	96	0	96	96	4
NMHLD	48	0	6	576
NMTTP	48	192	7	D	0	M1
NMTTP	48	288	7	B	0	M1
NMTHO	49	0	0	192	C	0	M1
NMTAP	50	0	6
NMTAP	50	0	7
NMTAP	50	96	6
NMTAP	50	96	7
NMTAP	50	192	0
NMTAP	50	192	1
NMSTR	50	288	0
NMSUL	50	288	0	96	192	5
NMHLD	50	288	1	384
NMHLD	52	0	3	96
NMTAP	52	96	4
NMHLD	52	144	4	96
NMTAP	52	240	3
NMTAP	52	288	3
NMTAP	52	336	4
NMTAP	53	48	3
NMTAP	53	48	4
NMTAP	53	96	2
NMTAP	53	96	5
NMTAP	53	144	1
NMTAP	53	144	6
NMTAP	53	192	0
NMTAP	53	192	7
NMTAP	53	288	4
NMTAP	53	288	5
NMTAP	53	336	4
NMTAP	53	336	5
NMTAP	54	0	3
NMTAP	54	0	6
NMTAP	54	96	0
NMTAP	54	96	1
BRTAP	54	192	2
BRTAP	54	192	7
NMTAP	54	288	2
NMTAP	54	288	3
NMTAP	54	336	2
NMTAP	54	336	3
NMTAP	55	0	1
NMHLD	55	0	4	96
NMSTR	55	96	3
NMSCL	55	96	3	96	96	0
NMSV_	55	96	3	96	96	0
NMTAP	56	0	6
NMTAP	56	0	7
NMTAP	56	96	5
NMTAP	56	144	5
NMHLD	56	192	5	192
NMTAP	56	288	4
NMTAP	56	336	3
NMTAP	57	0	2
BRSTR	57	96	0
BRSI_	57	96	0	96	48	4
BRSTR	57	96	7
BRSI_	57	96	7	96	48	3
NMTAP	57	288	2
NMTAP	57	288	3
NMTAP	57	336	2
NMTAP	57	336	3
NMTAP	58	0	1
NMTAP	58	0	4
NMTAP	58	96	6
NMTAP	58	96	7
BRTAP	58	192	0
BRTAP	58	192	5
NMTAP	58	288	2
NMTAP	58	288	7
NMTAP	59	0	5
NMTAP	59	48	5
NMTAP	59	96	3
NMTAP	59	144	3
NMSTR	59	192	4
BRSXL	59	192	4	96	144	4
BRSXR	59	192	4	96	144	4
EXSTR	60	192	4
NMSI_	60	192	4	96	48	0
NMTAP	60	192	5
NMTAP	61	0	6
NMTAP	61	48	5
NMHLD	61	96	4	96
NMTAP	61	192	1
NMTAP	61	240	2
NMTAP	61	288	3
NMHLD	62	0	0	240
NMHLD	62	0	6	576
NMTAP	62	336	2
NMHLD	63	0	2	192
NMTAP	63	288	1
NMTAP	63	288	7
NMHLD	64	0	7	96
NMTAP	64	96	5
NMHLD	64	192	0	96
NMTAP	64	288	2
NMHLD	65	0	4	96
NMHLD	65	96	5	96
NMHLD	65	192	6	96
NMSTR	65	288	7
NMSCL	65	288	7	96	240	0
NMHLD	67	0	7	96
NMTAP	67	96	0
BRTAP	67	192	1
BRTAP	67	192	6
NMTAP	67	288	3
NMTAP	67	288	4
NMHLD	68	0	2	384
NMTAP	68	96	3
NMTAP	68	192	1
NMTAP	68	288	0
NMHLD	69	0	5	288
NMTAP	69	96	4
NMTAP	69	192	6
NMTAP	69	288	7
NMHLD	70	0	1	384
NMHLD	70	144	7	240
NMTAP	71	144	1
NMTAP	71	144	5
NMTAP	71	192	1
NMTAP	71	192	5
NMTAP	71	264	2
NMTAP	71	264	6
NMTAP	71	336	3
NMTAP	71	336	7
BXHLD	72	0	3	768
NMTAP	72	0	7
NMTTP	72	96	4	B	0	M1
NMTTP	72	192	2	B	0	M1
NMTTP	72	288	6	B	0	M1
NMTTP	73	0	0	B	0	M1
NMTTP	73	96	7	D	0	M1
NMTTP	73	192	0	D	0	M1
NMTAP	74	0	7
NMTAP	74	48	7
NMTAP	74	96	3
NMTAP	74	144	3
NMTAP	74	192	5
NMTAP	74	240	5
NMTAP	74	288	2
NMTAP	74	336	2
NMTAP	75	0	6
NMTAP	75	48	6
NMTAP	75	96	0
NMTAP	75	144	0
NMTAP	75	192	4
NMSTR	75	240	4
NMSI_	75	240	4	96	48	0
NMTAP	75	288	1
NMTAP	75	336	1

T_REC_TAP	203
T_REC_BRK	10
T_REC_XTP	0
T_REC_BXX	0
T_REC_HLD	49
T_REC_XHO	0
T_REC_BHO	1
T_REC_BXH	1
T_REC_STR	24
T_REC_BST	2
T_REC_XST	2
T_REC_XBS	1
T_REC_TTP	18
T_REC_THO	1
T_REC_SLD	26
T_REC_BSL	6
T_REC_ALL	344
T_NUM_TAP	247
T_NUM_BRK	21
T_NUM_HLD	50
T_NUM_SLD	26
T_NUM_ALL	344
T_JUDGE_TAP	260
T_JUDGE_HLD	262
T_JUDGE_SLD	32
T_JUDGE_ALL	554
TTM_EACHPAIRS	70
TTM_SCR_TAP	123500
TTM_SCR_BRK	54600
TTM_SCR_HLD	50000
TTM_SCR_SLD	39000
TTM_SCR_ALL	267100
TTM_SCR_S	257050
TTM_SCR_SS	265000
TTM_RAT_ACV	10079

