VERSION	0.00.00	1.04.00
FES_MODE	0
BPM_DEF	165.000	165.000	165.000	165.000
MET_DEF	4	4
RESOLUTION	384
CLK_DEF	384
COMPATIBLE_CODE	MA2

BPM	0	0	165.000
MET	0	0	4	4

NMSTR	1	0	2
NMSCR	1	0	2	96	192	5
NMHLD	1	0	4	480
NMTAP	2	0	5
NMTAP	2	96	5
NMTAP	2	192	4
NMTAP	2	192	5
NMTAP	2	288	4
NMTAP	2	288	5
NMHLD	3	0	3	480
NMSTR	3	0	6
NMSCL	3	0	6	96	192	2
NMTAP	4	0	2
NMTAP	4	96	2
NMTAP	4	192	1
NMTAP	4	192	3
NMTAP	4	288	0
NMTAP	4	288	7
NMTAP	5	0	1
NMTAP	5	48	1
NMTAP	5	96	2
NMTAP	5	96	3
NMTAP	5	144	4
NMTAP	5	192	5
NMTAP	5	240	5
NMTAP	5	288	4
NMTAP	5	288	6
NMSTR	6	0	7
NMSCL	6	0	7	96	96	3
NMSTR	6	96	3
NMSCL	6	96	3	96	96	7
NMTAP	6	192	7
NMTAP	6	288	3
NMTAP	7	0	6
NMTAP	7	48	6
NMTAP	7	96	4
NMTAP	7	96	5
NMTAP	7	144	3
NMTAP	7	192	2
NMTAP	7	240	2
NMTAP	7	288	1
NMSTR	7	288	3
NMSCL	7	288	3	96	192	3
NMSCR	7	288	3	96	192	3
BRTAP	8	288	2
BRTAP	8	288	4
NMTAP	9	0	5
NMTAP	9	24	4
NMTAP	9	48	5
NMTAP	9	96	6
NMTAP	9	96	7
NMTAP	9	144	0
NMTAP	9	192	1
NMTAP	9	192	7
NMSTR	9	240	0
NMSI_	9	240	0	96	48	5
NMSTR	9	336	1
NMSI_	9	336	1	96	48	4
NMHLD	10	48	7	96
NMTAP	10	144	5
NMTAP	10	192	5
NMTAP	10	240	4
NMTAP	10	240	6
NMTAP	10	336	3
NMTAP	10	336	4
NMTAP	11	0	2
NMTAP	11	24	3
NMTAP	11	48	2
NMTAP	11	96	0
NMTAP	11	96	1
NMTAP	11	144	0
NMTAP	11	144	7
NMTAP	11	192	6
NMTAP	11	192	7
NMSTR	11	240	5
NMSI_	11	240	5	96	48	0
NMSTR	11	336	4
NMSI_	11	336	4	96	48	1
NMTAP	12	48	7
NMTAP	12	144	6
NMSTR	12	192	6
NMSI_	12	192	6	96	48	2
NMTAP	12	240	5
NMTAP	12	240	7
NMTAP	12	288	6
BRTAP	13	0	0
NMTAP	13	24	0
NMTAP	13	48	3
NMTAP	13	96	1
NMTAP	13	96	4
NMTAP	13	144	2
NMTAP	13	192	3
NMTAP	13	192	5
NMSTR	13	240	6
NMSCR	13	240	6	96	48	1
NMSTR	13	336	4
NMSI_	13	336	4	96	48	0
NMTAP	14	48	7
NMTAP	14	144	1
NMTAP	14	192	1
NMTAP	14	240	2
NMTAP	14	240	3
NMTAP	14	336	1
NMTAP	14	336	4
NMTAP	15	0	2
NMTAP	15	24	3
NMTAP	15	48	1
NMTAP	15	96	0
NMTAP	15	96	7
NMTAP	15	144	6
NMTAP	15	192	4
NMTAP	15	192	5
NMSTR	15	240	3
NMSCL	15	240	3	96	48	0
NMTAP	15	240	6
NMHLD	15	336	5	96
NMTAP	16	48	7
NMTAP	16	144	0
NMTAP	16	144	6
NMTAP	16	192	0
NMTAP	16	192	6
NMTAP	16	240	2
NMTAP	16	240	4
BRTAP	16	288	1
BRTAP	16	288	5
NMSTR	17	0	6
NMSI_	17	0	6	96	48	3
NMSTR	17	0	7
NMSI_	17	0	7	96	48	3
NMTAP	17	48	6
NMTAP	17	48	7
NMSTR	17	192	0
NMSI_	17	192	0	96	48	4
NMSTR	17	192	1
NMSI_	17	192	1	96	48	4
NMTAP	17	240	0
NMTAP	17	240	1
NMHLD	18	0	5	48
NMTAP	18	48	4
NMHLD	18	96	2	48
NMTAP	18	144	3
NMHLD	18	192	6	48
NMTAP	18	240	4
NMTAP	18	288	3
NMTAP	18	288	7
NMSTR	19	0	0
NMSI_	19	0	0	96	48	4
NMSTR	19	0	1
NMSCR	19	0	1	96	48	4
NMTAP	19	48	0
NMTAP	19	48	1
NMSTR	19	192	6
NMSCL	19	192	6	96	48	3
NMSTR	19	192	7
NMSI_	19	192	7	96	48	3
NMTAP	19	240	6
NMTAP	19	240	7
NMHLD	20	0	1	48
NMTAP	20	48	3
NMHLD	20	96	6	48
NMTAP	20	144	4
NMHLD	20	192	2	48
NMTAP	20	240	0
NMTAP	20	288	3
NMTAP	20	288	7
BRSTR	21	0	4
NMSI_	21	0	4	96	48	0
BRSTR	21	0	6
NMSI_	21	0	6	96	48	4
NMTAP	21	48	4
NMTAP	21	48	6
NMSTR	21	192	1
NMSI_	21	192	1	96	48	3
NMSTR	21	192	3
NMSI_	21	192	3	96	48	7
NMTAP	21	240	1
NMTAP	21	240	3
NMHLD	22	0	6	48
NMTAP	22	48	4
NMHLD	22	96	2	48
NMTAP	22	144	0
NMHLD	22	192	5	48
NMTAP	22	240	0
NMTAP	22	288	2
NMTAP	22	288	6
NMSTR	23	0	0
NMSCR	23	0	0	96	48	3
NMTAP	23	48	7
NMSTR	23	96	0
NMSCL	23	96	0	96	48	5
NMSTR	23	192	0
NMSI_	23	192	0	96	48	3
NMSTR	23	288	0
NMSI_	23	288	0	96	48	5
NMSTR	24	0	0
NMSI_	24	0	0	96	48	4
NMTAP	24	96	0
BRTAP	24	192	1
BRTAP	24	192	7
NMSTR	25	0	2
NMSXL	25	0	2	96	240	5
NMTAP	25	0	5
NMTAP	25	96	6
NMTAP	25	192	7
NMTAP	25	240	7
NMHLD	25	336	0	288
NMTAP	26	48	5
NMTAP	26	144	6
NMTAP	26	240	7
NMTAP	26	288	0
NMTAP	26	288	6
NMSTR	27	0	5
NMSXR	27	0	5	96	240	2
NMTAP	27	96	1
NMTAP	27	192	0
NMTAP	27	240	0
NMHLD	27	336	7	288
NMTAP	28	48	2
NMTAP	28	144	1
NMTAP	28	240	0
NMTAP	28	288	1
NMTAP	28	288	7
NMTAP	29	0	0
NMSTR	29	0	6
NMSXL	29	0	6	96	240	1
NMTAP	29	96	1
NMTAP	29	192	2
NMTAP	29	240	2
NMHLD	29	336	3	288
NMTAP	30	48	1
NMTAP	30	144	0
NMTAP	30	240	7
NMTAP	30	288	1
NMTAP	30	288	5
NMTAP	31	0	0
NMHLD	31	48	0	48
NMTAP	31	96	2
NMHLD	31	144	2	48
NMTAP	31	192	4
NMHLD	31	240	4	48
NMSTR	31	288	6
NMSI_	31	288	6	96	48	2
BRTAP	32	0	0
BRTAP	32	0	6
NMTAP	32	192	0
NMTAP	32	192	6
NMTAP	32	240	5
NMSTR	32	288	1
NMSUR	32	288	1	96	48	5
NMTAP	32	288	7
NMTAP	32	336	2
BRTAP	33	0	1
BRSTR	33	0	7
NMSUL	33	0	7	96	48	3
NMSV_	33	0	7	96	48	2
NMTAP	33	48	6
NMTAP	33	96	7
NMSTR	33	192	1
NMSI_	33	192	1	96	48	5
NMSTR	33	240	3
NMSCR	33	240	3	96	72	0
NMTAP	33	288	1
NMTAP	33	336	3
NMTAP	34	48	4
NMSTR	34	96	0
NMSI_	34	96	0	96	48	5
NMSTR	34	96	4
NMSI_	34	96	4	96	48	1
NMTAP	34	192	0
NMTAP	34	192	4
NMTAP	34	288	2
NMTAP	34	288	6
NMSTR	35	0	3
NMSI_	35	0	3	96	48	6
NMSI_	35	0	3	96	48	7
NMTAP	35	48	2
NMTAP	35	48	4
NMTAP	35	96	3
NMSTR	35	192	0
NMSI_	35	192	0	96	48	4
NMSTR	35	240	5
NMSCR	35	240	5	96	96	2
NMTAP	35	288	0
NMTAP	35	336	5
NMTAP	36	48	4
NMSTR	36	96	4
NMSF_	36	96	4	96	48	0
NMTAP	36	192	4
NMTAP	36	288	2
NMTAP	36	288	6
BRSTR	37	0	0
BRSI_	37	0	0	96	48	4
BRSTR	37	0	1
BRSI_	37	0	1	96	48	5
NMTAP	37	48	2
NMTAP	37	48	7
NMTAP	37	96	0
NMTAP	37	96	1
NMSTR	37	192	6
NMSI_	37	192	6	96	48	2
NMSTR	37	240	7
NMSI_	37	240	7	96	48	3
NMTAP	37	288	6
NMTAP	37	336	7
NMTAP	38	48	5
NMTAP	38	96	4
NMTAP	38	96	5
NMTAP	38	144	6
NMTAP	38	144	7
NMTAP	38	192	0
NMTAP	38	192	1
NMTAP	38	240	2
NMTAP	38	240	3
BRTAP	38	288	1
BRTAP	38	288	5
NMSTR	39	0	0
BRSUR	39	0	0	96	48	4
BRSV_	39	0	0	96	48	5
NMTAP	39	48	1
NMTAP	39	48	7
NMTAP	39	96	0
NMSTR	39	192	6
NMSI_	39	192	6	96	48	2
NMSTR	39	240	4
NMSCL	39	240	4	96	72	7
NMTAP	39	288	6
NMTAP	39	336	4
NMTAP	40	48	3
NMSTR	40	96	3
NMSI_	40	96	3	96	48	6
NMSTR	40	96	7
NMSI_	40	96	7	96	48	2
NMTAP	40	192	3
NMTAP	40	192	7
NMTAP	40	288	1
NMTAP	40	288	5
NMSTR	41	0	2
NMSI_	41	0	2	96	48	7
NMSTR	41	0	3
NMSI_	41	0	3	96	48	7
NMTAP	41	48	1
NMTAP	41	48	4
NMTAP	41	96	2
NMTAP	41	96	3
NMSTR	41	192	0
NMSUR	41	192	0	96	48	4
NMSTR	41	240	6
NMSCR	41	240	6	96	96	3
NMTAP	41	288	0
NMTAP	41	336	6
NMTAP	42	48	5
NMSTR	42	96	5
NMSF_	42	96	5	96	48	1
NMTAP	42	192	5
NMTAP	42	288	3
NMTAP	42	288	7
NMTAP	43	0	4
NMTAP	43	0	5
NMTAP	43	48	6
NMTAP	43	48	7
NMSTR	43	96	0
NMSLR	43	96	0	96	72	4
NMTAP	43	96	5
NMTAP	43	192	4
CNSI_	43	264	4	0	72	6
NMTAP	43	288	7
NMTAP	43	336	7
NMHLD	44	48	0	48
NMHLD	44	96	2	48
NMHLD	44	144	3	48
NMHLD	44	192	4	48
NMHLD	44	240	5	48
BRTAP	44	288	7
NMSTR	45	0	0
NMSCR	45	0	0	96	48	3
NMSTR	45	0	4
NMSCR	45	0	4	96	48	7
NMTAP	45	48	3
NMTAP	45	48	7
NMTAP	45	96	0
NMTAP	45	96	4
EXSTR	45	192	3
NMSV_	45	192	3	96	48	0
EXSTR	45	192	7
NMSV_	45	192	7	96	48	4
NMTAP	45	240	0
NMTAP	45	240	4
CNSI_	45	336	0	0	144	2
CNSI_	45	336	4	0	144	6
NMTAP	46	192	1
NMTAP	46	192	5
NMTAP	46	240	1
NMTAP	46	240	5
NMTAP	46	288	4
NMTAP	46	312	2
NMTAP	46	336	5
NMTAP	46	360	3
BRTAP	47	0	7
NMSTR	48	0	0
NMSV_	48	0	0	96	72	5
EXHLD	48	0	7	672
CNSI_	48	168	5	0	48	7
CNSV_	48	216	7	0	72	4
NMTTP	49	0	5	E	0	M1
NMTTP	49	96	6	E	0	M1
NMTTP	49	192	7	E	0	M1
NMTTP	49	288	0	C	0	M1
NMHLD	50	0	0	576
NMSTR	50	0	5
NMSI_	50	0	5	96	96	2
CNSI_	50	192	2	0	48	4
CNSI_	50	240	4	0	48	1
NMTTP	51	0	1	E	0	M1
NMTTP	51	96	2	E	0	M1
NMTTP	51	192	3	E	0	M1
NMTAP	51	288	1
NMTAP	51	288	4
NMTAP	52	0	2
NMTAP	52	48	3
NMTAP	52	96	1
NMTAP	52	96	4
NMTAP	52	144	2
NMTAP	52	192	3
NMTAP	52	240	2
NMSTR	52	288	1
NMSLL	52	288	1	96	120	2
NMTAP	52	288	4
NMTAP	53	0	4
NMTAP	53	96	3
CNSI_	53	120	2	0	72	6
NMTAP	53	192	3
NMTAP	53	288	4
NMTAP	53	288	7
NMTAP	54	0	5
NMTAP	54	48	4
NMTAP	54	96	3
NMTAP	54	96	6
NMTAP	54	144	5
NMTAP	54	192	4
NMTAP	54	240	5
NMSTR	54	288	4
NMSXR	54	288	4	96	192	1
NMSTR	54	288	6
NMSXR	54	288	6	96	192	3
BRTAP	55	288	0
BRTAP	55	288	4
NMTAP	56	0	6
NMTAP	56	24	7
NMTAP	56	48	6
NMTAP	56	96	0
NMTAP	56	96	5
NMTAP	56	144	1
NMTAP	56	168	3
NMTAP	56	192	1
NMTAP	56	216	3
NMTAP	56	240	2
NMTAP	56	288	3
NMTAP	56	288	4
NMTAP	56	336	4
NMTAP	56	336	5
NMTAP	57	0	6
NMTAP	57	24	7
NMTAP	57	48	6
NMTAP	57	96	1
NMTAP	57	120	0
NMTAP	57	144	1
NMSTR	57	192	2
NMSCR	57	192	2	96	48	5
NMTAP	57	192	7
NMTAP	57	240	1
NMTAP	57	240	6
NMTAP	57	288	2
NMTAP	57	288	7
NMTAP	58	0	4
NMTAP	58	0	6
NMTAP	58	48	5
NMTAP	58	72	4
NMTAP	58	96	5
NMTAP	58	144	2
NMTAP	58	168	3
NMTAP	58	192	2
NMTAP	58	240	0
NMTAP	58	240	1
NMTAP	58	288	0
NMTAP	58	288	1
NMTAP	58	336	2
NMTAP	58	336	7
NMTAP	59	0	6
NMTAP	59	24	3
NMTAP	59	48	5
NMTAP	59	72	4
NMTAP	59	96	6
NMTAP	59	120	7
NMSTR	59	144	5
NMSI_	59	144	5	96	48	0
NMSTR	59	192	0
NMSI_	59	192	0	96	48	4
NMSI_	59	192	0	96	48	5
NMTAP	59	192	4
EXTAP	60	0	3
EXTAP	60	0	6
NMTAP	60	48	5
NMTAP	60	72	4
NMTAP	60	96	6
NMTAP	60	144	2
NMTAP	60	168	3
NMTAP	60	192	1
NMTAP	60	240	5
NMTAP	60	264	4
NMTAP	60	288	6
NMTAP	60	336	0
NMTAP	60	336	7
NMTAP	61	0	1
NMTAP	61	24	2
NMTAP	61	48	3
NMTAP	61	72	4
NMTAP	61	96	7
NMTAP	61	120	6
NMTAP	61	144	5
NMTAP	61	168	4
NMSTR	61	192	1
NMSI_	61	192	1	96	48	4
NMSTR	61	192	3
NMSI_	61	192	3	96	48	7
NMTAP	61	240	0
BRTAP	61	288	1
BRTAP	61	288	3
NMTAP	62	0	3
NMTAP	62	0	6
NMTAP	62	48	5
NMTAP	62	72	4
NMTAP	62	96	5
NMTAP	62	144	2
NMTAP	62	168	3
NMTAP	62	192	2
NMTAP	62	216	3
NMTAP	62	240	1
NMTAP	62	288	6
NMTAP	62	288	7
NMTAP	62	336	0
NMTAP	62	336	5
NMTAP	63	0	6
NMTAP	63	24	7
NMTAP	63	48	5
NMTAP	63	96	1
NMTAP	63	120	3
NMTAP	63	144	2
NMTAP	63	168	4
NMSTR	63	192	3
NMSI_	63	192	3	96	48	7
NMTAP	63	216	5
NMTAP	63	240	4
NMTAP	63	288	3
NMTAP	63	288	6
NMTAP	64	0	6
NMTAP	64	24	0
NMTAP	64	48	6
NMTAP	64	96	1
NMTAP	64	96	5
NMTAP	64	144	2
NMTAP	64	168	4
NMTAP	64	192	3
NMTAP	64	240	4
NMTAP	64	240	5
NMTAP	64	288	6
NMTAP	64	288	7
NMTAP	64	336	0
NMTAP	64	336	5
NMTAP	65	0	1
NMTAP	65	24	4
NMTAP	65	48	2
NMTAP	65	72	3
NMTAP	65	96	1
NMTAP	65	120	0
NMSTR	65	144	2
BRSI_	65	144	2	96	48	7
NMTAP	65	192	3
NMSTR	65	192	7
NMSI_	65	192	7	96	48	2
NMSI_	65	192	7	96	48	3
NMTAP	66	0	1
NMTAP	66	0	4
NMTAP	66	48	2
NMTAP	66	72	3
NMTAP	66	96	1
NMTAP	66	144	6
NMTAP	66	168	7
NMTAP	66	192	5
NMTAP	66	240	0
NMTAP	66	240	4
NMTAP	66	288	1
NMTAP	66	288	5
NMTAP	66	336	2
NMTAP	66	336	6
NMTAP	67	0	3
NMTAP	67	0	7
NMTAP	67	24	2
NMTAP	67	48	1
NMTAP	67	72	0
NMTAP	67	96	6
NMTAP	67	96	7
NMTAP	67	120	5
NMTAP	67	144	4
NMTAP	67	168	3
NMSTR	67	192	0
BRSF_	67	192	0	96	48	4
NMTAP	67	192	2
NMTAP	67	240	0
NMTAP	67	288	0
NMSTR	68	0	2
NMSI_	68	0	2	96	48	7
NMSTR	68	0	6
NMSI_	68	0	6	96	48	3
NMTAP	68	48	3
NMTAP	68	48	7
NMTAP	68	96	2
NMTAP	68	96	6
NMSTR	68	192	0
BRSV_	68	192	0	96	48	3
NMSTR	68	192	4
NMSV_	68	192	4	96	48	7
NMTAP	68	240	1
NMTAP	68	240	5
CNSCL	68	336	3	0	144	0
CNSCL	68	336	7	0	144	4
NMTAP	69	192	0
NMTAP	69	192	4
NMTTP	69	288	0	C	1	M1
NMTTP	69	288	1	B	0	M1
NMTTP	69	288	1	A	0	M1
NMTTP	69	288	5	B	0	M1
NMTTP	69	288	5	A	0	M1
NMTAP	70	0	6
NMTAP	70	24	7
NMTAP	70	48	6
NMTAP	70	96	0
NMTAP	70	96	5
NMTAP	70	144	6
NMTAP	70	192	2
NMTAP	70	192	7
NMSTR	70	240	1
NMSI_	70	240	1	96	48	4
NMSTR	70	336	0
NMSI_	70	336	0	96	48	5
NMTAP	70	336	1
NMTAP	71	48	0
NMSTR	71	48	3
NMSI_	71	48	3	96	48	7
NMTAP	71	144	3
NMTAP	71	144	6
NMTAP	71	192	6
NMTAP	71	240	0
NMTAP	71	240	5
NMTAP	71	336	2
NMTAP	71	336	3
NMTAP	72	0	2
NMTAP	72	24	3
NMTAP	72	48	1
NMTAP	72	96	0
NMTAP	72	96	7
NMTAP	72	144	6
NMTAP	72	192	4
NMTAP	72	192	5
NMSTR	72	240	6
NMSCR	72	240	6	96	48	1
NMSTR	72	336	4
NMSI_	72	336	4	96	48	0
NMTAP	72	336	6
NMTAP	73	48	4
NMHLD	73	48	7	96
NMTAP	73	144	1
NMSTR	73	192	2
NMSCL	73	192	2	96	48	7
NMSTR	73	192	6
NMSCL	73	192	6	96	48	3
NMTAP	73	240	0
NMTAP	73	240	4
NMTAP	73	288	2
NMTAP	73	288	6
BRTAP	74	0	0
NMTAP	74	24	0
NMTAP	74	48	3
NMTAP	74	96	1
NMTAP	74	96	4
NMTAP	74	144	2
NMTAP	74	192	3
NMTAP	74	192	6
NMSTR	74	240	5
NMSCR	74	240	5	96	48	0
NMSTR	74	336	4
NMSCL	74	336	4	96	48	1
NMTAP	74	336	5
NMTAP	75	48	4
NMSTR	75	48	7
NMSV_	75	48	7	96	48	2
NMTAP	75	144	0
NMTAP	75	144	7
NMTAP	75	192	1
NMSTR	75	240	1
NMSI_	75	240	1	96	48	6
NMTAP	75	336	1
NMTAP	75	336	3
NMTAP	76	0	4
NMTAP	76	24	4
NMTAP	76	48	7
NMTAP	76	96	0
NMTAP	76	96	5
NMTAP	76	144	1
NMTAP	76	192	2
NMTAP	76	192	6
NMSTR	76	240	4
NMSI_	76	240	4	96	48	1
NMTAP	76	240	7
NMTAP	76	336	4
NMSTR	76	336	6
NMSI_	76	336	6	96	48	3
NMTAP	77	48	6
NMTAP	77	48	7
NMTAP	77	144	0
NMTAP	77	144	4
NMTAP	77	192	1
NMTAP	77	204	2
NMTAP	77	216	3
NMTAP	77	228	4
NMTAP	77	240	5
NMTAP	77	252	6
NMTAP	77	264	7
NMTAP	77	276	0
NMTTP	77	288	0	C	1	M1
BRTAP	77	288	1
NMSTR	78	0	0
NMSCL	78	0	0	96	192	1
NMHLD	79	0	2	96
NMHLD	79	96	3	96
NMHLD	79	192	4	96
NMHLD	79	288	5	96
NMSTR	80	0	4
NMSUL	80	0	4	96	192	3
NMHLD	81	0	5	96
NMHLD	81	96	4	96
NMHLD	81	192	3	96
BRTAP	81	288	2

T_REC_TAP	464
T_REC_BRK	21
T_REC_XTP	2
T_REC_BXX	0
T_REC_HLD	33
T_REC_XHO	1
T_REC_BHO	0
T_REC_BXH	0
T_REC_STR	89
T_REC_BST	5
T_REC_XST	2
T_REC_XBS	0
T_REC_TTP	13
T_REC_THO	0
T_REC_SLD	95
T_REC_BSL	7
T_REC_ALL	732
T_NUM_TAP	570
T_NUM_BRK	33
T_NUM_HLD	34
T_NUM_SLD	95
T_NUM_ALL	732
T_JUDGE_TAP	596
T_JUDGE_HLD	101
T_JUDGE_SLD	102
T_JUDGE_ALL	799
TTM_EACHPAIRS	158
TTM_SCR_TAP	285000
TTM_SCR_BRK	85800
TTM_SCR_HLD	34000
TTM_SCR_SLD	142500
TTM_SCR_ALL	547300
TTM_SCR_S	527700
TTM_SCR_SS	544000
TTM_RAT_ACV	10060

