VERSION	0.00.00	1.04.00
FES_MODE	0
BPM_DEF	165.000	165.000	165.000	165.000
MET_DEF	4	4
RESOLUTION	384
CLK_DEF	384
COMPATIBLE_CODE	MA2

BPM	0	0	165.000
MET	0	0	4	4

NMSTR	1	0	3
NMSCL	1	0	3	96	288	0
NMTAP	2	0	7
NMTAP	2	96	7
NMHLD	2	192	7	192
NMSTR	3	0	0
NMSCR	3	0	0	96	288	3
NMTAP	4	0	6
NMTAP	4	96	6
NMHLD	4	192	3	96
NMHLD	4	192	5	96
NMTAP	5	0	4
NMTAP	5	96	3
NMTAP	5	192	2
NMHLD	5	288	2	384
NMTAP	6	0	3
NMTAP	6	96	3
NMTAP	6	192	4
NMTAP	6	288	3
NMTAP	7	0	3
NMTAP	7	0	4
NMTAP	7	96	4
NMTAP	7	96	5
NMTAP	7	192	3
NMTAP	7	192	4
NMTAP	7	288	2
NMTAP	7	288	3
NMSTR	8	0	3
NMSI_	8	0	3	96	96	7
NMSTR	8	0	4
NMSI_	8	0	4	96	96	0
BXTAP	8	288	1
BXTAP	8	288	6
NMHLD	9	0	2	96
NMTAP	9	96	3
NMTAP	9	192	5
NMTAP	9	240	4
NMTAP	9	240	5
NMTAP	9	336	6
NMTAP	9	336	7
NMTAP	10	48	0
NMTAP	10	48	1
NMTAP	10	144	2
NMTAP	10	192	2
NMTAP	10	240	3
NMTAP	10	336	5
NMHLD	11	0	5	96
NMTAP	11	96	4
NMTAP	11	192	2
NMTAP	11	240	2
NMTAP	11	240	3
NMTAP	11	336	0
NMTAP	11	336	1
NMTAP	12	48	6
NMTAP	12	48	7
NMTAP	12	144	5
NMTAP	12	192	5
NMTAP	12	240	4
NMTAP	12	288	6
EXTAP	13	0	3
EXTAP	13	0	7
NMTAP	13	96	2
NMTAP	13	192	1
NMTAP	13	240	0
NMTAP	13	240	1
NMTAP	13	336	2
NMTAP	13	336	3
NMTAP	14	48	4
NMTAP	14	48	5
NMTAP	14	144	6
NMTAP	14	192	6
NMTAP	14	240	7
NMTAP	14	336	1
NMTAP	14	336	4
NMTAP	15	0	1
NMTAP	15	0	4
NMTAP	15	96	3
NMTAP	15	96	6
NMTAP	15	192	5
NMTAP	15	240	4
NMTAP	15	240	5
NMTAP	15	336	3
EXHLD	15	336	6	240
NMTAP	16	192	7
BRTAP	16	288	1
BRTAP	16	288	7
NMTAP	17	0	5
NMHLD	17	96	6	480
NMTAP	17	192	3
NMTAP	17	240	3
NMTAP	17	288	3
NMTAP	18	0	5
NMTAP	18	96	3
NMTAP	18	192	4
NMTAP	18	240	4
NMTAP	18	288	3
NMTAP	18	288	5
NMTAP	19	0	2
NMHLD	19	96	1	480
NMTAP	19	192	3
NMTAP	19	240	3
NMTAP	19	288	3
NMTAP	20	0	2
NMTAP	20	96	4
NMTAP	20	192	3
NMTAP	20	240	3
NMTAP	20	288	2
NMTAP	20	288	4
NMTAP	21	0	5
NMHLD	21	96	6	480
NMTAP	21	192	4
NMTAP	21	240	4
NMTAP	21	288	4
NMTAP	22	0	5
NMTAP	22	96	3
NMTAP	22	192	4
NMTAP	22	240	4
NMTAP	22	288	3
NMTAP	22	288	5
NMHLD	23	0	2	96
NMHLD	23	96	1	96
NMHLD	23	192	0	96
NMTAP	23	288	7
NMTAP	24	0	0
NMTAP	24	0	6
NMTAP	24	96	0
NMTAP	24	96	6
EXTAP	24	192	1
EXTAP	24	192	5
NMSTR	25	0	6
NMSCL	25	0	6	96	192	2
NMTAP	25	288	1
NMSTR	26	0	1
NMSCR	26	0	1	96	192	5
NMTAP	26	288	6
NMSTR	27	0	7
NMSUL	27	0	7	96	192	2
NMTAP	27	288	1
NMTTP	28	0	1	E	0	M1
NMTTP	28	96	0	C	0	M1
NMTTP	28	192	5	E	0	M1
NMTTP	28	192	6	E	0	M1
NMSTR	29	0	6
NMSCR	29	0	6	96	192	1
NMTAP	29	288	2
NMSTR	30	0	2
NMSCR	30	0	2	96	192	5
NMTAP	30	288	6
NMHLD	31	0	7	384
NMTHO	31	192	0	192	C	1	M1
EXTAP	32	192	0
EXTAP	32	192	7
BRTAP	33	0	0
BRSTR	33	0	1
NMSI_	33	0	1	96	48	4
NMHLD	33	192	6	96
NMTAP	33	288	7
NMTAP	33	336	7
EXTAP	34	48	0
EXTAP	34	48	1
NMTAP	34	144	2
NMTAP	34	144	3
NMTAP	34	240	5
NMTAP	34	288	4
NMTAP	34	288	5
NMSTR	35	0	6
NMSI_	35	0	6	96	48	3
NMTAP	35	0	7
NMHLD	35	192	1	96
NMTAP	35	288	0
EXTAP	35	336	0
NMTAP	36	48	6
NMTAP	36	48	7
NMTAP	36	144	4
NMTAP	36	144	5
NMTAP	36	240	2
NMTAP	36	288	2
NMTAP	36	336	3
EXSTR	37	0	1
NMSI_	37	0	1	96	48	4
EXTAP	37	192	6
EXTAP	37	192	7
NMTAP	37	288	4
NMTAP	37	288	5
NMTAP	37	336	4
NMTAP	37	336	5
NMTAP	38	48	2
NMTAP	38	96	1
NMTAP	38	96	3
NMTAP	38	192	7
NMTAP	38	240	0
BRTAP	38	288	1
BRTAP	38	288	6
BRSTR	39	0	6
NMSI_	39	0	6	96	48	3
BRSTR	39	0	7
NMSI_	39	0	7	96	48	3
NMHLD	39	192	1	96
NMTAP	39	288	0
NMTAP	39	336	0
EXTAP	40	48	6
EXTAP	40	48	7
NMTAP	40	144	4
NMTAP	40	144	5
NMTAP	40	240	2
NMTAP	40	288	2
NMTAP	40	288	3
NMSTR	41	0	0
NMSI_	41	0	0	96	48	4
NMSTR	41	0	1
NMSI_	41	0	1	96	48	4
NMHLD	41	192	6	96
NMTAP	41	288	7
EXTAP	41	336	7
NMTAP	42	48	0
NMTAP	42	48	1
NMTAP	42	144	2
NMTAP	42	144	3
NMTAP	42	240	5
NMTAP	42	288	5
NMTAP	42	336	4
EXSTR	43	0	6
NMSI_	43	0	6	96	48	2
NMSI_	43	0	6	96	48	3
NMTAP	43	192	0
NMTAP	43	288	6
NMTAP	43	288	7
NMTAP	43	336	6
NMTAP	43	336	7
NMTAP	44	48	4
NMTAP	44	48	5
NMSTR	44	96	4
NMSCL	44	96	4	96	96	1
NMSTR	44	96	5
NMSCR	44	96	5	96	96	0
NMTAP	45	0	2
NMTAP	45	0	7
NMTAP	45	48	2
NMTAP	45	48	7
NMTAP	45	96	2
NMTAP	45	96	7
NMTAP	45	192	0
NMSTR	45	192	5
BRSCR	45	192	5	96	288	3
BRTAP	46	288	1
BRTAP	46	288	7
NMTTP	47	0	3	B	0	M1
NMTTP	47	0	4	B	1	M1
NMTTP	47	0	5	B	0	M1
NMHLD	48	0	6	1440
NMSTR	48	0	7
NMSI_	48	0	7	96	144	3
NMTTP	49	0	4	B	0	M1
NMTTP	49	0	5	B	0	M1
NMTTP	49	192	6	B	0	M1
NMTTP	49	192	7	B	0	M1
NMSTR	50	0	0
NMSCR	50	0	0	96	144	3
NMTTP	51	0	5	E	0	M1
NMTTP	51	96	6	E	0	M1
NMTTP	51	192	7	E	0	M1
EXTAP	52	0	0
EXTAP	52	0	7
NMTAP	52	96	1
NMTAP	52	144	1
NMTAP	52	192	3
NMSTR	52	288	2
NMSI_	52	288	2	96	96	4
NMTAP	52	288	4
CNSI_	53	96	4	0	96	1
CNSI_	53	192	1	0	96	7
NMTAP	54	0	6
NMTAP	54	0	7
NMTAP	54	96	5
NMTAP	54	144	5
NMTAP	54	192	4
NMTAP	54	288	2
NMSTR	54	288	3
NMSF_	54	288	3	96	144	7
BXTAP	55	288	1
BXTAP	55	288	5
NMSTR	56	0	3
NMSI_	56	0	3	96	48	0
NMSTR	56	0	7
NMSI_	56	0	7	96	48	4
EXTAP	56	192	1
EXTAP	56	192	5
NMTAP	56	288	3
NMTAP	56	288	7
NMTAP	56	336	3
NMHLD	56	336	7	96
NMHLD	57	48	5	96
NMTAP	57	144	3
EXTAP	57	240	0
EXTAP	57	240	1
EXTAP	57	288	0
EXTAP	57	288	1
NMSTR	58	0	2
NMSI_	58	0	2	96	48	7
NMSTR	58	0	7
NMSI_	58	0	7	96	48	4
EXTAP	58	192	0
EXTAP	58	192	5
NMTAP	58	288	2
NMTAP	58	288	7
BRTAP	58	336	2
BRTAP	58	336	7
NMTAP	59	48	0
NMTAP	59	48	1
NMTAP	59	144	2
NMTAP	59	144	3
NMTAP	59	240	4
NMTAP	59	240	6
NMTAP	59	288	4
NMTAP	59	288	6
NMSTR	60	0	3
NMSI_	60	0	3	96	48	0
NMSTR	60	0	7
NMSI_	60	0	7	96	48	4
EXTAP	60	192	1
EXTAP	60	192	5
NMTAP	60	288	2
NMTAP	60	288	6
NMTAP	60	336	2
NMHLD	60	336	6	96
NMTAP	61	48	7
NMTAP	61	96	7
NMTAP	61	192	0
NMTAP	61	192	1
NMTAP	61	240	0
NMTAP	61	240	1
BXTAP	61	288	2
BXTAP	61	288	7
NMSTR	62	0	1
NMSI_	62	0	1	96	48	7
NMSTR	62	0	6
NMSI_	62	0	6	96	48	3
EXTAP	62	192	0
EXTAP	62	192	4
NMTAP	62	288	1
NMTAP	62	288	5
NMTAP	62	336	1
NMHLD	62	336	5	96
NMTAP	63	48	4
NMTAP	63	144	6
NMTAP	63	144	7
NMTAP	63	240	0
NMTAP	63	240	5
NMTAP	63	288	0
NMTAP	63	288	5
NMSTR	64	0	1
NMSI_	64	0	1	96	48	4
NMSTR	64	0	6
NMSI_	64	0	6	96	48	0
EXTAP	64	192	3
EXTAP	64	192	7
NMTAP	64	288	1
NMTAP	64	288	5
NMHLD	64	336	1	96
NMTAP	64	336	5
NMTAP	65	48	0
NMTAP	65	144	6
NMTAP	65	144	7
NMTAP	65	240	0
NMTAP	65	240	5
NMTAP	65	288	0
NMTAP	65	288	5
NMTAP	66	0	2
NMTAP	66	48	2
NMTAP	66	96	1
NMTAP	66	96	3
NMTAP	66	192	6
NMTAP	66	192	7
NMTAP	66	288	0
NMTAP	66	288	1
NMTAP	66	336	0
NMTAP	66	336	1
NMTAP	67	48	2
NMTAP	67	48	7
NMTAP	67	96	2
NMSTR	67	96	7
NMSCL	67	96	7	96	96	2
NMTAP	68	0	0
NMTAP	68	48	0
NMTAP	68	96	0
NMSTR	68	192	1
BRSI_	68	192	1	96	48	3
NMHLD	68	192	7	96
CNSCR	68	336	3	0	240	0
BXTAP	69	288	1
BXTAP	69	288	5
EXHLD	70	0	2	96
NMHLD	70	96	4	96
NMTAP	70	192	6
NMTAP	70	240	6
NMTAP	70	336	5
NMTAP	70	336	7
NMTAP	71	48	0
NMTAP	71	48	4
NMTAP	71	144	1
NMTAP	71	192	1
NMTAP	71	240	3
NMTAP	71	336	2
NMTAP	71	336	6
NMTAP	72	0	2
NMHLD	72	0	6	96
NMHLD	72	96	4	96
NMTAP	72	192	2
NMTAP	72	240	2
NMTAP	72	336	1
NMTAP	72	336	3
NMTAP	73	48	0
NMTAP	73	48	7
NMTAP	73	144	5
NMTAP	73	192	5
NMTAP	73	240	4
BRTAP	73	288	7
NMHLD	74	0	1	96
NMHLD	74	96	3	96
NMTAP	74	192	5
NMTAP	74	240	5
NMTAP	74	336	4
NMTAP	74	336	6
NMTAP	75	48	0
NMTAP	75	48	7
NMTAP	75	144	2
NMTAP	75	192	2
NMTAP	75	240	3
NMTAP	75	336	2
NMTAP	75	336	4
NMHLD	76	0	2	96
NMTAP	76	0	4
NMHLD	76	96	0	96
NMTAP	76	192	7
NMTAP	76	240	7
NMTAP	76	336	4
NMTAP	76	336	6
NMTAP	77	48	2
NMTAP	77	48	4
NMTAP	77	144	2
NMTAP	77	192	2
NMTAP	77	240	1
NMTAP	77	240	3
BRSTR	77	288	0
NMSI_	77	288	0	96	96	2
BRTAP	77	288	4
CNSI_	78	96	2	0	96	4
CNSI_	78	192	4	0	96	6
NMTTP	79	0	7	E	0	M1
NMTTP	79	96	0	C	0	M1
NMTTP	79	192	3	E	0	M1
NMTTP	79	288	4	E	0	M1
NMTHO	80	0	0	384	C	0	M1
NMTTP	80	0	5	B	0	M1
NMTTP	80	0	6	E	0	M1
NMSTR	81	0	7
NMSSR	81	0	7	96	192	3

T_REC_TAP	271
T_REC_BRK	11
T_REC_XTP	30
T_REC_BXX	8
T_REC_HLD	31
T_REC_XHO	2
T_REC_BHO	0
T_REC_BXH	0
T_REC_STR	32
T_REC_BST	4
T_REC_XST	2
T_REC_XBS	0
T_REC_TTP	20
T_REC_THO	2
T_REC_SLD	37
T_REC_BSL	2
T_REC_ALL	452
T_NUM_TAP	355
T_NUM_BRK	25
T_NUM_HLD	35
T_NUM_SLD	37
T_NUM_ALL	452
T_JUDGE_TAP	378
T_JUDGE_HLD	147
T_JUDGE_SLD	39
T_JUDGE_ALL	564
TTM_EACHPAIRS	121
TTM_SCR_TAP	177500
TTM_SCR_BRK	65000
TTM_SCR_HLD	35000
TTM_SCR_SLD	55500
TTM_SCR_ALL	333000
TTM_SCR_S	320600
TTM_SCR_SS	330500
TTM_RAT_ACV	10075

