VERSION	0.00.00	1.04.00
FES_MODE	0
BPM_DEF	165.000	165.000	165.000	165.000
MET_DEF	4	4
RESOLUTION	384
CLK_DEF	384
COMPATIBLE_CODE	MA2

BPM	0	0	165.000
MET	0	0	4	4

NMSTR	1	0	6
NMSI_	1	0	6	96	288	3
NMSTR	3	0	1
NMSI_	3	0	1	96	288	5
NMSTR	5	0	6
NMSI_	5	0	6	96	288	2
NMSTR	7	0	1
NMSUR	7	0	1	96	480	4
NMTAP	9	0	5
NMTAP	9	96	5
NMTAP	9	192	5
NMTAP	10	0	6
NMTAP	10	96	6
NMTAP	10	192	6
NMTAP	11	0	7
NMTAP	11	96	7
NMTAP	11	192	7
NMTAP	12	0	0
NMTAP	12	0	1
NMTAP	12	192	0
NMTAP	12	192	1
NMTAP	13	0	2
NMTAP	13	96	2
NMTAP	13	192	2
NMTAP	14	0	1
NMTAP	14	96	1
NMTAP	14	192	1
NMTAP	15	0	0
NMTAP	15	96	0
NMTAP	15	192	0
NMTAP	16	0	6
NMTAP	16	0	7
BXTAP	16	192	6
BXTAP	16	192	7
NMTAP	17	0	5
NMTAP	17	96	5
NMTAP	17	192	4
NMTAP	17	192	5
NMTAP	18	0	6
NMTAP	18	96	6
NMTAP	18	192	6
NMTAP	18	192	7
NMTAP	19	0	0
NMTAP	19	96	0
NMTAP	19	192	0
NMTAP	19	192	1
NMTAP	20	0	2
NMTAP	20	0	3
NMTAP	20	96	2
NMTAP	20	96	3
NMTAP	20	192	2
NMTAP	20	192	3
NMTAP	21	0	2
NMTAP	21	96	2
NMTAP	21	192	2
NMTAP	21	192	3
NMTAP	22	0	1
NMTAP	22	96	1
NMTAP	22	192	0
NMTAP	22	192	1
NMTAP	23	0	7
NMTAP	23	96	7
NMTAP	23	192	6
NMTAP	23	192	7
NMTAP	24	0	4
NMTAP	24	0	5
NMTAP	24	96	4
NMTAP	24	96	5
NMTAP	24	192	4
NMTAP	24	192	5
NMHLD	25	0	5	192
NMHLD	25	192	4	192
NMHLD	26	0	3	192
NMTAP	26	192	2
NMHLD	27	0	2	192
NMHLD	27	192	3	192
NMHLD	28	0	4	192
NMTAP	28	192	5
NMHLD	29	0	6	192
NMHLD	29	192	5	192
NMHLD	30	0	4	192
NMTAP	30	192	3
NMHLD	31	0	1	192
NMHLD	31	192	2	192
NMTAP	32	0	3
NMTAP	32	192	3
NMTAP	32	192	4
EXTAP	33	0	2
NMTAP	33	96	2
NMTAP	33	192	1
NMTAP	33	288	1
NMTAP	34	0	0
NMTAP	34	96	0
NMTAP	34	192	6
NMTAP	34	192	7
NMTAP	35	0	5
NMTAP	35	96	5
NMTAP	35	192	6
NMTAP	35	288	6
NMTAP	36	0	7
NMTAP	36	96	7
NMTAP	36	192	0
NMTAP	36	192	1
NMHLD	37	0	1	192
NMTAP	37	192	0
NMHLD	38	0	6	192
NMTAP	38	192	7
NMTAP	39	0	5
NMTAP	39	96	5
NMTAP	39	192	6
NMTAP	39	288	6
NMTAP	40	0	7
NMTAP	40	96	7
NMTAP	40	192	0
NMTAP	40	192	1
NMTAP	41	0	2
NMTAP	41	96	2
NMTAP	41	192	1
NMTAP	41	288	1
NMTAP	42	0	0
NMTAP	42	96	0
NMTAP	42	192	6
NMTAP	42	192	7
NMTAP	43	0	6
NMTAP	43	96	6
NMTAP	43	192	5
NMTAP	43	288	5
NMTAP	44	0	4
NMTAP	44	96	4
NMTAP	44	192	2
NMTAP	44	192	3
NMTAP	45	0	1
NMTAP	45	96	1
NMTAP	45	192	2
NMTAP	45	288	2
NMTAP	46	0	3
NMTAP	46	96	3
NMTAP	46	192	4
NMTAP	46	192	5
NMHLD	47	0	3	192
NMHLD	47	0	4	192
NMTTP	48	0	2	B	0	L1
NMTTP	48	0	3	B	0	L1
NMTTP	48	192	0	B	0	L1
NMTTP	48	192	1	B	0	L1
NMTTP	49	0	6	B	0	L1
NMTTP	49	0	7	B	0	L1
NMTTP	49	192	4	B	0	L1
NMTTP	49	192	5	B	0	L1
NMTTP	50	0	2	B	0	L1
NMTTP	50	0	3	E	0	L1
NMTTP	50	192	0	B	0	L1
NMTTP	50	192	1	E	0	L1
NMTTP	51	0	6	B	0	L1
NMTTP	51	0	7	E	0	L1
NMTTP	51	192	4	B	0	L1
NMTTP	51	192	5	E	0	L1
NMTTP	52	0	1	B	0	L1
NMTTP	52	96	2	B	0	L1
NMTTP	52	192	3	B	0	L1
NMTTP	53	0	6	B	0	L1
NMTTP	53	96	5	B	0	L1
NMTTP	53	192	4	B	0	L1
NMTTP	54	0	1	B	0	L1
NMTTP	54	96	2	B	0	L1
NMTTP	54	192	3	B	0	L1
NMTTP	54	288	4	B	0	L1
NMTTP	55	0	0	C	1	L1
EXTAP	56	0	6
EXTAP	56	96	6
NMTAP	56	192	6
NMTAP	56	192	7
NMTAP	56	288	6
NMTAP	56	288	7
NMTAP	57	0	0
NMTAP	57	96	0
NMTAP	57	192	0
NMTAP	57	192	1
NMTAP	58	0	2
NMTAP	58	96	2
NMTAP	58	192	0
NMTAP	58	192	1
NMTAP	58	288	0
NMTAP	58	288	1
NMTAP	59	0	7
NMTAP	59	96	7
NMTAP	59	192	6
NMTAP	59	192	7
NMHLD	60	0	6	192
NMTAP	60	192	7
NMHLD	61	0	1	192
NMTAP	61	192	0
NMTAP	62	0	1
NMTAP	62	96	1
NMTAP	62	192	1
NMTAP	62	288	0
NMTAP	62	288	1
NMTAP	63	0	2
NMTAP	63	96	2
NMTAP	63	192	2
NMTAP	63	288	2
NMTAP	63	288	3
NMTAP	64	0	4
NMTAP	64	96	4
NMTAP	64	192	4
NMTAP	64	288	4
NMTAP	64	288	5
NMTAP	65	0	6
NMTAP	65	0	7
NMTAP	65	96	6
NMTAP	65	96	7
NMTAP	65	192	6
NMTAP	65	192	7
NMTAP	66	0	6
NMTAP	66	96	6
NMTAP	66	192	6
NMTAP	66	288	6
NMTAP	66	288	7
NMTAP	67	0	5
NMTAP	67	96	5
NMTAP	67	192	5
NMTAP	67	288	4
NMTAP	67	288	5
NMTAP	68	0	3
NMTAP	68	96	3
NMTAP	68	192	3
NMTAP	68	288	2
NMTAP	68	288	3
NMTAP	69	0	0
NMTAP	69	0	1
NMTAP	69	96	0
NMTAP	69	96	1
NMTAP	69	192	0
NMTAP	69	192	1
NMTAP	70	0	0
NMTAP	70	96	1
NMTAP	70	192	2
NMTAP	70	288	3
NMTAP	71	0	4
NMTAP	71	96	5
NMTAP	71	192	6
NMTAP	71	192	7
NMTAP	72	0	7
NMTAP	72	96	6
NMTAP	72	192	5
NMTAP	72	288	4
NMTAP	73	0	3
NMTAP	73	96	2
NMTAP	73	192	0
NMTAP	73	192	1
NMTAP	74	0	0
NMTAP	74	96	1
NMTAP	74	192	2
NMTAP	74	288	3
NMTAP	75	0	4
NMTAP	75	96	5
NMTAP	75	192	6
NMTAP	75	288	7
NMTAP	76	0	0
NMTAP	76	96	1
NMTAP	76	192	2
NMTAP	76	288	3
NMTAP	77	0	3
NMTAP	77	0	4
NMTAP	77	96	3
NMTAP	77	96	4
BRTAP	77	192	2
BRTAP	77	192	5
NMSTR	78	0	3
NMSI_	78	0	3	96	192	0
NMTAP	79	0	7
NMTAP	79	192	6
NMTAP	79	192	7
NMSTR	80	0	6
NMSI_	80	0	6	96	192	3
NMTAP	81	0	2
NMTAP	81	96	2
NMTAP	81	192	3
NMTAP	81	192	4
NMTAP	81	288	3
NMTAP	81	288	4

T_REC_TAP	218
T_REC_BRK	2
T_REC_XTP	3
T_REC_BXX	2
T_REC_HLD	17
T_REC_XHO	0
T_REC_BHO	0
T_REC_BXH	0
T_REC_STR	6
T_REC_BST	0
T_REC_XST	0
T_REC_XBS	0
T_REC_TTP	27
T_REC_THO	0
T_REC_SLD	6
T_REC_BSL	0
T_REC_ALL	281
T_NUM_TAP	254
T_NUM_BRK	4
T_NUM_HLD	17
T_NUM_SLD	6
T_NUM_ALL	281
T_JUDGE_TAP	258
T_JUDGE_HLD	68
T_JUDGE_SLD	6
T_JUDGE_ALL	332
TTM_EACHPAIRS	50
TTM_SCR_TAP	127000
TTM_SCR_BRK	10400
TTM_SCR_HLD	17000
TTM_SCR_SLD	9000
TTM_SCR_ALL	163400
TTM_SCR_S	158150
TTM_SCR_SS	163000
TTM_RAT_ACV	10024

