VERSION	0.00.00	1.04.00
FES_MODE	0
BPM_DEF	165.000	165.000	165.000	165.000
MET_DEF	4	4
RESOLUTION	384
CLK_DEF	384
COMPATIBLE_CODE	MA2

BPM	0	0	165.000
MET	0	0	4	4

NMTAP	5	0	7
NMTAP	5	192	7
NMTAP	6	0	7
NMTAP	7	0	0
NMTAP	7	192	0
NMTAP	8	0	0
NMTAP	8	0	7
NMTAP	9	0	0
NMTAP	9	192	0
NMTAP	10	0	1
NMTAP	10	192	1
NMTAP	11	0	2
NMTAP	11	192	2
NMTAP	12	0	3
NMTAP	12	0	4
NMTAP	13	0	4
NMTAP	13	192	4
NMTAP	14	0	5
NMTAP	14	192	5
NMTAP	15	0	6
NMTAP	15	192	6
NMTAP	16	0	0
NMTAP	16	0	7
NMTAP	17	0	7
NMTAP	17	192	7
NMTAP	18	0	6
NMTAP	18	0	7
NMTAP	19	0	5
NMTAP	19	192	5
NMTAP	20	0	4
NMTAP	20	0	5
NMTAP	21	0	3
NMTAP	21	192	3
NMTAP	22	0	2
NMTAP	22	0	3
NMTAP	23	0	1
NMTAP	23	192	1
NMTAP	24	0	0
NMTAP	24	0	1
NMHLD	25	0	0	192
NMHLD	25	0	1	192
NMTAP	26	0	0
NMTAP	26	0	1
NMHLD	27	0	2	192
NMHLD	27	0	3	192
NMTAP	28	0	2
NMTAP	28	0	3
NMHLD	29	0	4	192
NMHLD	29	0	5	192
NMTAP	30	0	4
NMTAP	30	0	5
NMHLD	31	0	6	192
NMHLD	31	0	7	192
NMTAP	32	0	6
NMTAP	32	0	7
BRTAP	33	0	7
NMTAP	33	96	7
NMTAP	33	192	7
NMTAP	34	0	6
NMTAP	34	192	6
NMTAP	35	0	5
NMTAP	35	96	5
NMTAP	35	192	5
NMTAP	36	0	4
NMTAP	36	192	3
NMTAP	36	192	4
NMTAP	37	0	2
NMTAP	37	96	2
NMTAP	37	192	2
EXTAP	38	0	0
EXTAP	38	0	1
BRTAP	39	0	0
NMTAP	39	96	0
NMTAP	39	192	0
NMTAP	40	0	1
NMTAP	40	192	1
NMTAP	41	0	2
NMTAP	41	96	2
NMTAP	41	192	2
NMTAP	42	0	3
NMTAP	42	192	3
NMTAP	42	192	4
NMTAP	43	0	4
NMTAP	43	96	4
NMTAP	43	192	4
NMTAP	44	0	5
NMTAP	44	192	5
NMTAP	45	0	6
NMTAP	45	96	6
NMTAP	45	192	6
NMTAP	46	0	7
NMTAP	46	192	0
NMTAP	46	192	7
BRTAP	47	0	0
BRTAP	47	0	7
NMSTR	48	0	0
NMSI_	48	0	0	96	288	4
NMSTR	50	0	7
NMSI_	50	0	7	96	288	3
NMSTR	52	0	1
NMSI_	52	0	1	96	288	5
NMSTR	54	0	6
NMSI_	54	0	6	96	288	2
BRTAP	56	0	0
NMTAP	56	96	0
NMTAP	56	192	0
NMTAP	57	0	1
NMTAP	57	96	1
NMTAP	57	192	1
NMTAP	58	0	2
NMTAP	58	96	2
NMTAP	58	192	2
NMTAP	59	0	3
NMTAP	59	0	4
NMTAP	59	192	3
NMTAP	59	192	4
NMTAP	60	0	5
NMTAP	60	96	5
NMTAP	60	192	5
EXTAP	61	0	6
EXTAP	61	0	7
BRTAP	62	0	7
NMTAP	62	96	7
NMTAP	62	192	7
NMTAP	63	0	6
NMTAP	63	96	6
NMTAP	63	192	6
NMTAP	64	0	5
NMTAP	64	96	5
NMTAP	64	192	5
NMTAP	65	0	4
NMTAP	65	96	4
NMTAP	65	192	3
NMTAP	65	192	4
NMTAP	66	0	3
NMTAP	66	96	3
NMTAP	66	192	3
NMTAP	67	0	2
NMTAP	67	96	2
NMTAP	67	192	2
NMTAP	68	0	1
NMTAP	68	96	1
NMTAP	68	192	1
BXTAP	69	0	0
BXTAP	69	0	7
NMTAP	70	0	0
NMTAP	70	96	0
NMTAP	70	192	0
NMTAP	71	0	0
NMTAP	71	0	1
NMTAP	71	96	0
NMTAP	71	96	1
NMTAP	71	192	0
NMTAP	71	192	1
NMTAP	72	0	2
NMTAP	72	96	2
NMTAP	72	192	2
NMTAP	73	0	3
NMTAP	73	0	4
NMTAP	73	96	3
NMTAP	73	96	4
NMTAP	73	192	3
NMTAP	73	192	4
NMTAP	74	0	4
NMTAP	74	96	4
NMTAP	74	192	4
NMTAP	75	0	4
NMTAP	75	0	5
NMTAP	75	96	4
NMTAP	75	96	5
NMTAP	75	192	4
NMTAP	75	192	5
NMTAP	76	0	6
NMTAP	76	96	6
NMTAP	76	192	6
EXTAP	77	0	0
EXTAP	77	0	7
NMTTP	78	0	0	B	0	L1
NMTTP	78	0	7	B	0	L1
NMTTP	79	0	1	B	0	L1
NMTTP	79	0	6	B	0	L1
NMTTP	80	0	2	B	0	L1
NMTTP	80	0	5	B	0	L1
NMTHO	81	0	0	336	C	0	L1
NMTTP	81	0	3	B	0	L1
NMTTP	81	0	4	B	0	L1

T_REC_TAP	147
T_REC_BRK	6
T_REC_XTP	6
T_REC_BXX	2
T_REC_HLD	8
T_REC_XHO	0
T_REC_BHO	0
T_REC_BXH	0
T_REC_STR	4
T_REC_BST	0
T_REC_XST	0
T_REC_XBS	0
T_REC_TTP	8
T_REC_THO	1
T_REC_SLD	4
T_REC_BSL	0
T_REC_ALL	186
T_NUM_TAP	165
T_NUM_BRK	8
T_NUM_HLD	9
T_NUM_SLD	4
T_NUM_ALL	186
T_JUDGE_TAP	173
T_JUDGE_HLD	39
T_JUDGE_SLD	4
T_JUDGE_ALL	216
TTM_EACHPAIRS	35
TTM_SCR_TAP	82500
TTM_SCR_BRK	20800
TTM_SCR_HLD	9000
TTM_SCR_SLD	6000
TTM_SCR_ALL	118300
TTM_SCR_S	114000
TTM_SCR_SS	117500
TTM_RAT_ACV	10068

