VERSION	0.00.00	1.04.00
FES_MODE	0
BPM_DEF	172.000	172.000	172.000	172.000
MET_DEF	4	4
RESOLUTION	384
CLK_DEF	384
COMPATIBLE_CODE	MA2

BPM	0	0	172.000
MET	0	0	4	4

NMHLD	1	0	0	96
NMHLD	1	0	1	96
NMHLD	1	192	3	96
NMHLD	1	192	6	96
NMHLD	2	0	0	96
NMHLD	2	0	5	96
NMHLD	2	192	2	96
NMHLD	2	192	3	96
NMTAP	3	0	4
NMHLD	3	0	5	96
NMTAP	3	48	4
NMTAP	3	96	3
NMTAP	3	144	3
NMHLD	3	192	2	96
NMTAP	3	192	4
NMTAP	3	240	4
NMTAP	3	288	3
NMTAP	3	336	3
NMTAP	4	0	4
NMHLD	4	0	5	96
NMTAP	4	48	4
NMTAP	4	96	3
NMTAP	4	144	3
NMSTR	4	192	2
NMSI_	4	192	2	96	48	0
NMSTR	4	192	4
NMSI_	4	192	4	96	48	0
NMTAP	5	0	1
NMTAP	5	24	0
NMTAP	5	48	1
NMTAP	5	96	7
NMTAP	5	120	0
NMTAP	5	144	7
NMTAP	5	192	2
NMTAP	5	216	0
NMTAP	5	240	2
NMTAP	5	288	6
NMTAP	5	312	0
NMTAP	5	336	6
NMTAP	6	0	0
NMTAP	6	24	7
NMTAP	6	48	0
NMTAP	6	96	6
NMTAP	6	120	7
NMTAP	6	144	6
NMTAP	6	192	1
NMTAP	6	216	7
NMTAP	6	240	1
NMTAP	6	288	5
NMTAP	6	312	7
NMTAP	6	336	5
NMTAP	7	0	0
NMTAP	7	24	7
NMTAP	7	48	0
NMTAP	7	96	5
NMTAP	7	120	7
NMTAP	7	144	5
NMTAP	7	192	1
NMTAP	7	216	0
NMTAP	7	240	1
NMTAP	7	288	6
NMTAP	7	312	0
NMTAP	7	336	6
NMTAP	8	0	2
NMTAP	8	24	0
NMTAP	8	48	2
NMTAP	8	96	7
NMTAP	8	120	0
NMTAP	8	144	7
NMTAP	8	192	1
NMTAP	8	216	7
NMTAP	8	240	1
NMTAP	8	288	6
NMTAP	8	312	7
NMTAP	8	336	6
EXSTR	9	0	1
NMSCR	9	0	1	96	96	5
NMSTR	9	96	5
NMSCR	9	96	5	96	96	1
NMSTR	9	192	1
NMSXR	9	192	1	96	120	4
EXHLD	10	0	6	72
EXHLD	10	72	5	72
EXTAP	10	144	4
EXTAP	10	192	3
EXTAP	10	192	6
NMTAP	10	288	2
NMSTR	11	0	1
NMSUR	11	0	1	96	96	5
NMSTR	11	96	5
NMSCL	11	96	5	96	96	2
NMTAP	11	192	7
NMTAP	11	264	5
NMTAP	11	336	4
EXHLD	12	0	2	144
EXSTR	12	0	3
NMSXR	12	0	3	96	192	6
NMTTP	12	192	1	A	0	M1
NMTTP	12	216	1	D	0	M1
NMTTP	12	240	0	A	0	M1
NMTTP	12	264	0	D	0	M1
NMTTP	12	288	7	A	0	M1
NMSTR	13	0	5
NMSI_	13	0	5	96	96	2
NMSTR	13	96	2
NMSCR	13	96	2	96	96	5
NMTAP	13	192	0
NMTAP	13	264	2
NMTAP	13	336	3
NMTAP	14	0	4
NMHLD	14	0	5	144
NMTAP	14	72	3
NMTAP	14	144	4
NMHLD	14	192	2	144
NMTAP	14	192	3
NMTAP	14	264	4
NMTAP	14	336	3
NMSTR	15	0	4
NMSI_	15	0	4	96	48	0
NMTTP	15	108	0	C	0	M1
NMTTP	15	114	0	B	0	M1
NMSTR	15	192	4
NMSF_	15	192	4	96	48	0
NMTTP	15	300	0	C	0	M1
NMTTP	15	306	0	B	0	M1
NMTTP	15	306	1	B	0	M1
NMTTP	15	306	7	B	0	M1
NMTAP	16	0	3
NMTAP	16	0	5
NMTAP	16	48	4
NMTAP	16	96	2
NMTAP	16	96	6
NMTAP	16	144	4
NMTTP	16	192	0	B	0	M1
NMTTP	16	192	1	B	0	M1
NMTTP	16	192	2	B	0	M1
NMTTP	16	192	3	B	0	M1
NMTTP	16	192	4	B	0	M1
NMTTP	16	192	5	B	0	M1
NMTTP	16	192	5	E	0	M1
NMTTP	16	192	6	B	0	M1
NMTTP	16	192	7	B	0	M1
NMTTP	16	192	7	E	1	M1
NMSTR	17	0	2
NMSCR	17	0	2	96	48	5
NMTAP	17	0	5
NMTAP	17	96	6
NMTAP	17	192	3
NMSTR	17	192	6
NMSCL	17	192	6	96	48	3
NMTAP	17	288	2
EXSTR	18	0	2
NMSI_	18	0	2	96	72	5
EXSTR	18	72	5
NMSI_	18	72	5	96	72	0
EXSTR	18	144	0
NMSI_	18	144	0	96	48	2
EXHLD	18	192	0	96
NMSTR	19	0	3
NMSI_	19	0	3	96	48	0
NMSTR	19	96	5
NMSI_	19	96	5	96	48	0
NMSTR	19	192	4
NMSI_	19	192	4	96	48	0
EXSTR	20	0	3
NMSXL	20	0	3	96	192	0
EXHLD	20	0	4	144
NMTTP	20	192	5	A	0	M1
NMTTP	20	216	6	D	0	M1
NMTTP	20	240	6	A	0	M1
NMTTP	20	264	7	D	0	M1
NMTTP	20	288	7	A	0	M1
NMSTR	21	0	0
NMSI_	21	0	0	96	48	4
NMSTR	21	0	1
NMSI_	21	0	1	96	48	4
NMTAP	21	192	3
NMTAP	21	192	5
NMTAP	21	240	3
NMTAP	21	240	5
NMTAP	21	336	2
NMHLD	22	0	2	72
NMHLD	22	72	3	72
NMTAP	22	144	4
NMHLD	22	192	5	72
NMHLD	22	264	4	72
NMTAP	22	336	3
EXSTR	23	0	2
NMSXL	23	0	2	96	48	4
EXSTR	23	0	3
NMSXL	23	0	3	96	48	4
EXSTR	23	192	2
NMSUL	23	192	2	96	48	4
EXSTR	23	192	3
NMSXL	23	192	3	96	48	4
EXSTR	24	0	2
NMSCL	24	0	2	96	96	4
EXSTR	24	0	3
NMSUL	24	0	3	96	96	4
BRTAP	24	240	2
BRTAP	24	240	6
BRTAP	24	288	2
BRTAP	24	288	6
NMHLD	25	0	5	72
NMTAP	25	72	4
NMTAP	25	144	3
NMTAP	25	144	5
NMHLD	25	192	3	72
NMTAP	25	264	4
NMTAP	25	336	2
NMTAP	25	336	4
NMHLD	26	0	5	72
NMTAP	26	72	4
NMTAP	26	144	3
NMTAP	26	144	6
NMHLD	26	192	2	72
NMTAP	26	264	3
NMTAP	26	336	1
NMTAP	26	336	4
NMHLD	27	0	6	72
NMTAP	27	72	7
NMTAP	27	144	0
NMTAP	27	144	5
NMHLD	27	192	1	72
NMTAP	27	264	0
NMTAP	27	336	2
NMTAP	27	336	7
EXHLD	28	0	3	72
EXHLD	28	0	5	288
EXTAP	28	144	4
EXTAP	28	192	6
EXTAP	28	216	7
EXTAP	28	240	0
EXTAP	28	264	1
EXTAP	28	288	2
NMHLD	29	0	6	72
NMTAP	29	72	7
NMTAP	29	144	0
NMTAP	29	144	6
NMHLD	29	192	1	72
NMTAP	29	264	0
NMTAP	29	336	0
NMTAP	29	336	2
NMHLD	30	0	5	72
NMTAP	30	72	4
NMTAP	30	144	3
NMTAP	30	144	6
NMHLD	30	192	2	72
NMTAP	30	264	3
NMTAP	30	336	1
NMTAP	30	336	4
NMHLD	31	0	5	72
NMTAP	31	72	4
NMTAP	31	144	3
NMTAP	31	144	5
NMHLD	31	192	3	72
NMTAP	31	264	4
NMTAP	31	336	2
NMTAP	31	336	5
EXTAP	32	0	6
EXTAP	32	24	5
EXTAP	32	48	4
EXTAP	32	72	3
EXTAP	32	72	7
EXTAP	32	96	0
EXTAP	32	120	1
EXTAP	32	144	2
EXTAP	32	144	7
EXTAP	32	168	6
EXTAP	32	192	5
EXTAP	32	216	0
EXTAP	32	216	4
EXTAP	32	240	1
EXTAP	32	264	2
EXTAP	32	288	3
BXTAP	32	288	4
NMTAP	33	0	2
NMTAP	33	0	6
NMSTR	33	72	3
NMSI_	33	72	3	96	72	5
NMTAP	33	72	5
NMTAP	33	144	7
NMTAP	33	192	7
CNSV_	33	240	5	0	96	7
BXTAP	33	240	6
BXTAP	33	288	6
BXTAP	33	336	6
NMTAP	34	0	0
NMTAP	34	0	5
NMTAP	34	72	1
NMSTR	34	72	4
NMSI_	34	72	4	96	72	2
NMTAP	34	144	0
NMTAP	34	192	0
BXTAP	34	240	1
CNSXR	34	240	2	0	96	0
BXTAP	34	336	1
NMSTR	35	0	2
NMSCL	35	0	2	96	48	7
NMTAP	35	72	3
NMTAP	35	144	4
NMSTR	35	192	5
NMSCR	35	192	5	96	48	0
NMTAP	35	264	3
NMTAP	35	336	2
NMSTR	36	0	1
NMSI_	36	0	1	96	48	3
NMSTR	36	96	0
NMSI_	36	96	0	96	48	4
NMSTR	36	192	7
NMSI_	36	192	7	96	48	5
EXTAP	37	0	1
EXTAP	37	0	5
NMTAP	37	72	2
NMSTR	37	72	4
NMSI_	37	72	4	96	72	2
NMTAP	37	144	0
NMTAP	37	192	0
BXTAP	37	240	1
CNSV_	37	240	2	0	96	0
BXTAP	37	288	1
BXTAP	37	336	1
NMTAP	38	0	2
NMTAP	38	0	6
NMSTR	38	72	3
NMSI_	38	72	3	96	72	5
NMTAP	38	72	5
NMTAP	38	144	7
NMTAP	38	192	7
CNSXL	38	240	5	0	96	7
BXTAP	38	240	6
BXTAP	38	336	6
NMHLD	39	0	5	72
NMHLD	39	72	6	72
NMTAP	39	144	7
NMHLD	39	192	1	72
NMHLD	39	264	0	72
NMTAP	39	336	7
EXSTR	40	0	2
NMSCR	40	0	2	96	96	5
BXSTR	40	0	6
NMSXR	40	0	6	96	96	5
EXTAP	40	96	2
BXTAP	40	96	6
NMTTP	40	240	6	E	0	M1
NMTTP	40	288	6	D	0	M1
NMTAP	41	0	2
NMTAP	41	0	6
NMTAP	41	72	3
NMSTR	41	72	5
NMSUL	41	72	5	96	72	1
NMTAP	41	144	2
NMTAP	41	192	2
BXTAP	41	240	0
CNSV_	41	240	1	0	96	7
BXTAP	41	288	0
BXTAP	41	336	0
NMTAP	42	0	1
NMTAP	42	0	5
NMSTR	42	72	2
NMSUR	42	72	2	96	72	6
NMTAP	42	72	4
NMTAP	42	144	5
NMTAP	42	192	5
CNSXL	42	240	6	0	96	0
BXTAP	42	240	7
BXTAP	42	336	7
NMSTR	43	0	5
NMSV_	43	0	5	96	48	0
NMTAP	43	72	3
NMTAP	43	144	2
NMSTR	43	192	1
NMSV_	43	192	1	96	48	4
NMTAP	43	264	5
NMTAP	43	336	6
NMSTR	44	0	7
NMSCL	44	0	7	96	96	2
NMSUL	44	0	7	96	96	2
NMTTP	44	240	2	E	0	M1
NMTTP	44	288	1	A	0	M1
NMTAP	45	0	1
NMTAP	45	0	5
NMSTR	45	72	2
NMSUR	45	72	2	96	72	6
NMTAP	45	72	4
NMTAP	45	144	5
NMTAP	45	192	5
CNSV_	45	240	6	0	96	0
BXTAP	45	240	7
BXTAP	45	288	7
BXTAP	45	336	7
NMTAP	46	0	2
NMTAP	46	0	6
NMTAP	46	72	3
NMSTR	46	72	5
NMSUL	46	72	5	96	72	1
NMTAP	46	144	2
NMTAP	46	192	2
BXTAP	46	240	0
CNSXR	46	240	1	0	96	7
BXTAP	46	336	0
NMHLD	47	0	1	72
NMHLD	47	72	0	72
NMTAP	47	144	7
NMHLD	47	192	6	72
NMHLD	47	264	7	72
NMTAP	47	336	0
EXSTR	48	0	2
NMSCR	48	0	2	96	96	5
BXSTR	48	0	6
NMSXR	48	0	6	96	96	5
EXTAP	48	96	2
BXTAP	48	96	6
NMTTP	48	240	5	B	0	M1
NMTTP	48	288	6	E	0	M1
NMHLD	49	0	3	768
NMTAP	49	96	5
NMTAP	49	192	5
NMTAP	49	288	4
NMTAP	50	0	4
NMTAP	50	96	2
NMTAP	50	192	2
NMHLD	51	0	4	768
NMTAP	51	96	3
NMTAP	51	192	3
NMTAP	51	288	5
NMTAP	52	0	5
NMTAP	52	96	6
NMTAP	52	192	6
NMSTR	52	288	7
BRSI_	52	288	7	96	24	3
BRTAP	53	0	7
NMTTP	55	288	0	C	0	M1
NMTAP	56	0	7
NMTAP	56	48	7
NMTAP	56	96	6
NMTAP	56	144	6
NMTAP	56	192	5
NMTAP	56	240	5
NMTAP	56	288	4
NMTAP	56	336	4
NMTAP	57	0	3
NMTAP	57	48	3
NMTAP	57	96	2
NMTAP	57	144	2
NMTAP	57	192	1
NMTAP	57	240	1
NMTAP	57	288	0
NMTAP	57	336	0
NMTAP	58	0	6
NMTAP	58	0	7
NMTAP	58	48	6
NMTAP	58	48	7
NMTAP	58	96	4
NMTAP	58	96	5
NMTAP	58	144	4
NMTAP	58	144	5
NMTAP	58	192	2
NMTAP	58	192	3
NMTAP	58	240	2
NMTAP	58	240	3
NMTAP	58	288	0
NMTAP	58	288	1
NMTAP	58	336	0
NMTAP	58	336	1
EXTAP	59	0	7
EXTAP	59	24	6
EXTAP	59	48	5
EXTAP	59	72	0
EXTAP	59	72	4
EXTAP	59	96	1
EXTAP	59	120	2
EXTAP	59	144	0
EXTAP	59	144	3
EXTAP	59	168	7
EXTAP	59	192	6
EXTAP	59	216	1
EXTAP	59	216	5
EXTAP	59	240	2
EXTAP	59	264	3
EXTAP	59	288	4
BXTAP	59	288	5
NMTAP	60	0	1
NMTAP	60	0	4
NMSTR	60	72	2
NMSI_	60	72	2	96	72	5
NMTAP	60	72	5
NMTAP	60	144	0
NMTAP	60	192	0
CNSV_	60	240	5	0	96	7
BXTAP	60	240	6
BXTAP	60	288	6
BXTAP	60	336	6
NMTAP	61	0	2
NMTAP	61	0	5
NMTAP	61	72	1
NMSTR	61	72	4
NMSI_	61	72	4	96	72	2
NMTAP	61	144	7
NMTAP	61	192	7
BXTAP	61	240	1
CNSXR	61	240	2	0	96	0
BXTAP	61	336	1
NMSTR	62	0	2
NMSV_	62	0	2	96	48	7
NMTAP	62	72	3
NMTAP	62	144	4
NMSTR	62	192	5
NMSV_	62	192	5	96	48	0
NMTAP	62	264	3
NMTAP	62	336	2
NMSTR	63	0	1
NMSI_	63	0	1	96	48	3
NMSTR	63	96	0
NMSI_	63	96	0	96	48	4
NMSTR	63	192	7
NMSI_	63	192	7	96	48	5
NMTAP	64	0	3
NMTAP	64	0	6
NMTAP	64	72	2
NMSTR	64	72	5
NMSI_	64	72	5	96	72	2
NMTAP	64	144	7
NMTAP	64	192	7
BXTAP	64	240	1
CNSV_	64	240	2	0	96	0
BXTAP	64	288	1
BXTAP	64	336	1
NMTAP	65	0	2
NMTAP	65	0	4
NMSTR	65	72	3
NMSI_	65	72	3	96	72	5
NMTAP	65	72	5
NMTAP	65	144	0
NMTAP	65	192	0
CNSXL	65	240	5	0	96	7
BXTAP	65	240	6
BXTAP	65	336	6
NMHLD	66	0	5	72
NMHLD	66	72	6	72
NMTAP	66	144	7
NMHLD	66	192	1	72
NMHLD	66	264	0	72
NMTAP	66	336	7
EXSTR	67	0	1
NMSXL	67	0	1	96	96	2
BXSTR	67	0	6
NMSXR	67	0	6	96	96	5
EXTAP	67	96	1
BXTAP	67	96	6
NMTTP	67	240	2	B	0	M1
NMTTP	67	240	5	B	0	M1
NMTTP	67	288	2	B	0	M1
NMTTP	67	288	5	B	0	M1
NMTAP	68	0	1
NMTAP	68	0	6
NMTAP	68	72	2
NMSTR	68	72	4
NMSCL	68	72	4	96	72	1
NMTAP	68	144	7
NMTAP	68	192	7
BXTAP	68	240	0
CNSV_	68	240	1	0	96	7
BXTAP	68	288	0
BXTAP	68	336	0
NMTAP	69	0	1
NMTAP	69	0	6
NMSTR	69	72	3
NMSCR	69	72	3	96	72	6
NMTAP	69	72	5
NMTAP	69	144	0
NMTAP	69	192	0
CNSXL	69	240	6	0	96	0
BXTAP	69	240	7
BXTAP	69	336	7
NMSTR	70	0	5
NMSV_	70	0	5	96	48	0
NMTAP	70	72	3
NMTAP	70	144	1
NMSTR	70	192	2
NMSV_	70	192	2	96	48	7
NMTAP	70	264	4
NMTAP	70	336	6
NMSTR	71	0	0
NMSUR	71	0	0	96	96	5
NMSXL	71	0	0	96	96	2
NMTTP	71	240	2	D	0	M1
NMTTP	71	240	6	D	0	M1
NMTTP	71	288	2	D	0	M1
NMTTP	71	288	6	D	0	M1
NMTAP	72	0	1
NMTAP	72	0	6
NMSTR	72	72	3
NMSCR	72	72	3	96	72	6
NMTAP	72	72	5
NMTAP	72	144	0
NMTAP	72	192	0
CNSV_	72	240	6	0	96	0
BXTAP	72	240	7
BXTAP	72	288	7
BXTAP	72	336	7
NMTAP	73	0	1
NMTAP	73	0	6
NMTAP	73	72	2
NMSTR	73	72	4
NMSCL	73	72	4	96	72	1
NMTAP	73	144	7
NMTAP	73	192	7
BXTAP	73	240	0
CNSXR	73	240	1	0	96	7
BXTAP	73	336	0
NMHLD	74	0	1	72
NMHLD	74	72	0	72
NMTAP	74	144	7
NMHLD	74	192	6	72
NMHLD	74	264	7	72
NMTAP	74	336	0
EXSTR	75	0	1
NMSXL	75	0	1	96	96	2
BXSTR	75	0	6
NMSXR	75	0	6	96	96	5
EXTAP	75	96	1
BXTAP	75	96	6
NMTTP	75	240	2	B	0	M1
NMTTP	75	240	5	B	0	M1
NMTTP	75	288	2	B	0	M1
NMTTP	75	288	5	B	0	M1
NMSTR	76	0	0
NMSXR	76	0	0	96	144	2
NMSXR	76	0	0	96	192	3
CNSCR	76	240	2	0	48	3
NMTAP	77	0	1
NMTAP	77	0	4
NMTAP	77	48	5
NMTAP	77	96	2
NMTAP	77	144	6
NMHLD	77	192	3	96
BXTAP	77	240	0
BXTAP	77	288	1
BXTAP	77	336	0
NMTAP	78	0	2
NMTAP	78	0	7
NMTAP	78	48	3
NMTAP	78	96	6
NMTAP	78	144	4
NMHLD	78	192	5	96
BXTAP	78	240	7
BXTAP	78	336	7
NMTAP	79	0	1
NMTAP	79	0	5
NMTAP	79	48	4
NMTAP	79	96	2
NMTAP	79	144	3
NMTAP	79	192	1
NMTAP	79	192	4
NMTAP	79	240	0
NMTAP	79	288	5
NMTAP	79	336	7
BXSTR	80	0	6
NMSI_	80	0	6	96	48	3
EXSTR	80	48	0
NMSI_	80	48	0	96	48	4
BXTAP	80	96	6
EXTAP	80	144	0
NMTTP	80	240	3	E	0	M1
NMTTP	80	240	5	E	0	M1
NMTTP	80	288	3	E	0	M1
NMTTP	80	288	5	E	0	M1
NMTAP	81	0	3
NMTAP	81	0	6
NMTAP	81	48	2
NMTAP	81	96	5
NMTAP	81	144	1
NMHLD	81	192	4	96
BXTAP	81	240	7
BXTAP	81	288	6
BXTAP	81	336	7
NMTAP	82	0	0
NMTAP	82	0	5
NMTAP	82	48	4
NMTAP	82	96	1
NMTAP	82	144	3
NMHLD	82	192	2	96
BXTAP	82	240	0
BXTAP	82	336	0
NMTAP	83	0	2
NMTAP	83	0	6
NMTAP	83	48	3
NMTAP	83	96	5
NMTAP	83	144	4
NMTAP	83	192	3
NMTAP	83	192	6
NMTAP	83	240	7
NMTAP	83	288	2
NMTAP	83	336	0
BXSTR	84	0	1
NMSI_	84	0	1	96	48	4
EXSTR	84	48	7
NMSI_	84	48	7	96	48	3
BXTAP	84	96	1
EXTAP	84	144	7
NMTTP	84	240	3	E	0	M1
NMTTP	84	240	5	E	0	M1
NMTTP	84	288	3	E	0	M1
NMTTP	84	288	5	E	0	M1
NMSTR	85	0	2
NMSI_	85	0	2	96	336	5
CNSCL	86	48	5	0	336	2
NMTTP	86	336	0	E	0	M1

T_REC_TAP	312
T_REC_BRK	5
T_REC_XTP	49
T_REC_BXX	58
T_REC_HLD	51
T_REC_XHO	7
T_REC_BHO	0
T_REC_BXH	0
T_REC_STR	52
T_REC_BST	0
T_REC_XST	18
T_REC_XBS	6
T_REC_TTP	54
T_REC_THO	0
T_REC_SLD	78
T_REC_BSL	1
T_REC_ALL	691
T_NUM_TAP	485
T_NUM_BRK	70
T_NUM_HLD	58
T_NUM_SLD	78
T_NUM_ALL	691
T_JUDGE_TAP	554
T_JUDGE_HLD	152
T_JUDGE_SLD	79
T_JUDGE_ALL	785
TTM_EACHPAIRS	102
TTM_SCR_TAP	242500
TTM_SCR_BRK	182000
TTM_SCR_HLD	58000
TTM_SCR_SLD	117000
TTM_SCR_ALL	599500
TTM_SCR_S	574750
TTM_SCR_SS	592500
TTM_RAT_ACV	10118

