VERSION	0.00.00	1.04.00
FES_MODE	0
BPM_DEF	172.000	172.000	172.000	172.000
MET_DEF	4	4
RESOLUTION	384
CLK_DEF	384
COMPATIBLE_CODE	MA2

BPM	0	0	172.000
MET	0	0	4	4

NMHLD	1	0	3	192
NMHLD	1	192	1	192
NMHLD	2	0	7	192
NMHLD	2	192	5	192
NMHLD	3	0	3	96
NMHLD	3	96	1	96
NMHLD	3	192	7	96
NMHLD	3	288	5	96
NMHLD	4	0	3	96
NMHLD	4	96	1	96
NMTAP	4	192	7
NMTAP	5	0	0
NMTAP	5	0	1
NMTAP	5	96	2
NMTAP	5	192	3
NMTAP	5	288	4
NMTAP	5	288	5
NMTAP	6	0	0
NMTAP	6	0	1
NMTAP	6	96	2
NMTAP	6	192	3
NMTAP	6	288	4
NMTAP	6	288	5
NMTAP	7	0	6
NMTAP	7	0	7
NMTAP	7	96	0
NMTAP	7	192	1
NMTAP	7	288	0
NMTAP	7	288	2
NMTAP	8	0	6
NMTAP	8	0	7
NMTAP	8	96	0
NMTAP	8	192	1
NMSTR	8	288	0
NMSXR	8	288	0	96	192	4
NMTAP	8	288	2
NMTAP	10	0	4
NMTAP	10	96	3
NMTAP	10	192	2
NMTAP	10	288	3
NMTAP	10	288	4
NMHLD	11	0	5	96
NMTAP	11	96	4
NMHLD	11	192	2	96
NMTAP	11	288	3
NMSTR	12	0	1
NMSCR	12	0	1	96	96	4
NMTAP	12	0	3
NMTAP	12	288	5
NMHLD	13	0	5	96
NMTAP	13	96	4
NMHLD	13	192	2	96
NMTAP	13	288	3
NMTAP	14	0	5
NMTAP	14	96	4
NMTAP	14	192	3
NMTAP	14	288	2
NMTAP	14	288	4
NMHLD	15	0	5	96
NMTAP	15	96	4
NMHLD	15	192	2	96
NMTAP	15	288	3
NMTAP	16	0	1
NMTAP	16	0	4
NMTAP	16	96	0
NMTAP	16	96	5
BRTAP	16	192	6
BRTAP	16	192	7
NMHLD	17	0	1	96
NMTAP	17	96	0
NMHLD	17	192	6	96
NMTAP	17	288	7
NMTAP	18	0	0
NMTAP	18	96	1
NMTAP	18	192	2
NMTAP	18	192	3
NMSTR	18	288	3
NMSI_	18	288	3	96	96	0
NMSTR	18	288	5
NMSI_	18	288	5	96	96	0
NMTAP	19	192	7
NMTAP	19	288	6
NMSTR	20	0	5
NMSCR	20	0	5	96	96	0
NMTAP	20	0	7
NMTAP	20	288	1
NMHLD	21	0	1	96
NMTAP	21	96	0
NMHLD	21	192	6	96
NMTAP	21	288	7
NMTAP	22	0	1
NMTAP	22	96	0
NMTAP	22	192	6
NMTAP	22	192	7
NMTAP	22	288	0
NMTAP	22	288	7
NMTAP	23	0	0
NMTAP	23	0	1
NMTAP	23	96	6
NMTAP	23	96	7
NMTAP	23	192	0
NMTAP	23	192	1
NMTAP	23	288	6
NMTAP	23	288	7
EXHLD	24	0	0	144
EXHLD	24	0	7	144
EXTAP	24	240	1
EXTAP	24	240	6
BXTAP	24	288	1
BXTAP	24	288	6
NMSTR	25	0	0
NMSXR	25	0	0	96	192	4
NMSTR	26	0	7
NMSXR	26	0	7	96	192	3
NMSTR	27	0	0
NMSXL	27	0	0	96	192	0
NMSTR	27	0	7
NMSXR	27	0	7	96	192	7
NMSTR	28	0	2
NMSV_	28	0	2	96	144	1
NMSTR	28	0	6
NMSV_	28	0	6	96	144	5
NMSTR	29	0	6
NMSI_	29	0	6	96	96	4
NMSTR	29	192	1
NMSI_	29	192	1	96	96	3
NMSTR	30	0	4
NMSI_	30	0	4	96	96	6
NMSTR	30	192	3
NMSI_	30	192	3	96	96	1
NMSTR	31	0	6
NMSCL	31	0	6	96	96	4
NMTAP	31	192	1
BXTAP	32	0	4
BXTAP	32	0	5
BXTAP	32	96	2
BXTAP	32	96	3
BXTAP	32	192	0
BXTAP	32	192	1
BXTAP	32	288	2
BXTAP	32	288	7
NMHLD	33	0	6	72
NMHLD	33	72	4	72
NMTAP	33	144	5
NMTAP	33	192	5
EXTAP	33	288	0
EXTAP	33	288	1
NMHLD	34	0	2	72
NMHLD	34	72	4	72
NMTAP	34	144	3
NMTAP	34	192	3
EXTAP	34	288	6
EXTAP	34	288	7
NMHLD	35	0	0	72
NMHLD	35	72	1	72
NMTAP	35	144	2
NMHLD	35	192	2	72
NMHLD	35	264	3	72
NMTAP	35	336	4
NMSTR	36	0	4
NMSI_	36	0	4	96	96	1
BRTAP	36	240	7
BRTAP	36	288	7
NMHLD	37	0	1	72
NMHLD	37	72	3	72
NMTAP	37	144	2
NMTAP	37	192	2
EXTAP	37	288	6
EXTAP	37	288	7
NMHLD	38	0	5	72
NMHLD	38	72	3	72
NMTAP	38	144	4
NMTAP	38	192	4
EXTAP	38	288	0
EXTAP	38	288	1
NMHLD	39	0	7	72
NMHLD	39	72	6	72
NMTAP	39	144	5
NMHLD	39	192	5	72
NMHLD	39	264	4	72
NMTAP	39	336	3
NMTAP	40	0	3
NMTAP	40	96	1
NMTAP	40	144	1
BRTAP	40	240	0
BRTAP	40	240	7
BRTAP	40	288	0
BRTAP	40	288	7
NMHLD	41	0	1	72
NMHLD	41	72	3	72
NMTAP	41	144	2
NMTAP	41	192	2
EXTAP	41	288	6
EXTAP	41	288	7
NMHLD	42	0	5	72
NMHLD	42	72	3	72
NMTAP	42	144	4
NMTAP	42	192	4
EXTAP	42	288	0
EXTAP	42	288	1
NMHLD	43	0	7	72
NMHLD	43	72	6	72
NMTAP	43	144	5
NMHLD	43	192	5	72
NMHLD	43	264	4	72
NMTAP	43	336	3
NMSTR	44	0	3
NMSI_	44	0	3	96	96	6
BRTAP	44	240	0
BRTAP	44	288	0
NMHLD	45	0	6	72
NMHLD	45	72	4	72
NMTAP	45	144	5
NMTAP	45	192	5
EXTAP	45	288	0
EXTAP	45	288	1
NMHLD	46	0	2	72
NMHLD	46	72	4	72
NMTAP	46	144	3
NMTAP	46	192	3
EXTAP	46	288	6
EXTAP	46	288	7
NMHLD	47	0	0	72
NMHLD	47	72	1	72
NMTAP	47	144	2
NMHLD	47	192	2	72
NMHLD	47	264	3	72
NMTAP	47	336	4
NMTAP	48	0	4
NMTAP	48	96	2
NMTAP	48	96	5
NMTAP	48	144	2
NMTAP	48	144	5
BRTAP	48	240	0
BRTAP	48	240	7
BRTAP	48	288	0
BRTAP	48	288	7
NMTTP	49	0	1	A	0	M1
NMTTP	49	96	2	A	0	M1
NMTTP	49	192	3	A	0	M1
NMTTP	49	288	4	A	0	M1
NMTTP	50	0	5	A	0	M1
NMTTP	50	96	6	A	0	M1
NMTTP	50	192	1	A	0	M1
NMTTP	50	192	7	A	0	M1
NMTTP	51	0	0	A	0	M1
NMTTP	51	96	7	A	0	M1
NMTTP	51	192	6	A	0	M1
NMTTP	51	288	5	A	0	M1
NMTTP	52	0	4	A	0	M1
NMTTP	52	96	3	A	0	M1
NMTHO	52	192	0	192	C	0	M1
NMTTP	52	192	2	A	0	M1
NMHLD	56	0	0	96
NMTAP	56	0	4
NMHLD	56	96	1	96
NMHLD	56	192	2	96
NMHLD	56	288	3	96
NMHLD	57	0	4	96
NMHLD	57	96	5	96
NMHLD	57	192	6	96
NMTAP	57	288	7
NMTAP	58	0	3
NMHLD	58	0	7	96
NMHLD	58	96	5	96
NMHLD	58	192	3	96
NMTAP	58	288	1
BRTAP	59	0	2
BRTAP	59	0	3
BRTAP	59	96	4
BRTAP	59	96	5
BRTAP	59	192	6
BRTAP	59	192	7
BRTAP	59	288	0
BRTAP	59	288	5
NMHLD	60	0	1	72
NMHLD	60	72	3	72
NMTAP	60	144	4
NMTAP	60	192	4
EXTAP	60	288	6
EXTAP	60	288	7
NMHLD	61	0	1	72
NMHLD	61	72	3	72
NMTAP	61	144	4
NMTAP	61	192	4
EXTAP	61	288	6
EXTAP	61	288	7
NMHLD	62	0	1	72
NMHLD	62	72	2	72
NMTAP	62	144	3
NMHLD	62	192	3	72
NMHLD	62	264	4	72
NMTAP	62	336	5
NMSTR	63	0	5
NMSI_	63	0	5	96	96	1
BRTAP	63	240	7
BRTAP	63	288	7
NMHLD	64	0	6	72
NMHLD	64	72	4	72
NMTAP	64	144	3
NMTAP	64	192	3
EXTAP	64	288	0
EXTAP	64	288	1
NMHLD	65	0	6	72
NMHLD	65	72	4	72
NMTAP	65	144	3
NMTAP	65	192	3
EXTAP	65	288	0
EXTAP	65	288	1
NMHLD	66	0	6	72
NMHLD	66	72	5	72
NMTAP	66	144	4
NMHLD	66	192	4	72
NMHLD	66	264	3	72
NMTAP	66	336	2
NMTAP	67	0	2
NMTAP	67	96	1
NMTAP	67	144	1
BRTAP	67	240	0
BRTAP	67	240	7
BRTAP	67	288	0
BRTAP	67	288	7
NMHLD	68	0	6	72
NMHLD	68	72	4	72
NMTAP	68	144	3
NMTAP	68	192	3
EXTAP	68	288	0
EXTAP	68	288	1
NMHLD	69	0	6	72
NMHLD	69	72	4	72
NMTAP	69	144	3
NMTAP	69	192	3
EXTAP	69	288	0
EXTAP	69	288	1
NMHLD	70	0	6	72
NMHLD	70	72	5	72
NMTAP	70	144	4
NMHLD	70	192	4	72
NMHLD	70	264	3	72
NMTAP	70	336	2
NMSTR	71	0	2
NMSI_	71	0	2	96	96	6
BRTAP	71	240	0
BRTAP	71	288	0
NMHLD	72	0	1	72
NMHLD	72	72	3	72
NMTAP	72	144	4
NMTAP	72	192	4
EXTAP	72	288	6
EXTAP	72	288	7
NMHLD	73	0	1	72
NMHLD	73	72	3	72
NMTAP	73	144	4
NMTAP	73	192	4
EXTAP	73	288	6
EXTAP	73	288	7
NMHLD	74	0	1	72
NMHLD	74	72	2	72
NMTAP	74	144	3
NMHLD	74	192	3	72
NMHLD	74	264	4	72
NMTAP	74	336	5
NMTAP	75	0	5
NMTAP	75	96	6
NMTAP	75	144	6
BRTAP	75	240	0
BRTAP	75	240	7
BRTAP	75	288	0
BRTAP	75	288	7
NMSTR	76	0	3
NMSF_	76	0	3	96	144	7
NMTAP	77	0	1
NMTAP	77	48	1
NMTAP	77	96	0
NMTAP	77	144	0
EXTAP	77	240	2
EXTAP	77	288	2
EXTAP	77	336	1
EXTAP	77	336	3
NMTAP	78	48	2
NMTAP	78	144	4
NMTAP	78	144	5
EXTAP	78	240	6
EXTAP	78	240	7
EXTAP	78	336	0
EXTAP	78	336	1
NMTAP	79	48	1
NMTAP	79	96	0
NMTAP	79	144	0
NMTAP	79	240	2
NMTAP	79	288	3
NMTAP	79	336	3
NMTAP	80	48	5
NMTAP	80	96	4
NMTAP	80	144	4
EXTAP	80	240	0
EXTAP	80	240	7
EXTAP	80	288	0
EXTAP	80	288	7
NMTAP	81	0	6
NMTAP	81	48	6
NMTAP	81	96	7
NMTAP	81	144	7
EXTAP	81	240	5
EXTAP	81	288	5
EXTAP	81	336	4
EXTAP	81	336	6
NMTAP	82	48	5
NMTAP	82	144	2
NMTAP	82	144	3
EXTAP	82	240	0
EXTAP	82	240	1
EXTAP	82	336	6
EXTAP	82	336	7
NMTAP	83	48	6
NMTAP	83	96	7
NMTAP	83	144	7
NMTAP	83	240	5
NMTAP	83	288	4
NMTAP	83	336	4
NMTAP	84	48	2
NMTAP	84	96	3
NMTAP	84	144	3
EXTAP	84	240	0
EXTAP	84	240	7
EXTAP	84	288	0
EXTAP	84	288	7
NMSTR	85	0	1
NMSCL	85	0	1	96	1440	1
NMTAP	85	0	6

T_REC_TAP	172
T_REC_BRK	34
T_REC_XTP	58
T_REC_BXX	10
T_REC_HLD	94
T_REC_XHO	2
T_REC_BHO	0
T_REC_BXH	0
T_REC_STR	22
T_REC_BST	0
T_REC_XST	0
T_REC_XBS	0
T_REC_TTP	15
T_REC_THO	1
T_REC_SLD	22
T_REC_BSL	0
T_REC_ALL	430
T_NUM_TAP	267
T_NUM_BRK	44
T_NUM_HLD	97
T_NUM_SLD	22
T_NUM_ALL	430
T_JUDGE_TAP	311
T_JUDGE_HLD	206
T_JUDGE_SLD	22
T_JUDGE_ALL	539
TTM_EACHPAIRS	77
TTM_SCR_TAP	133500
TTM_SCR_BRK	114400
TTM_SCR_HLD	97000
TTM_SCR_SLD	33000
TTM_SCR_ALL	377900
TTM_SCR_S	362300
TTM_SCR_SS	373500
TTM_RAT_ACV	10117

