VERSION	0.00.00	1.03.00
FES_MODE	0
BPM_DEF	200.000	200.000	200.000	200.000
MET_DEF	4	4
RESOLUTION	384
CLK_DEF	384
COMPATIBLE_CODE	MA2

BPM	0	0	200.000
MET	0	0	4	4

TAP	1	0	3
TAP	1	96	4
TAP	1	192	1
TAP	1	240	1
TAP	1	336	4
TAP	2	48	3
TAP	2	96	3
TAP	2	192	6
TAP	2	240	6
TAP	3	0	3
TAP	3	96	4
TAP	3	192	1
TAP	3	240	1
TAP	3	336	4
TAP	4	48	3
TAP	4	96	3
TAP	4	192	6
TAP	4	216	0
TAP	4	240	6
TAP	4	264	0
TAP	4	288	6
TAP	5	0	4
TAP	5	96	3
TAP	5	192	6
TAP	5	240	6
TAP	5	336	3
TAP	6	48	4
TAP	6	96	4
TAP	6	192	1
TAP	6	240	1
TAP	7	0	4
TAP	7	96	3
TAP	7	192	6
TAP	7	240	6
TAP	7	336	3
TAP	8	48	4
TAP	8	96	4
TAP	8	192	0
TAP	8	216	7
TAP	8	240	0
BRK	8	288	1
BRK	8	288	6
TTP	9	0	0	B	0	M1
TTP	9	48	7	B	0	M1
TTP	9	96	1	B	0	M1
TTP	9	144	6	B	0	M1
TTP	9	192	2	B	0	M1
TTP	9	240	5	B	0	M1
TTP	9	288	3	B	0	M1
TTP	9	336	4	B	0	M1
TTP	10	0	1	E	0	M1
TTP	10	48	7	E	0	M1
TTP	10	96	2	E	0	M1
TTP	10	144	6	E	0	M1
TTP	10	192	3	E	0	M1
TTP	10	240	5	E	0	M1
TTP	10	288	0	E	0	M1
TTP	10	288	4	E	0	M1
TTP	11	0	0	C	0	M1
TTP	11	48	7	B	0	M1
TTP	11	96	6	B	0	M1
TTP	11	144	5	B	0	M1
TTP	11	192	4	B	0	M1
TTP	11	240	3	B	0	M1
TTP	11	288	2	B	0	M1
TTP	11	336	1	B	0	M1
TTP	12	0	0	C	0	M1
TTP	12	48	0	E	0	M1
TTP	12	96	1	E	0	M1
TTP	12	144	2	E	0	M1
TTP	12	192	3	E	0	M1
TTP	12	240	4	E	0	M1
TTP	12	288	1	E	0	M1
TTP	12	288	5	E	0	M1
TTP	13	0	0	C	0	M1
TTP	13	48	5	B	0	M1
TTP	13	96	3	E	0	M1
TTP	13	144	6	B	0	M1
TTP	13	192	0	B	0	M1
TTP	13	240	4	E	0	M1
TTP	13	288	0	E	0	M1
TTP	13	336	5	E	0	M1
TTP	14	0	2	B	0	M1
TTP	14	48	0	C	0	M1
TTP	14	96	1	E	0	M1
TTP	14	144	6	E	0	M1
TTP	14	192	3	B	0	M1
TTP	14	240	7	B	0	M1
TTP	14	288	2	E	0	M1
TTP	14	336	4	B	0	M1
TTP	15	0	0	B	0	M1
TTP	15	0	7	E	0	M1
TTP	15	96	3	B	0	M1
TTP	15	96	5	E	0	M1
TTP	15	192	1	E	0	M1
TTP	15	192	7	B	0	M1
TTP	15	288	3	E	0	M1
TTP	15	288	4	B	0	M1
TTP	16	0	1	E	0	M1
TTP	16	24	1	B	0	M1
TTP	16	48	2	B	0	M1
TTP	16	72	3	E	0	M1
TTP	16	96	7	E	0	M1
TTP	16	120	6	B	0	M1
TTP	16	144	5	B	0	M1
TTP	16	168	5	E	0	M1
TTP	16	192	0	C	1	M1
XST	17	0	7
SXR	17	0	7	96	48	5
XST	17	96	1
SXL	17	96	1	96	48	3
XST	17	192	6
SXR	17	192	6	96	48	4
XST	17	288	0
SXL	17	288	0	96	48	2
XST	18	0	7
SXR	18	0	7	96	48	5
XST	18	96	1
SXL	18	96	1	96	48	3
XST	18	192	6
SXR	18	192	6	96	48	4
XTP	18	288	0
TAP	19	0	1
TAP	19	48	1
TAP	19	96	1
TAP	19	144	1
TAP	19	192	1
TAP	19	192	6
TAP	19	240	1
TAP	19	240	6
TAP	19	288	1
TAP	19	288	6
TAP	19	336	1
TAP	19	336	6
BRK	20	0	1
BRK	20	0	6
BRK	20	192	0
BRK	20	192	7
XST	21	0	4
SI_	21	0	4	96	48	6
XST	21	96	4
SI_	21	96	4	96	48	2
XST	21	192	4
SI_	21	192	4	96	48	7
XST	21	288	4
SI_	21	288	4	96	48	1
XST	22	0	4
SCR	22	0	4	96	48	7
XST	22	96	4
SCL	22	96	4	96	48	1
XST	22	192	4
SI_	22	192	4	96	48	0
XTP	22	288	4
XST	23	0	2
SXR	23	0	2	96	48	0
XST	23	96	4
SXL	23	96	4	96	48	6
XST	23	192	3
SXR	23	192	3	96	48	1
XST	23	288	5
SXL	23	288	5	96	48	7
XTP	24	0	2
TTP	24	192	1	B	0	M1
TTP	24	192	1	E	0	M1
TTP	24	192	6	B	0	M1
TTP	24	192	7	E	0	M1
STR	25	0	5
SI_	25	0	5	96	48	3
TAP	25	48	5
STR	25	96	7
SI_	25	96	7	96	48	1
TAP	25	144	7
STR	25	192	6
SI_	25	192	6	96	48	2
TAP	25	240	6
STR	25	288	7
SI_	25	288	7	96	48	1
TAP	25	336	7
STR	26	0	5
SI_	26	0	5	96	48	3
TAP	26	48	5
STR	26	96	6
SI_	26	96	6	96	48	2
TAP	26	144	6
STR	26	192	5
SI_	26	192	5	96	48	3
TAP	26	240	5
TAP	26	288	7
TAP	26	336	7
HLD	27	0	4	24
HLD	27	48	3	24
HLD	27	96	4	24
HLD	27	144	3	24
HLD	27	192	3	48
HLD	27	192	4	48
HLD	27	288	3	48
HLD	27	288	4	48
TTP	28	0	0	C	0	M1
TTP	28	0	5	B	0	M1
TTP	28	0	6	B	0	M1
TTP	28	0	7	E	0	M1
TTP	28	192	0	C	1	M1
TTP	28	192	1	B	0	M1
TTP	28	192	1	E	0	M1
TTP	28	192	2	B	0	M1
TAP	29	0	6
TAP	29	48	6
HLD	29	96	4	48
HLD	29	96	5	48
TAP	29	192	1
TAP	29	240	1
HLD	29	288	2	48
HLD	29	288	3	48
TAP	30	0	6
TAP	30	48	6
HLD	30	96	4	48
HLD	30	96	5	48
HLD	30	192	3	48
HLD	30	192	4	48
TAP	30	288	2
TAP	30	288	5
TAP	30	336	2
TAP	30	336	5
XTP	31	0	4
TAP	31	24	5
TAP	31	48	6
TAP	31	72	7
XTP	31	96	0
TAP	31	120	1
TAP	31	144	2
TAP	31	168	3
XTP	31	192	4
XTP	31	204	5
XTP	31	216	6
XTP	31	228	7
XTP	31	240	0
XTP	31	252	1
XTP	31	264	2
XTP	31	276	3
XTP	31	288	4
XTP	31	300	5
XTP	31	312	6
XTP	31	324	7
XTP	31	336	0
XTP	31	348	1
XTP	31	360	2
XTP	31	372	3
XTP	32	0	4
XST	32	96	4
SF_	32	96	4	96	48	0
XTP	32	192	4
TTP	32	216	0	C	1	M1
TAP	33	0	1
TAP	33	24	0
TAP	33	48	1
TAP	33	96	6
TAP	33	120	7
TAP	33	144	6
TAP	33	192	1
TAP	33	216	0
TAP	33	240	1
TAP	33	288	6
TAP	33	312	7
TAP	33	336	6
TAP	34	0	2
TAP	34	24	3
TAP	34	48	2
TAP	34	96	5
TAP	34	120	4
TAP	34	144	5
XTP	34	192	3
XTP	34	192	4
XTP	34	264	3
XTP	34	264	4
XTP	34	336	3
XTP	34	336	4
TAP	35	0	2
TAP	35	24	3
TAP	35	48	2
TAP	35	96	5
TAP	35	120	4
TAP	35	144	5
TAP	35	192	2
TAP	35	216	3
TAP	35	240	1
TAP	35	288	5
TAP	35	312	4
TAP	35	336	6
TAP	36	0	2
TAP	36	24	3
TAP	36	48	0
TAP	36	96	5
TAP	36	120	4
TAP	36	144	7
TAP	36	192	1
TAP	36	216	0
TAP	36	240	1
XTP	36	288	2
XTP	36	288	7
STR	37	0	4
SI_	37	0	4	96	48	2
HLD	37	0	6	960
STR	37	192	5
SI_	37	192	5	96	48	2
TAP	38	0	1
TAP	38	48	1
TAP	38	96	1
TAP	38	144	1
TAP	38	192	1
TAP	38	240	1
TAP	38	288	1
TAP	38	336	1
TAP	39	0	1
TAP	39	48	1
TAP	39	96	1
TAP	39	144	1
TTP	39	192	0	C	1	M1
STR	41	0	0
SI_	41	0	0	96	288	4
TAP	43	0	5
TAP	44	0	6
STR	45	0	6
SI_	45	0	6	96	288	2
THO	46	336	0	240	C	1	M1
TTP	46	336	1	B	0	M1
TTP	46	336	2	B	0	M1
TTP	46	336	5	B	0	M1
TTP	46	336	6	B	0	M1
XST	49	0	0
SXL	49	0	0	96	48	2
XST	49	96	6
SXR	49	96	6	96	48	4
XST	49	192	1
SXL	49	192	1	96	48	3
XST	49	288	7
SXR	49	288	7	96	48	5
XST	50	0	0
SXL	50	0	0	96	48	2
XST	50	96	6
SXR	50	96	6	96	48	4
XST	50	192	1
SXL	50	192	1	96	48	3
XTP	50	288	7
TAP	51	0	6
TAP	51	48	6
TAP	51	96	4
TAP	51	96	5
TAP	51	144	6
TAP	51	192	1
TAP	51	240	1
TAP	51	288	2
TAP	51	288	3
TAP	51	336	1
TAP	52	0	6
TAP	52	48	7
TAP	52	96	0
TAP	52	144	1
HLD	52	192	2	96
HLD	52	192	5	96
XST	53	0	3
SI_	53	0	3	96	48	1
XST	53	96	3
SI_	53	96	3	96	48	5
XST	53	192	3
SI_	53	192	3	96	48	0
XST	53	288	3
SI_	53	288	3	96	48	6
XST	54	0	3
SCL	54	0	3	96	48	0
XST	54	96	3
SCR	54	96	3	96	48	6
XST	54	192	3
SI_	54	192	3	96	48	7
XTP	54	288	3
TAP	55	0	5
TAP	55	48	4
TAP	55	96	3
TAP	55	144	2
XTP	55	192	0
XTP	55	192	1
XTP	55	264	3
XTP	55	264	4
XTP	55	336	6
XTP	55	336	7
XST	56	0	0
SUL	56	0	0	96	48	4
XST	56	0	7
SUR	56	0	7	96	48	3
XTP	56	192	2
XTP	56	192	5
BRK	56	288	0
BRK	56	288	7
STR	57	0	5
SI_	57	0	5	96	48	3
TAP	57	48	5
STR	57	96	7
SI_	57	96	7	96	48	1
TAP	57	144	7
STR	57	192	6
SI_	57	192	6	96	48	2
TAP	57	240	6
STR	57	288	7
SI_	57	288	7	96	48	1
TAP	57	336	7
STR	58	0	5
SI_	58	0	5	96	48	3
TAP	58	48	5
STR	58	96	6
SI_	58	96	6	96	48	2
TAP	58	144	6
STR	58	192	5
SI_	58	192	5	96	48	3
TAP	58	240	5
TAP	58	288	7
TAP	58	336	7
TAP	59	0	5
TAP	59	48	4
TAP	59	96	3
TAP	59	96	6
TAP	59	144	5
TAP	59	192	2
TAP	59	240	3
TAP	59	288	1
TAP	59	288	4
TAP	59	336	2
TAP	60	0	5
TAP	60	48	4
TAP	60	96	3
TAP	60	96	6
TAP	60	144	5
HLD	60	192	0	96
HLD	60	192	4	96
XST	61	0	2
SI_	61	0	2	96	48	7
XST	61	0	6
SI_	61	0	6	96	48	3
XTP	61	96	2
XTP	61	96	6
BRK	61	192	1
BRK	61	192	5
TAP	61	288	6
TAP	61	336	7
TAP	62	0	0
TAP	62	0	1
TAP	62	48	2
TAP	62	96	3
TAP	62	96	4
TAP	62	144	5
STR	62	192	6
SI_	62	192	6	96	48	3
HLD	62	192	7	96
TAP	63	0	0
TAP	63	0	4
TAP	63	48	1
TAP	63	48	5
TAP	63	96	2
TAP	63	96	6
TAP	63	144	3
TAP	63	144	7
XTP	63	192	0
XTP	63	192	1
XTP	63	264	3
XTP	63	264	4
XTP	63	336	6
XTP	63	336	7
TTP	64	0	0	B	0	M1
TTP	64	0	0	C	1	M1
TTP	64	0	1	B	0	M1
TTP	64	0	4	B	0	M1
TTP	64	0	5	B	0	M1
TTP	64	192	0	C	1	M1
TTP	64	192	2	B	0	M1
TTP	64	192	3	B	0	M1
TTP	64	192	6	B	0	M1
TTP	64	192	7	B	0	M1
STR	65	0	1
SI_	65	0	1	96	48	4
TAP	65	48	1
STR	65	96	6
SI_	65	96	6	96	48	2
TAP	65	144	6
STR	65	192	0
SI_	65	192	0	96	48	3
TAP	65	240	0
STR	65	288	4
SI_	65	288	4	96	48	7
TAP	65	336	4
STR	66	0	2
SI_	66	0	2	96	48	5
TAP	66	48	2
STR	66	96	7
SI_	66	96	7	96	48	3
TAP	66	144	7
HLD	66	192	0	96
TAP	66	288	6
STR	67	0	5
SI_	67	0	5	96	48	0
TAP	67	48	5
STR	67	96	1
SI_	67	96	1	96	48	4
TAP	67	144	1
STR	67	192	7
SI_	67	192	7	96	48	4
TAP	67	240	7
STR	67	288	2
SI_	67	288	2	96	48	5
TAP	67	336	2
STR	68	0	6
SI_	68	0	6	96	48	1
TAP	68	48	6
STR	68	96	3
SI_	68	96	3	96	48	0
TAP	68	144	3
HLD	68	192	7	96
TAP	68	288	1
STR	69	0	6
SI_	69	0	6	96	48	3
TAP	69	48	6
STR	69	96	1
SI_	69	96	1	96	48	5
TAP	69	144	1
STR	69	192	7
SI_	69	192	7	96	48	4
TAP	69	240	7
STR	69	288	3
SI_	69	288	3	96	48	0
TAP	69	336	3
STR	70	0	5
SI_	70	0	5	96	48	2
TAP	70	48	5
STR	70	96	0
SI_	70	96	0	96	48	4
TAP	70	144	0
HLD	70	192	7	96
TAP	70	288	1
STR	71	0	0
SCR	71	0	0	96	96	4
STR	71	96	4
SCR	71	96	4	96	96	0
STR	71	192	0
SCR	71	192	0	96	96	4
STR	71	288	4
SCR	71	288	4	96	192	3
TTP	72	0	0	C	1	M1
TAP	73	0	1
TAP	73	0	7
STR	73	96	4
SI_	73	96	4	96	48	0
TAP	73	96	5
TAP	73	192	7
TAP	73	240	7
STR	73	336	1
SI_	73	336	1	96	48	5
TAP	73	336	5
TAP	74	48	7
STR	74	96	7
SCL	74	96	7	96	48	4
TTP	74	192	0	C	0	M1
TTP	74	192	1	E	0	M1
TAP	75	0	0
TAP	75	0	6
TAP	75	96	2
STR	75	96	3
SI_	75	96	3	96	48	7
TAP	75	192	0
TAP	75	240	0
TAP	75	336	2
STR	75	336	6
SI_	75	336	6	96	48	2
TAP	76	48	1
STR	76	96	0
SCR	76	96	0	96	48	3
TTP	76	192	0	C	0	M1
TTP	76	192	7	E	0	M1
TTP	76	288	3	E	0	M1
TTP	76	288	4	E	0	M1
TAP	77	0	1
TAP	77	0	7
STR	77	96	4
SI_	77	96	4	96	48	0
TAP	77	96	5
TAP	77	192	7
TAP	77	240	7
STR	77	336	1
SI_	77	336	1	96	48	5
TAP	77	336	5
TAP	78	48	7
STR	78	96	7
SCL	78	96	7	96	48	4
TTP	78	192	0	C	0	M1
TTP	78	192	1	E	0	M1
TAP	79	0	0
TAP	79	0	6
TAP	79	96	2
STR	79	96	3
SI_	79	96	3	96	48	7
TAP	79	192	0
TAP	79	240	0
TAP	79	336	2
STR	79	336	6
SI_	79	336	6	96	48	2
TAP	80	48	0
STR	80	96	0
SCR	80	96	0	96	48	3
TTP	80	192	0	C	1	M1
TTP	80	192	7	E	0	M1
TTP	80	288	3	B	0	M1
TTP	80	288	4	B	0	M1
STR	81	0	2
SI_	81	0	2	96	48	7
STR	81	0	6
SI_	81	0	6	96	48	3
XTP	81	96	2
XTP	81	96	6
TAP	81	192	0
STR	81	240	0
SI_	81	240	0	96	48	4
STR	81	336	5
SI_	81	336	5	96	48	2
TAP	82	48	0
HLD	82	96	0	96
TAP	82	192	7
TAP	82	216	6
TAP	82	240	5
TAP	82	264	4
TTP	82	288	0	C	0	M1
TTP	82	288	0	B	0	M1
TAP	82	288	3
STR	83	0	1
SI_	83	0	1	96	48	4
STR	83	0	5
SI_	83	0	5	96	48	0
XTP	83	96	1
XTP	83	96	5
TAP	83	192	7
STR	83	240	7
SI_	83	240	7	96	48	3
STR	83	336	2
SI_	83	336	2	96	48	5
TAP	84	48	7
HLD	84	96	7	96
TAP	84	192	0
TAP	84	216	1
TAP	84	240	2
TAP	84	264	3
TTP	84	288	0	C	0	M1
TAP	84	288	4
TTP	84	288	7	B	0	M1
STR	85	0	2
SI_	85	0	2	96	48	7
STR	85	0	6
SI_	85	0	6	96	48	3
XTP	85	96	2
XTP	85	96	6
TAP	85	192	0
STR	85	240	0
SI_	85	240	0	96	48	4
STR	85	336	5
SI_	85	336	5	96	48	2
TAP	86	48	0
HLD	86	96	0	96
TAP	86	192	6
TAP	86	216	5
TAP	86	240	4
TAP	86	264	3
TTP	86	288	0	B	0	M1
TAP	86	288	2
TTP	86	288	7	B	0	M1
STR	87	0	1
SI_	87	0	1	96	48	4
TAP	87	48	1
STR	87	96	5
SI_	87	96	5	96	48	0
TAP	87	144	5
STR	87	192	2
SI_	87	192	2	96	48	7
TAP	87	240	2
STR	87	288	6
SI_	87	288	6	96	48	3
TAP	87	336	6
XTP	88	0	0
XTP	88	48	1
XTP	88	96	2
XTP	88	144	3
XTP	88	192	4
XTP	88	204	5
XTP	88	216	6
XTP	88	228	7
XST	88	240	0
SF_	88	240	0	96	96	4
XTP	88	252	1
XTP	88	264	2
XTP	88	276	3
XTP	88	288	4
TTP	89	0	0	C	1	M1

T_REC_TAP	262
T_REC_BRK	10
T_REC_XTP	67
T_REC_HLD	28
T_REC_XHO	0
T_REC_STR	69
T_REC_BST	0
T_REC_XST	38
T_REC_TTP	113
T_REC_THO	1
T_REC_SLD	107
T_REC_ALL	695
T_NUM_TAP	549
T_NUM_BRK	10
T_NUM_HLD	29
T_NUM_SLD	107
T_NUM_ALL	695
T_JUDGE_TAP	559
T_JUDGE_HLD	63
T_JUDGE_SLD	107
T_JUDGE_ALL	729
TTM_EACHPAIRS	64
TTM_SCR_TAP	274500
TTM_SCR_BRK	26000
TTM_SCR_HLD	29000
TTM_SCR_SLD	160500
TTM_SCR_ALL	490000
TTM_SCR_S	474350
TTM_SCR_SS	489000
TTM_RAT_ACV	10020

